osu file format v14

[General]
AudioFilename: audio.mp3
AudioLeadIn: 0
PreviewTime: 56831
Countdown: 1
SampleSet: None
StackLeniency: 0.7
Mode: 0
LetterboxInBreaks: 0
WidescreenStoryboard: 0

[Editor]
DistanceSpacing: 1
BeatDivisor: 4
GridSize: 32
TimelineZoom: 2.6

[Metadata]
Title:Beloved Tomboyish Girl (TurboAutism Eurobeat Remix Short Ver.)
TitleUnicode:Beloved Tomboyish Girl (TurboAutism Eurobeat Remix Short Ver.)
Artist:ZUN
ArtistUnicode:ZUN
Creator:- - Makrica - -
Version:BAKA DRIFT
Source:Touhou
Tags:TurboAutism Eurobeat Touhou Initial D
BeatmapID:2044716
BeatmapSetID:976892

[Difficulty]
HPDrainRate:5
CircleSize:3.8
OverallDifficulty:8.5
ApproachRate:9.3
SliderMultiplier:1.8
SliderTickRate:1

[Events]
//Background and Video events
0,0,"bg.jpg",0,0
//Break Periods
//Storyboard Layer 0 (Background)
//Storyboard Layer 1 (Fail)
//Storyboard Layer 2 (Pass)
//Storyboard Layer 3 (Foreground)
//Storyboard Sound Samples

[TimingPoints]
2797,340.909090909091,4,2,0,100,1,0
5353,-100,4,2,0,5,0,0
5524,-100,4,2,0,60,0,0
15410,-100,4,2,0,40,0,0
15751,-100,4,2,0,60,0,0
24274,-100,4,2,0,40,0,0
26660,-100,4,2,0,60,0,0
30069,-100,4,2,0,50,0,0
39615,-100,4,2,0,40,0,0
40297,-100,4,2,0,60,0,0
50183,-100,4,2,0,40,0,0
50865,-100,4,2,0,60,0,0
51973,-100,4,2,0,5,0,0
57001,-83.3333333333333,4,2,0,80,0,1
59473,-66.6666666666667,4,2,0,80,0,1
59729,-83.3333333333333,4,2,0,80,0,1
67058,-83.3333333333333,4,2,0,40,0,0
67910,-83.3333333333333,4,2,0,60,0,0
68251,-83.3333333333333,4,2,0,80,0,1
77967,-83.3333333333333,4,2,0,40,0,0
78819,-83.3333333333333,4,2,0,60,0,0
88365,-83.3333333333333,4,2,0,40,0,0
90069,-83.3333333333333,4,2,0,60,0,0
99274,-83.3333333333333,4,2,0,40,0,0
99956,-83.3333333333333,4,2,0,60,0,0
106433,-83.3333333333333,4,2,0,5,0,0

[HitObjects]
256,192,3819,12,0,5353,0:0:0:0:
105,120,5524,6,0,L|221:130,1,90,6|0,0:0|0:0,0:0:0:0:
418,192,5865,1,10,0:0:0:0:
320,330,6035,2,0,P|301:241|313:121,1,180,2|0,0:0|0:0,0:0:0:0:
133,218,6547,1,10,0:0:0:0:
133,218,6632,1,2,0:0:0:0:
133,218,6717,1,2,0:0:0:0:
188,37,6887,6,0,L|199:156,1,90,6|0,0:0|0:0,0:0:0:0:
65,60,7228,1,10,0:0:0:0:
297,28,7399,2,0,P|341:28|386:36,1,90,2|0,0:0|0:0,0:0:0:0:
247,124,7740,1,2,0:0:0:0:
247,124,7825,1,2,0:0:0:0:
247,124,7910,1,10,0:0:0:0:
423,161,8081,1,2,0:0:0:0:
194,265,8251,6,0,L|310:255,1,90,6|0,0:0|0:0,0:0:0:0:
507,193,8592,1,10,0:0:0:0:
409,55,8762,2,0,P|390:143|402:263,1,180,2|0,0:0|0:0,0:0:0:0:
227,183,9274,1,10,0:0:0:0:
227,183,9359,1,2,0:0:0:0:
227,183,9444,1,2,0:0:0:0:
277,348,9615,6,0,L|288:229,1,90,6|0,0:0|0:0,0:0:0:0:
468,365,9956,1,10,0:0:0:0:
464,375,10041,1,2,0:0:0:0:
463,384,10126,2,0,P|418:383|373:375,1,90,2|0,0:0|0:0,0:0:0:0:
512,272,10467,1,2,0:0:0:0:
512,272,10552,1,2,0:0:0:0:
512,272,10637,1,10,0:0:0:0:
312,188,10808,1,2,0:0:0:0:
479,92,10978,6,0,L|363:102,1,90,6|0,0:0|0:0,0:0:0:0:
133,165,11319,1,10,0:0:0:0:
231,303,11490,2,0,P|249:214|237:94,1,180,2|0,0:0|0:0,0:0:0:0:
423,195,12001,1,10,0:0:0:0:
423,195,12086,1,2,0:0:0:0:
423,195,12172,1,2,0:0:0:0:
363,10,12342,6,0,L|352:129,1,90,6|0,0:0|0:0,0:0:0:0:
486,33,12683,1,10,0:0:0:0:
254,1,12853,2,0,P|209:1|164:9,1,90,2|0,0:0|0:0,0:0:0:0:
317,105,13194,1,2,0:0:0:0:
317,105,13279,1,2,0:0:0:0:
317,105,13365,1,10,0:0:0:0:
128,134,13535,1,2,0:0:0:0:
322,251,13706,6,0,L|206:241,1,90,6|0,0:0|0:0,0:0:0:0:
9,179,14047,1,10,0:0:0:0:
107,41,14217,2,0,P|126:129|114:249,1,180,2|0,0:0|0:0,0:0:0:0:
312,169,14728,1,10,0:0:0:0:
312,169,14814,1,2,0:0:0:0:
312,169,14899,1,2,0:0:0:0:
239,334,15069,2,0,L|228:215,1,90,2|0,0:0|0:0,0:0:0:0:
37,301,15410,5,10,0:0:0:0:
37,301,15495,1,2,0:0:0:0:
37,301,15581,1,2,0:0:0:0:
37,301,15666,1,2,0:0:0:0:
37,301,15751,5,2,0:0:0:0:
51,311,15836,1,2,0:0:0:0:
111,339,15922,1,2,0:0:0:0:
176,327,16007,1,2,0:0:0:0:
221,279,16092,1,2,0:0:0:0:
230,214,16177,1,2,0:0:0:0:
198,156,16262,1,2,0:0:0:0:
139,128,16348,1,2,0:0:0:0:
71,134,16433,6,0,P|27:156|0:197,1,90,6|0,0:0|0:0,0:0:0:0:
167,359,16774,1,10,0:0:0:0:
305,260,16944,2,0,P|216:241|96:253,1,180,2|0,0:0|0:0,0:0:0:0:
192,73,17456,1,10,0:0:0:0:
192,73,17541,1,2,0:0:0:0:
192,73,17626,1,2,0:0:0:0:
11,128,17797,6,0,L|130:139,1,90,6|0,0:0|0:0,0:0:0:0:
34,6,18137,1,10,0:0:0:0:
2,237,18308,2,0,P|2:281|10:325,1,90,2|0,0:0|0:0,0:0:0:0:
98,187,18649,1,2,0:0:0:0:
98,187,18734,1,2,0:0:0:0:
98,187,18819,1,10,0:0:0:0:
135,363,18990,1,2,0:0:0:0:
266,186,19160,6,0,P|220:176|149:182,1,90,6|0,0:0|0:0,0:0:0:0:
214,379,19501,1,10,0:0:0:0:
76,281,19672,2,0,P|164:262|284:274,1,180,2|0,0:0|0:0,0:0:0:0:
204,99,20183,1,10,0:0:0:0:
204,99,20268,1,2,0:0:0:0:
204,99,20353,1,2,0:0:0:0:
369,149,20524,6,0,L|250:160,1,90,6|0,0:0|0:0,0:0:0:0:
386,341,20865,1,10,0:0:0:0:
404,343,20950,1,2,0:0:0:0:
424,337,21035,2,0,P|442:296|422:233,1,90,2|0,0:0|0:0,0:0:0:0:
344,382,21376,1,2,0:0:0:0:
344,382,21461,1,2,0:0:0:0:
344,382,21547,1,10,0:0:0:0:
272,176,21717,1,2,0:0:0:0:
224,377,21887,6,0,L|214:261,1,90,6|0,0:0|0:0,0:0:0:0:
151,31,22228,1,10,0:0:0:0:
13,129,22399,2,0,P|102:147|222:135,1,180,2|0,0:0|0:0,0:0:0:0:
121,321,22910,1,10,0:0:0:0:
121,321,22995,1,2,0:0:0:0:
121,321,23081,1,2,0:0:0:0:
306,261,23251,6,0,L|187:250,1,90,6|0,0:0|0:0,0:0:0:0:
283,384,23592,1,10,0:0:0:0:
319,171,23762,2,0,P|319:126|311:81,1,90,2|0,0:0|0:0,0:0:0:0:
442,125,24103,1,2,0:0:0:0:
442,125,24189,1,2,0:0:0:0:
442,125,24274,1,10,0:0:0:0:
281,0,24444,1,2,0:0:0:0:
211,215,24615,6,0,L|327:205,1,90,2|0,0:0|0:0,0:0:0:0:
507,168,24956,1,10,0:0:0:0:
409,30,25126,2,0,P|390:118|402:238,1,180,2|0,0:0|0:0,0:0:0:0:
204,158,25637,1,10,0:0:0:0:
204,158,25723,1,2,0:0:0:0:
204,158,25808,1,2,0:0:0:0:
277,323,25978,2,0,L|288:204,1,90,2|0,0:0|0:0,0:0:0:0:
479,290,26319,5,10,0:0:0:0:
479,290,26404,1,2,0:0:0:0:
479,290,26490,1,2,0:0:0:0:
479,290,26575,1,2,0:0:0:0:
479,290,26660,5,2,0:0:0:0:
465,300,26745,1,2,0:0:0:0:
405,328,26831,1,2,0:0:0:0:
340,316,26916,1,2,0:0:0:0:
295,268,27001,1,2,0:0:0:0:
286,203,27086,1,2,0:0:0:0:
318,145,27172,1,2,0:0:0:0:
377,117,27257,1,2,0:0:0:0:
445,123,27342,6,0,P|488:145|516:186,1,90,6|0,0:0|0:0,0:0:0:0:
384,263,27683,2,0,L|294:267,1,90,10|0,0:0|0:0,0:0:0:0:
294,267,27939,1,2,0:0:0:0:
294,267,28024,1,2,0:0:0:0:
225,93,28194,1,2,0:0:0:0:
225,93,28279,1,2,0:0:0:0:
225,93,28365,2,0,L|239:195,1,90,10|0,0:0|0:0,0:0:0:0:
399,80,28706,6,0,L|272:82,1,90,10|0,0:0|0:0,0:0:0:0:
141,187,29047,1,2,0:0:0:0:
309,197,29217,2,0,L|422:202,1,90,10|0,0:0|0:0,0:0:0:0:
149,209,29558,1,2,0:0:0:0:
317,219,29728,2,0,L|430:224,1,90,10|0,0:0|0:0,0:0:0:0:
381,24,30069,6,0,L|397:135,1,90,14|0,0:0|0:0,0:0:0:0:
393,113,30325,1,2,0:0:0:0:
393,113,30410,1,2,0:0:0:0:
145,69,30581,1,2,0:0:0:0:
145,69,30666,1,2,0:0:0:0:
145,69,30751,2,0,L|247:89,1,90,10|0,0:0|0:0,0:0:0:0:
277,322,31092,2,0,L|256:206,1,90,10|0,0:0|0:0,0:0:0:0:
498,292,31433,2,0,L|395:300,1,90,10|0,0:0|0:0,0:0:0:0:
188,151,31774,6,0,L|289:163,1,90,10|0,0:0|0:0,0:0:0:0:
277,161,32029,1,2,0:0:0:0:
277,161,32115,1,2,0:0:0:0:
99,361,32285,1,2,0:0:0:0:
99,361,32370,1,2,0:0:0:0:
99,361,32456,2,0,P|79:311|92:255,1,90,10|0,0:0|0:0,0:0:0:0:
119,9,32797,6,0,P|136:52|127:117,1,90,14|0,0:0|0:0,0:0:0:0:
287,291,33137,2,0,L|186:303,1,90,10|0,0:0|0:0,0:0:0:0:
197,301,33393,1,2,0:0:0:0:
197,301,33478,1,2,0:0:0:0:
306,59,33649,1,2,0:0:0:0:
306,59,33734,1,2,0:0:0:0:
306,59,33819,2,0,L|300:161,1,90,10|0,0:0|0:0,0:0:0:0:
109,284,34160,5,10,0:0:0:0:
287,291,34331,2,0,L|400:296,1,90,2|0,0:0|0:0,0:0:0:0:
116,309,34672,1,10,0:0:0:0:
294,316,34842,2,0,L|407:321,1,90,2|0,0:0|0:0,0:0:0:0:
349,48,35183,2,0,L|359:156,1,90,10|0,0:0|0:0,0:0:0:0:
482,313,35524,6,0,L|465:190,1,90,14|0,0:0|0:0,0:0:0:0:
203,206,35865,2,0,L|301:212,1,90,10|0,0:0|0:0,0:0:0:0:
293,212,36120,1,2,0:0:0:0:
293,212,36206,1,2,0:0:0:0:
99,379,36376,1,2,0:0:0:0:
99,379,36461,1,2,0:0:0:0:
99,379,36547,2,0,P|103:328|91:274,1,90,10|0,0:0|0:0,0:0:0:0:
120,94,36887,6,0,L|220:102,1,90,10|0,0:0|0:0,0:0:0:0:
382,210,37228,2,0,L|282:211,1,90,10|0,0:0|0:0,0:0:0:0:
292,210,37484,1,2,0:0:0:0:
292,210,37569,1,2,0:0:0:0:
407,16,37740,1,2,0:0:0:0:
407,16,37825,1,2,0:0:0:0:
407,16,37910,2,0,P|409:67|397:118,1,90,10|0,0:0|0:0,0:0:0:0:
129,101,38251,6,0,L|244:105,1,90,14|0,0:0|0:0,0:0:0:0:
0,221,38592,2,0,L|101:233,1,90,10|0,0:0|0:0,0:0:0:0:
89,232,38848,1,2,0:0:0:0:
89,232,38933,1,2,0:0:0:0:
0,23,39103,1,2,0:0:0:0:
0,23,39189,1,2,0:0:0:0:
0,23,39274,2,0,P|12:70|15:126,1,90,10|0,0:0|0:0,0:0:0:0:
151,83,39615,5,2,0:0:0:0:
154,96,39700,1,2,0:0:0:0:
157,109,39785,1,2,0:0:0:0:
160,122,39870,1,2,0:0:0:0:
163,135,39956,1,2,0:0:0:0:
166,148,40041,1,2,0:0:0:0:
169,161,40126,1,2,0:0:0:0:
172,174,40211,1,2,0:0:0:0:
183,201,40297,5,2,0:0:0:0:
214,255,40382,1,2,0:0:0:0:
258,297,40467,1,2,0:0:0:0:
319,315,40552,1,2,0:0:0:0:
380,307,40637,1,2,0:0:0:0:
432,274,40723,1,2,0:0:0:0:
465,221,40808,1,2,0:0:0:0:
472,160,40893,1,2,0:0:0:0:
450,100,40978,6,0,P|413:70|369:65,1,90,6|0,0:0|0:0,0:0:0:0:
215,256,41319,2,0,P|193:298|197:342,1,90,10|0,0:0|0:0,0:0:0:0:
250,99,41660,2,0,P|235:53|201:25,1,90,2|0,0:0|0:0,0:0:0:0:
9,155,42001,6,0,L|69:133,1,45,10|0,0:0|0:0,0:0:0:0:
181,1,42172,2,0,L|119:22,1,45,2|0,0:0|0:0,0:0:0:0:
0,190,42342,2,0,P|2:237|28:273,1,90,2|0,0:0|0:0,0:0:0:0:
25,271,42598,1,2,0:0:0:0:
25,271,42683,1,10,0:0:0:0:
264,176,42853,5,2,0:0:0:0:
264,176,42939,1,2,0:0:0:0:
264,176,43024,2,0,P|217:166|176:181,1,90,2|0,0:0|0:0,0:0:0:0:
155,68,43365,2,0,P|228:55|294:72,1,135,10|0,0:0|0:0,0:0:0:0:
386,286,43706,6,0,P|397:239|383:197,1,90,6|0,0:0|0:0,0:0:0:0:
143,283,44047,2,0,P|113:320|109:364,1,90,10|0,0:0|0:0,0:0:0:0:
30,162,44387,6,0,P|44:116|78:88,1,90,2|0,0:0|0:0,0:0:0:0:
271,218,44728,2,0,L|211:196,1,45,10|0,0:0|0:0,0:0:0:0:
99,64,44899,2,0,L|161:85,1,45,2|0,0:0|0:0,0:0:0:0:
280,253,45069,2,0,P|277:300|251:336,1,90,2|0,0:0|0:0,0:0:0:0:
355,86,45410,6,0,P|312:65|268:70,1,90,10|0,0:0|0:0,0:0:0:0:
270,68,45666,1,2,0:0:0:0:
270,68,45751,1,2,0:0:0:0:
512,120,45922,1,2,0:0:0:0:
512,120,46007,1,2,0:0:0:0:
512,120,46092,1,10,0:0:0:0:
435,332,46262,5,2,0:0:0:0:
435,332,46348,1,2,0:0:0:0:
435,332,46433,2,0,P|442:290|433:232,1,90,6|0,0:0|0:0,0:0:0:0:
331,53,46774,2,0,P|323:94|332:152,1,90,10|0,0:0|0:0,0:0:0:0:
266,280,47115,6,0,L|319:219,1,45,2|0,0:0|0:0,0:0:0:0:
474,67,47285,2,0,L|420:127,1,45,2|0,0:0|0:0,0:0:0:0:
275,317,47456,2,0,L|313:245,1,45,10|0,0:0|0:0,0:0:0:0:
455,30,47626,2,0,L|416:101,1,45,2|0,0:0|0:0,0:0:0:0:
186,353,47797,6,0,L|175:241,1,90,2|0,0:0|0:0,0:0:0:0:
137,0,48137,1,10,0:0:0:0:
81,352,48308,1,2,0:0:0:0:
234,75,48478,2,0,L|288:-5,1,90,2|0,0:0|0:0,0:0:0:0:
408,181,48819,6,0,P|361:189|309:189,1,90,10|0,0:0|0:0,0:0:0:0:
61,276,49160,2,0,P|110:276|166:270,1,90,2|0,0:0|0:0,0:0:0:0:
180,36,49501,6,0,P|189:81|188:131,1,90,10|0,0:0|0:0,0:0:0:0:
275,383,49842,2,0,P|275:334|269:278,1,90,2|0,0:0|0:0,0:0:0:0:
460,57,50183,5,10,0:0:0:0:
460,57,50268,1,2,0:0:0:0:
460,57,50353,1,2,0:0:0:0:
460,57,50439,1,2,0:0:0:0:
460,57,50524,1,2,0:0:0:0:
460,57,50609,1,2,0:0:0:0:
460,57,50694,1,2,0:0:0:0:
460,57,50779,1,2,0:0:0:0:
460,57,50865,5,2,0:0:0:0:
488,91,50950,1,2,0:0:0:0:
506,131,51035,1,2,0:0:0:0:
512,176,51120,1,2,0:0:0:0:
508,220,51206,1,2,0:0:0:0:
491,262,51291,1,2,0:0:0:0:
464,298,51376,1,2,0:0:0:0:
429,326,51461,1,2,0:0:0:0:
387,343,51547,1,2,0:0:0:0:
343,350,51632,1,2,0:0:0:0:
299,344,51717,6,0,P|272:333|244:310,2,45,2|2|0,0:0|0:0|0:0,0:0:0:0:
256,192,51973,12,0,55211,0:0:0:0:
256,192,55297,12,0,56831,0:0:0:0:
145,338,57001,5,2,0:0:0:0:
145,338,57086,1,2,0:0:0:0:
145,338,57172,1,2,0:0:0:0:
145,338,57257,1,2,0:0:0:0:
145,338,57342,6,0,L|222:333,1,53.9999983520508,14|0,0:0|0:0,0:0:0:0:
425,285,57512,2,0,L|272:258,1,107.999996704102,10|0,0:0|0:0,0:0:0:0:
85,80,57853,2,0,L|218:69,1,107.999996704102,10|0,0:0|0:0,0:0:0:0:
504,200,58194,5,2,0:0:0:0:
512,147,58279,1,2,0:0:0:0:
500,94,58365,1,2,0:0:0:0:
468,51,58450,1,2,0:0:0:0:
422,23,58535,1,2,0:0:0:0:
370,14,58620,1,2,0:0:0:0:
316,10,58706,6,0,P|261:30|230:92,1,107.999996704102,14|0,0:0|0:0,0:0:0:0:
512,195,59047,1,10,0:0:0:0:
232,252,59217,2,0,L|108:275,1,107.999996704102,10|0,0:0|0:0,0:0:0:0:
265,149,59473,2,0,P|287:130|264:162,1,135.000005149842,2|0,0:0|0:0,0:0:0:0:
192,104,59728,2,0,P|227:63|309:49,1,135.000005149842,10|0,0:0|0:0,0:0:0:0:
479,302,60069,5,10,0:0:0:0:
480,111,60240,1,10,0:0:0:0:
333,310,60410,1,10,0:0:0:0:
335,111,60581,1,10,0:0:0:0:
493,319,60751,5,10,0:0:0:0:
483,81,60922,2,0,P|434:57|376:68,1,107.999996704102,10|0,0:0|0:0,0:0:0:0:
382,65,61177,1,2,0:0:0:0:
382,65,61262,1,2,0:0:0:0:
128,299,61433,5,10,0:0:0:0:
373,262,61603,1,10,0:0:0:0:
89,114,61774,1,10,0:0:0:0:
344,77,61944,1,2,0:0:0:0:
344,77,62029,1,2,0:0:0:0:
344,77,62115,1,10,0:0:0:0:
114,310,62285,5,2,0:0:0:0:
114,310,62370,1,2,0:0:0:0:
114,310,62456,2,0,L|237:315,1,107.999996704102,2|0,0:0|0:0,0:0:0:0:
140,38,62797,6,0,L|128:163,1,107.999996704102,14|0,0:0|0:0,0:0:0:0:
130,145,63052,1,2,0:0:0:0:
130,145,63137,1,2,0:0:0:0:
372,17,63308,1,2,0:0:0:0:
372,17,63393,1,2,0:0:0:0:
372,17,63478,2,0,P|317:9|259:14,1,107.999996704102,10|0,0:0|0:0,0:0:0:0:
99,237,63819,6,0,L|152:176,1,53.9999983520508,10|0,0:0|0:0,0:0:0:0:
280,0,63990,2,0,L|228:61,1,53.9999983520508,2|0,0:0|0:0,0:0:0:0:
60,231,64160,2,0,L|126:183,1,53.9999983520508,10|0,0:0|0:0,0:0:0:0:
320,13,64331,2,0,L|255:61,1,53.9999983520508,2|0,0:0|0:0,0:0:0:0:
31,202,64501,2,0,L|111:168,1,53.9999983520508,10|0,0:0|0:0,0:0:0:0:
354,36,64672,2,0,L|144:142,1,215.999993408203,2|0,0:0|0:0,0:0:0:0:
512,201,65183,6,0,L|442:159,1,53.9999983520508,10|0,0:0|0:0,0:0:0:0:
245,59,65353,2,0,L|314:99,1,53.9999983520508,2|0,0:0|0:0,0:0:0:0:
510,237,65524,2,0,L|424:137,1,107.999996704102,10|0,0:0|0:0,0:0:0:0:
196,154,65865,6,0,L|267:117,1,53.9999983520508,10|0,0:0|0:0,0:0:0:0:
452,1,66035,2,0,L|380:38,1,53.9999983520508,2|0,0:0|0:0,0:0:0:0:
161,133,66206,2,0,L|240:113,1,53.9999983520508,10|0,0:0|0:0,0:0:0:0:
483,28,66376,2,0,L|404:48,1,53.9999983520508,2|0,0:0|0:0,0:0:0:0:
145,95,66547,2,0,L|231:93,1,53.9999983520508,10|0,0:0|0:0,0:0:0:0:
507,63,66717,2,0,P|425:61|303:95,1,161.999995056153,2|0,0:0|0:0,0:0:0:0:
321,89,67058,5,2,0:0:0:0:
297,103,67143,1,2,0:0:0:0:
275,120,67228,1,2,0:0:0:0:
264,144,67314,1,2,0:0:0:0:
265,171,67399,1,2,0:0:0:0:
278,194,67484,1,2,0:0:0:0:
301,208,67569,1,2,0:0:0:0:
328,210,67654,1,2,0:0:0:0:
352,200,67740,1,2,0:0:0:0:
369,179,67825,1,2,0:0:0:0:
379,153,67910,5,2,0:0:0:0:
368,89,67995,1,2,0:0:0:0:
328,38,68081,1,2,0:0:0:0:
267,14,68166,1,2,0:0:0:0:
196,9,68251,6,0,L|119:14,1,53.9999983520508,14|0,0:0|0:0,0:0:0:0:
0,86,68422,2,0,L|153:113,1,107.999996704102,10|0,0:0|0:0,0:0:0:0:
390,214,68762,2,0,L|257:225,1,107.999996704102,10|0,0:0|0:0,0:0:0:0:
8,184,69103,5,2,0:0:0:0:
0,237,69189,1,2,0:0:0:0:
12,290,69274,1,2,0:0:0:0:
44,333,69359,1,2,0:0:0:0:
90,361,69444,1,2,0:0:0:0:
142,370,69529,1,2,0:0:0:0:
196,374,69615,6,0,P|251:354|282:292,1,107.999996704102,10|0,0:0|0:0,0:0:0:0:
0,189,69956,1,10,0:0:0:0:
280,132,70126,2,0,L|404:109,1,107.999996704102,10|0,0:0|0:0,0:0:0:0:
247,232,70382,2,0,P|227:249|248:219,1,107.999996704102,2|0,0:0|0:0,0:0:0:0:
313,280,70637,2,0,P|278:321|220:334,1,107.999996704102,10|0,0:0|0:0,0:0:0:0:
33,82,70978,5,10,0:0:0:0:
32,273,71149,1,10,0:0:0:0:
179,74,71319,1,10,0:0:0:0:
177,273,71490,1,10,0:0:0:0:
19,65,71660,5,10,0:0:0:0:
29,303,71831,2,0,P|78:327|136:316,1,107.999996704102,10|0,0:0|0:0,0:0:0:0:
130,319,72086,1,2,0:0:0:0:
130,319,72172,1,2,0:0:0:0:
384,85,72342,5,10,0:0:0:0:
139,122,72512,1,10,0:0:0:0:
423,270,72683,1,10,0:0:0:0:
168,307,72853,1,2,0:0:0:0:
168,307,72939,1,2,0:0:0:0:
168,307,73024,1,10,0:0:0:0:
398,74,73194,5,2,0:0:0:0:
398,74,73279,1,2,0:0:0:0:
398,74,73365,2,0,L|275:69,1,107.999996704102,2|0,0:0|0:0,0:0:0:0:
372,346,73706,6,0,L|384:221,1,107.999996704102,14|0,0:0|0:0,0:0:0:0:
382,239,73961,1,2,0:0:0:0:
382,239,74047,1,2,0:0:0:0:
140,367,74217,1,2,0:0:0:0:
140,367,74302,1,2,0:0:0:0:
140,367,74387,2,0,P|195:375|253:370,1,107.999996704102,10|0,0:0|0:0,0:0:0:0:
413,147,74728,6,0,L|360:208,1,53.9999983520508,10|0,0:0|0:0,0:0:0:0:
232,384,74899,2,0,L|284:323,1,53.9999983520508,2|0,0:0|0:0,0:0:0:0:
452,153,75069,2,0,L|386:201,1,53.9999983520508,10|0,0:0|0:0,0:0:0:0:
192,371,75240,2,0,L|257:323,1,53.9999983520508,2|0,0:0|0:0,0:0:0:0:
283,92,75410,6,0,L|307:168,1,53.9999983520508,10|0,0:0|0:0,0:0:0:0:
357,380,75581,2,0,L|332:303,1,53.9999983520508,2|0,0:0|0:0,0:0:0:0:
244,82,75751,2,0,L|285:151,1,53.9999983520508,10|0,0:0|0:0,0:0:0:0:
398,384,75922,2,0,L|356:314,1,53.9999983520508,2|0,0:0|0:0,0:0:0:0:
169,237,76092,6,0,L|250:241,1,53.9999983520508,10|0,0:0|0:0,0:0:0:0:
471,237,76262,2,0,L|391:234,1,53.9999983520508,2|0,0:0|0:0,0:0:0:0:
153,204,76433,2,0,L|275:251,1,107.999996704102,10|0,0:0|0:0,0:0:0:0:
458,224,76774,6,0,L|387:261,1,53.9999983520508,10|0,0:0|0:0,0:0:0:0:
202,377,76944,2,0,L|274:340,1,53.9999983520508,2|0,0:0|0:0,0:0:0:0:
493,245,77115,2,0,L|414:265,1,53.9999983520508,10|0,0:0|0:0,0:0:0:0:
171,350,77285,2,0,L|250:330,1,53.9999983520508,2|0,0:0|0:0,0:0:0:0:
509,283,77456,2,0,L|423:285,1,53.9999983520508,10|0,0:0|0:0,0:0:0:0:
147,315,77626,2,0,P|228:313|351:285,1,161.999995056153,2|0,0:0|0:0,0:0:0:0:
333,289,77967,5,2,0:0:0:0:
357,275,78052,1,2,0:0:0:0:
379,258,78137,1,2,0:0:0:0:
390,234,78223,1,2,0:0:0:0:
389,207,78308,1,2,0:0:0:0:
376,184,78393,1,2,0:0:0:0:
353,170,78478,1,2,0:0:0:0:
326,168,78564,1,2,0:0:0:0:
302,178,78649,1,2,0:0:0:0:
285,199,78734,1,2,0:0:0:0:
275,225,78819,5,2,0:0:0:0:
286,289,78904,1,2,0:0:0:0:
326,340,78990,1,2,0:0:0:0:
387,364,79075,1,2,0:0:0:0:
451,363,79160,6,0,P|486:336|508:274,1,107.999996704102,6|0,0:0|0:0,0:0:0:0:
361,163,79501,2,0,P|367:116|415:75,1,107.999996704102,10|0,0:0|0:0,0:0:0:0:
292,330,79842,2,0,P|260:366|203:382,1,107.999996704102,2|0,0:0|0:0,0:0:0:0:
9,228,80183,6,0,L|69:250,1,53.9999983520508,10|0,0:0|0:0,0:0:0:0:
181,382,80353,2,0,L|119:361,1,53.9999983520508,2|0,0:0|0:0,0:0:0:0:
0,193,80524,2,0,P|2:146|44:91,1,107.999996704102,2|0,0:0|0:0,0:0:0:0:
35,96,80779,1,2,0:0:0:0:
35,96,80865,1,10,0:0:0:0:
264,207,81035,5,2,0:0:0:0:
264,207,81120,1,2,0:0:0:0:
264,207,81206,2,0,P|217:217|150:195,1,107.999996704102,2|0,0:0|0:0,0:0:0:0:
155,315,81547,2,0,P|228:328|310:303,1,161.999995056153,10|0,0:0|0:0,0:0:0:0:
386,97,81887,6,0,P|399:153|382:203,1,107.999996704102,6|0,0:0|0:0,0:0:0:0:
143,100,82228,2,0,P|109:58|102:4,1,107.999996704102,10|8,0:0|0:0,0:0:0:0:
30,221,82569,6,0,P|44:267|90:308,1,107.999996704102,2|0,0:0|0:0,0:0:0:0:
271,165,82910,2,0,L|211:187,1,53.9999983520508,10|0,0:0|0:0,0:0:0:0:
99,319,83081,2,0,L|161:298,1,53.9999983520508,2|0,0:0|0:0,0:0:0:0:
280,130,83251,2,0,P|277:83|237:38,1,107.999996704102,2|0,0:0|0:0,0:0:0:0:
355,297,83592,6,0,P|312:318|247:309,1,107.999996704102,10|0,0:0|0:0,0:0:0:0:
253,312,83848,1,2,0:0:0:0:
253,312,83933,1,2,0:0:0:0:
512,263,84103,1,2,0:0:0:0:
512,263,84189,1,2,0:0:0:0:
512,263,84274,1,10,0:0:0:0:
435,51,84444,5,2,0:0:0:0:
435,51,84529,1,2,0:0:0:0:
435,51,84615,2,0,P|442:93|430:159,1,107.999996704102,6|0,0:0|0:0,0:0:0:0:
331,330,84956,2,0,P|323:289|332:220,1,107.999996704102,10|0,0:0|0:0,0:0:0:0:
266,103,85297,6,0,L|319:164,1,53.9999983520508,10|0,0:0|0:0,0:0:0:0:
474,316,85467,2,0,L|420:256,1,53.9999983520508,2|0,0:0|0:0,0:0:0:0:
275,66,85637,2,0,L|313:138,1,53.9999983520508,10|0,0:0|0:0,0:0:0:0:
455,353,85808,2,0,L|416:282,1,53.9999983520508,2|0,0:0|0:0,0:0:0:0:
186,30,85978,6,0,L|172:153,1,107.999996704102,10|0,0:0|0:0,0:0:0:0:
137,383,86319,1,10,0:0:0:0:
81,31,86490,1,2,0:0:0:0:
230,295,86660,2,0,L|293:388,1,107.999996704102,2|0,0:0|0:0,0:0:0:0:
408,202,87001,2,0,P|361:194|298:195,1,107.999996704102,10|0,0:0|0:0,0:0:0:0:
61,107,87342,6,0,P|110:107|175:112,1,107.999996704102,6|0,0:0|0:0,0:0:0:0:
180,347,87683,2,0,P|189:302|186:238,1,107.999996704102,10|0,0:0|0:0,0:0:0:0:
275,0,88024,2,0,P|275:49|267:110,1,107.999996704102,2|0,0:0|0:0,0:0:0:0:
22,384,88365,5,2,0:0:0:0:
22,384,88450,1,2,0:0:0:0:
22,384,88535,1,2,0:0:0:0:
22,384,88620,1,2,0:0:0:0:
22,384,88706,1,2,0:0:0:0:
22,384,88791,1,2,0:0:0:0:
22,384,88876,1,2,0:0:0:0:
22,384,88961,1,2,0:0:0:0:
22,384,89047,5,2,0:0:0:0:
3,333,89132,1,2,0:0:0:0:
0,280,89217,1,2,0:0:0:0:
12,227,89302,1,2,0:0:0:0:
39,181,89387,1,2,0:0:0:0:
78,144,89473,1,2,0:0:0:0:
127,121,89558,1,2,0:0:0:0:
180,113,89643,1,2,0:0:0:0:
233,120,89728,1,2,0:0:0:0:
282,143,89814,1,2,0:0:0:0:
322,180,89899,1,2,0:0:0:0:
349,226,89984,1,2,0:0:0:0:
367,277,90069,6,0,P|377:320|352:381,1,107.999996704102,6|0,0:0|0:0,0:0:0:0:
223,219,90410,2,0,P|210:167|233:119,1,107.999996704102,10|0,0:0|0:0,0:0:0:0:
265,365,90751,2,0,P|221:383|162:372,1,107.999996704102,2|0,0:0|0:0,0:0:0:0:
503,228,91092,6,0,L|452:246,1,53.9999983520508,10|0,0:0|0:0,0:0:0:0:
331,382,91262,2,0,L|382:364,1,53.9999983520508,2|0,0:0|0:0,0:0:0:0:
512,192,91433,2,0,P|507:139|476:96,1,107.999996704102,2|0,0:0|0:0,0:0:0:0:
477,96,91688,1,2,0:0:0:0:
477,96,91774,1,10,0:0:0:0:
248,207,91944,5,2,0:0:0:0:
248,207,92029,1,2,0:0:0:0:
247,206,92115,2,0,P|300:216|351:201,1,107.999996704102,2|0,0:0|0:0,0:0:0:0:
357,314,92456,2,0,P|277:327|201:302,1,161.999995056153,10|0,0:0|0:0,0:0:0:0:
126,96,92796,6,0,P|111:148|126:199,1,107.999996704102,6|0,0:0|0:0,0:0:0:0:
369,99,93137,2,0,P|402:57|410:5,1,107.999996704102,10|0,0:0|0:0,0:0:0:0:
481,221,93478,6,0,P|465:271|424:306,1,107.999996704102,2|0,0:0|0:0,0:0:0:0:
241,165,93819,2,0,L|291:183,1,53.9999983520508,10|0,0:0|0:0,0:0:0:0:
413,319,93990,2,0,L|361:301,1,53.9999983520508,2|0,0:0|0:0,0:0:0:0:
231,129,94160,2,0,P|237:77|273:38,1,107.999996704102,2|0,0:0|0:0,0:0:0:0:
156,296,94501,6,0,P|205:318|258:312,1,107.999996704102,10|0,0:0|0:0,0:0:0:0:
259,312,94757,1,2,0:0:0:0:
259,312,94842,1,2,0:0:0:0:
0,263,95012,1,2,0:0:0:0:
0,263,95098,1,2,0:0:0:0:
0,263,95183,1,10,0:0:0:0:
77,51,95353,5,2,0:0:0:0:
77,51,95438,1,2,0:0:0:0:
76,51,95524,2,0,P|70:104|81:156,1,107.999996704102,6|0,0:0|0:0,0:0:0:0:
181,329,95865,2,0,P|189:276|181:223,1,107.999996704102,10|0,0:0|0:0,0:0:0:0:
246,103,96206,6,0,L|210:143,1,53.9999983520508,10|0,0:0|0:0,0:0:0:0:
38,316,96376,2,0,L|74:275,1,53.9999983520508,2|0,0:0|0:0,0:0:0:0:
237,66,96546,2,0,L|211:113,1,53.9999983520508,10|0,0:0|0:0,0:0:0:0:
57,353,96717,2,0,L|82:305,1,53.9999983520508,2|0,0:0|0:0,0:0:0:0:
326,30,96887,6,0,L|338:137,1,107.999996704102,10|0,0:0|0:0,0:0:0:0:
375,383,97228,1,10,0:0:0:0:
431,31,97399,1,2,0:0:0:0:
282,295,97569,2,0,L|221:384,1,107.999996704102,2|0,0:0|0:0,0:0:0:0:
104,201,97910,2,0,P|157:193|211:194,1,107.999996704102,10|0,0:0|0:0,0:0:0:0:
451,107,98251,6,0,P|397:107|343:111,1,107.999996704102,6|0,0:0|0:0,0:0:0:0:
331,346,98592,2,0,P|322:293|325:240,1,107.999996704102,10|0,0:0|0:0,0:0:0:0:
237,0,98933,2,0,P|237:53|244:107,1,107.999996704102,2|0,0:0|0:0,0:0:0:0:
490,384,99274,5,2,0:0:0:0:
490,384,99359,1,2,0:0:0:0:
490,384,99444,1,2,0:0:0:0:
490,384,99529,1,2,0:0:0:0:
490,384,99615,1,2,0:0:0:0:
490,384,99700,1,2,0:0:0:0:
490,384,99785,1,2,0:0:0:0:
490,384,99870,1,2,0:0:0:0:
490,384,99956,5,2,0:0:0:0:
509,333,100041,1,2,0:0:0:0:
512,280,100126,1,2,0:0:0:0:
500,227,100211,1,2,0:0:0:0:
473,181,100296,1,2,0:0:0:0:
434,144,100382,1,2,0:0:0:0:
385,121,100467,1,2,0:0:0:0:
332,113,100552,1,2,0:0:0:0:
279,120,100637,1,2,0:0:0:0:
230,143,100723,1,2,0:0:0:0:
190,180,100808,1,2,0:0:0:0:
163,226,100893,1,2,0:0:0:0:
151,278,100978,6,0,P|152:334|178:384,1,107.999996704102,6|0,0:0|0:0,0:0:0:0:
256,192,101234,12,0,106433,0:0:0:0:
