osu file format v14

[General]
AudioFilename: audio.mp3
AudioLeadIn: 0
PreviewTime: 122252
Countdown: 0
SampleSet: Soft
StackLeniency: 0.7
Mode: 0
LetterboxInBreaks: 0
WidescreenStoryboard: 1

[Editor]
DistanceSpacing: 0.4
BeatDivisor: 4
GridSize: 4
TimelineZoom: 1.9

[Metadata]
Title:Alice Maestra
TitleUnicode:アリスマエステラ
Artist:ZUN
ArtistUnicode:ZUN
Creator:Leader
Version:Lunatic
Source:東方幻想郷 ~ Lotus Land Story.
Tags:Halfslashed Shurelia Corsace CO2021 QF DT2 東方Project Touhou th04 Stage 4 Theme Video Game Instrumental Electronic
BeatmapID:3192292
BeatmapSetID:1563258

[Difficulty]
HPDrainRate:5
CircleSize:4
OverallDifficulty:8
ApproachRate:8
SliderMultiplier:1.6
SliderTickRate:1

[Events]
//Background and Video events
0,0,"bg.jpg",0,0
//Break Periods
2,79858,90317
2,110282,112374
//Storyboard Layer 0 (Background)
//Storyboard Layer 1 (Fail)
//Storyboard Layer 2 (Pass)
//Storyboard Layer 3 (Foreground)
//Storyboard Layer 4 (Overlay)
//Storyboard Sound Samples

[TimingPoints]
0,387.096774193548,4,2,1,60,1,0
30980,380.300437345503,4,2,1,60,1,0
55319,-100,4,2,1,70,0,1
67108,-100,4,2,1,60,0,0
67488,-100,4,2,1,70,0,1
79658,-133.333333333333,4,2,1,60,0,0
91828,-100,4,2,1,60,0,0
103997,-200,4,2,1,50,0,0
108561,-133.333333333333,4,2,1,60,0,0
116927,-100,4,2,1,60,0,0
122252,-100,4,2,1,70,0,1
134421,-133.333333333333,4,2,1,60,0,0
146591,-100,4,2,1,60,0,0

[Colours]
Combo1 : 17,254,176
Combo2 : 173,255,95
Combo3 : 255,88,100
Combo4 : 255,94,55

[HitObjects]
74,309,29032,5,0,1:0:0:0:
74,309,29419,2,0,L|161:317,1,80,8|0,0:0|0:0,0:0:0:0:
188,357,29709,2,0,P|185:315|205:263,1,80,8|0,0:0|0:0,0:0:0:0:
259,326,29999,1,8,0:0:0:0:
276,330,30387,6,0,L|316:336,2,40,2|0|0,0:0|0:0|0:0,0:0:0:0:
352,365,30677,2,0,L|392:359,2,40,2|0|0,0:0|0:0|0:0,0:0:0:0:
425,323,30980,6,0,L|430:221,1,80,4|2,0:0|0:0,0:0:0:0:
327,115,31360,1,8,0:0:0:0:
350,199,31550,1,0,0:0:0:0:
416,145,31740,2,0,P|460:138|504:126,2,80,2|2|8,3:2|3:2|0:0,0:0:0:0:
327,115,32311,6,0,P|275:120|178:60,1,160,2|0,0:0|0:0,0:0:0:0:
69,160,32881,2,0,L|155:178,1,80,8|0,0:0|0:0,0:0:0:0:
246,204,33261,1,2,3:2:0:0:
147,320,33451,1,2,3:2:0:0:
143,300,33547,1,0,0:0:0:0:
140,280,33642,1,8,0:0:0:0:
235,363,33832,2,0,L|245:277,1,80,2|2,0:0|3:2,0:0:0:0:
329,327,34212,5,2,0:0:0:0:
329,327,34402,2,0,P|378:318|422:313,1,80,8|0,0:0|0:0,0:0:0:0:
467,241,34783,1,2,3:2:0:0:
467,241,34973,1,2,3:2:0:0:
467,241,35163,2,0,L|370:227,1,80,8|2,0:0|0:0,0:0:0:0:
291,253,35543,5,2,3:2:0:0:
326,167,35733,1,0,0:0:0:0:
326,167,35828,1,0,0:0:0:0:
326,167,35923,2,0,P|321:125|311:80,1,80,8|0,0:0|0:0,0:0:0:0:
154,77,36304,1,2,3:2:0:0:
235,134,36494,1,2,3:2:0:0:
249,41,36684,1,8,0:0:0:0:
249,41,36874,1,2,0:0:0:0:
150,182,37064,5,4,0:0:0:0:
150,182,37254,2,0,P|108:182|63:170,2,80,0|8|0,0:0|0:0|0:0,0:0:0:0:
239,120,37825,2,0,L|250:23,1,80,2|2,3:2|3:2,0:0:0:0:
284,219,38205,2,0,L|293:298,1,80,8|0,0:0|0:0,0:0:0:0:
350,134,38586,5,2,3:2:0:0:
414,220,38776,1,0,0:0:0:0:
414,220,38871,1,0,0:0:0:0:
414,220,38966,2,0,P|456:212|498:206,1,80,8|0,0:0|0:0,0:0:0:0:
492,206,39346,1,2,3:2:0:0:
446,137,39536,1,2,3:2:0:0:
418,316,39726,2,0,P|376:308|334:302,1,80,8|2,0:0|0:0,0:0:0:0:
148,266,40107,6,0,L|238:258,1,80,2|2,3:2|0:0,0:0:0:0:
255,259,40392,1,0,0:0:0:0:
255,259,40487,1,8,0:0:0:0:
294,119,40677,1,2,3:2:0:0:
216,116,40867,1,2,3:2:0:0:
337,191,41057,1,2,3:2:0:0:
173,190,41248,1,8,0:0:0:0:
256,45,41438,1,2,3:2:0:0:
426,207,41628,5,2,3:2:0:0:
405,95,41818,1,2,0:0:0:0:
408,75,41913,1,0,0:0:0:0:
411,55,42008,1,8,0:0:0:0:
488,139,42198,1,2,0:0:0:0:
326,338,42389,5,8,0:0:0:0:
345,340,42579,1,8,0:0:0:0:
365,342,42769,1,8,0:0:0:0:
385,344,42959,1,8,0:0:0:0:
406,346,43149,6,0,L|398:257,1,80,4|0,0:0|0:0,0:0:0:0:
483,142,43529,1,8,0:0:0:0:
473,225,43720,1,2,3:2:0:0:
477,240,43815,1,8,0:0:0:0:
394,181,44005,1,8,0:0:0:0:
392,197,44100,1,2,3:2:0:0:
315,202,44290,1,8,0:0:0:0:
237,241,44480,5,2,3:2:0:0:
237,241,44575,1,0,0:0:0:0:
237,241,44670,2,0,L|229:154,1,80,2|2,3:2|3:2,0:0:0:0:
259,113,44956,1,0,0:0:0:0:
259,113,45051,2,0,P|217:127|169:119,1,80,8|0,0:0|0:0,0:0:0:0:
182,123,45336,1,8,0:0:0:0:
216,49,45526,1,8,0:0:0:0:
216,49,45621,1,2,3:2:0:0:
138,196,45811,5,8,0:0:0:0:
128,197,45906,1,2,3:2:0:0:
118,199,46001,1,2,0:0:0:0:
108,200,46096,1,8,0:0:0:0:
98,202,46192,2,0,L|88:106,1,80,2|2,3:2|3:2,0:0:0:0:
41,317,46572,1,8,0:0:0:0:
120,287,46762,1,2,3:2:0:0:
123,302,46857,1,8,0:0:0:0:
201,307,47047,1,8,0:0:0:0:
204,322,47142,1,2,3:2:0:0:
278,355,47332,1,8,0:0:0:0:
353,319,47523,5,2,3:2:0:0:
353,319,47618,1,8,0:0:0:0:
353,319,47713,2,0,L|361:229,1,80,2|0,3:2|3:2,0:0:0:0:
403,205,47998,2,0,P|362:209|317:193,1,80
373,133,48283,1,2,3:2:0:0:
373,133,48378,1,8,0:0:0:0:
287,268,48568,1,8,0:0:0:0:
287,268,48663,1,2,3:2:0:0:
170,132,48854,5,8,0:0:0:0:
171,151,48949,1,8,0:0:0:0:
173,171,49044,1,8,0:0:0:0:
174,191,49139,1,8,0:0:0:0:
176,211,49234,1,4,0:0:0:0:
189,302,49424,1,2,3:2:0:0:
108,332,49614,1,8,0:0:0:0:
189,302,49804,1,2,3:2:0:0:
192,317,49899,1,8,0:0:0:0:
273,327,50090,1,8,0:0:0:0:
277,342,50185,1,2,3:2:0:0:
355,362,50375,1,8,0:0:0:0:
422,307,50565,5,2,3:2:0:0:
422,307,50660,1,8,0:0:0:0:
422,307,50755,2,0,P|428:254|436:213,1,80,2|2,3:2|3:2,0:0:0:0:
441,202,51040,1,0,0:0:0:0:
441,202,51135,1,8,0:0:0:0:
509,297,51326,1,2,3:2:0:0:
507,312,51421,1,8,0:0:0:0:
354,204,51611,1,8,0:0:0:0:
358,219,51706,1,2,3:2:0:0:
292,267,51896,1,8,0:0:0:0:
219,214,52086,5,2,3:2:0:0:
219,214,52181,1,8,0:0:0:0:
219,214,52276,2,0,L|213:130,1,80,2|2,3:2|3:2,0:0:0:0:
243,101,52562,2,0,P|208:113|152:106,1,80
197,38,52847,1,2,3:2:0:0:
197,38,52942,1,8,0:0:0:0:
132,183,53132,1,8,0:0:0:0:
129,198,53227,1,2,3:2:0:0:
287,157,53417,1,8,0:0:0:0:
165,110,53607,5,2,3:2:0:0:
165,110,53702,1,8,0:0:0:0:
165,110,53798,2,0,P|136:102|82:94,1,80,8|0,0:0|0:0,0:0:0:0:
60,52,54083,2,0,P|72:84|59:136,1,80,8|0,0:0|0:0,0:0:0:0:
51,155,54368,1,8,0:0:0:0:
146,313,54558,6,0,P|175:305|229:297,1,80,8|0,0:0|0:0,0:0:0:0:
251,255,54843,2,0,P|239:287|252:339,1,80,8|0,0:0|0:0,0:0:0:0:
260,358,55129,1,8,0:0:0:0:
344,296,55319,5,4,0:0:0:0:
367,298,55414,1,0,0:0:0:0:
391,300,55509,1,0,0:0:0:0:
415,301,55604,1,0,0:0:0:0:
440,303,55699,5,8,0:0:0:0:
454,284,55794,1,0,0:0:0:0:
465,263,55889,1,0,0:0:0:0:
472,240,55984,1,0,0:0:0:0:
473,216,56079,1,2,3:2:0:0:
470,192,56174,1,0,0:0:0:0:
463,171,56269,1,0,0:0:0:0:
453,148,56365,1,0,0:0:0:0:
447,125,56460,1,8,0:0:0:0:
444,101,56555,1,0,0:0:0:0:
444,78,56650,1,0,0:0:0:0:
448,54,56745,1,0,0:0:0:0:
456,33,56840,5,2,3:2:0:0:
433,42,56935,1,0,0:0:0:0:
410,47,57030,1,0,0:0:0:0:
386,50,57125,1,0,0:0:0:0:
362,48,57220,1,8,0:0:0:0:
339,43,57315,1,0,0:0:0:0:
316,35,57410,1,0,0:0:0:0:
293,28,57505,1,0,0:0:0:0:
269,24,57601,1,2,3:2:0:0:
245,23,57696,1,0,0:0:0:0:
221,25,57791,1,0,0:0:0:0:
198,31,57886,1,0,0:0:0:0:
175,42,57981,2,0,L|181:86,3,40,8|0|0|0,0:0|0:0|0:0|0:0,0:0:0:0:
193,157,58361,5,2,3:2:0:0:
192,167,58456,1,0,0:0:0:0:
190,177,58551,1,0,0:0:0:0:
189,187,58646,1,0,0:0:0:0:
188,197,58741,2,0,L|182:246,3,40,8|0|0|0,0:0|0:0|0:0|0:0,0:0:0:0:
87,188,59122,5,2,3:2:0:0:
88,198,59217,1,0,0:0:0:0:
90,208,59312,1,0,0:0:0:0:
91,218,59407,1,0,0:0:0:0:
92,228,59502,2,0,L|98:277,3,40,8|0|0|0,0:0|0:0|0:0|0:0,0:0:0:0:
31,336,59882,5,2,3:2:0:0:
50,338,59977,1,0,0:0:0:0:
70,340,60072,1,0,0:0:0:0:
90,342,60168,1,0,0:0:0:0:
112,345,60263,2,0,L|157:350,3,40,8|0|0|0,0:0|0:0|0:0|0:0,0:0:0:0:
227,374,60643,5,2,3:2:0:0:
246,372,60738,1,0,0:0:0:0:
266,370,60833,1,0,0:0:0:0:
286,368,60928,1,0,0:0:0:0:
306,367,61023,1,8,0:0:0:0:
325,365,61118,1,0,0:0:0:0:
345,363,61213,1,0,0:0:0:0:
365,361,61308,1,0,0:0:0:0:
385,360,61404,6,0,P|393:310|401:274,1,80,4|0,0:0|0:0,0:0:0:0:
461,209,61784,1,8,0:0:0:0:
461,209,61879,1,0,0:0:0:0:
461,209,61974,1,0,0:0:0:0:
361,166,62164,1,2,3:2:0:0:
361,166,62259,1,0,0:0:0:0:
361,166,62354,1,0,0:0:0:0:
452,94,62544,1,8,0:0:0:0:
452,94,62640,1,0,0:0:0:0:
452,94,62735,1,0,0:0:0:0:
215,179,62925,5,2,3:2:0:0:
213,159,63020,1,0,0:0:0:0:
211,139,63115,1,0,0:0:0:0:
209,119,63210,1,0,0:0:0:0:
208,99,63305,1,8,0:0:0:0:
198,17,63495,1,0,0:0:0:0:
127,168,63685,5,2,3:2:0:0:
125,148,63780,1,0,0:0:0:0:
123,128,63875,1,0,0:0:0:0:
121,108,63971,1,0,0:0:0:0:
120,88,64066,1,8,0:0:0:0:
112,9,64256,1,0,0:0:0:0:
28,174,64446,6,0,P|39:219|44:274,1,80,2|0,3:2|0:0,0:0:0:0:
52,344,64826,1,8,0:0:0:0:
52,344,64921,1,0,0:0:0:0:
52,344,65016,1,0,0:0:0:0:
126,204,65207,2,0,P|137:249|142:304,1,80,2|0,3:2|0:0,0:0:0:0:
150,374,65587,1,8,0:0:0:0:
150,374,65682,1,0,0:0:0:0:
150,374,65777,1,0,0:0:0:0:
217,318,65967,6,0,L|268:309,3,40,2|0|0|0,3:2|0:0|0:0|0:0,0:0:0:0:
274,330,66347,2,0,L|313:336,3,40,8|0|0|0,0:0|0:0|0:0|0:0,0:0:0:0:
326,313,66728,2,0,L|377:304,3,40,2|0|0|0,3:2|0:0|0:0|0:0,0:0:0:0:
408,378,67108,5,8,0:0:0:0:
417,380,67203,1,8,0:0:0:0:
427,381,67298,1,8,0:0:0:0:
437,382,67393,1,8,0:0:0:0:
449,384,67488,5,4,0:0:0:0:
462,364,67583,1,0,0:0:0:0:
471,342,67678,1,0,0:0:0:0:
476,318,67774,1,0,0:0:0:0:
476,294,67869,1,8,0:0:0:0:
472,271,67964,1,0,0:0:0:0:
463,249,68059,1,0,0:0:0:0:
451,227,68154,1,0,0:0:0:0:
444,205,68249,1,2,3:2:0:0:
440,181,68344,1,0,0:0:0:0:
440,157,68439,1,0,0:0:0:0:
443,133,68534,1,0,0:0:0:0:
452,111,68629,1,8,0:0:0:0:
460,88,68724,1,0,0:0:0:0:
464,65,68819,1,0,0:0:0:0:
463,41,68914,1,0,0:0:0:0:
453,19,69010,6,0,L|406:25,3,40,2|0|0|0,3:2|0:0|0:0|0:0,0:0:0:0:
372,100,69390,2,0,L|332:94,3,40,8|0|0|0,0:0|0:0|0:0|0:0,0:0:0:0:
295,16,69770,2,0,L|248:22,3,40,2|0|0|0,3:2|0:0|0:0|0:0,0:0:0:0:
210,94,70150,2,0,L|170:88,3,40,8|0|0|0,0:0|0:0|0:0|0:0,0:0:0:0:
147,177,70531,5,2,3:2:0:0:
127,179,70626,1,0,0:0:0:0:
107,181,70721,1,0,0:0:0:0:
87,184,70816,1,0,0:0:0:0:
66,187,70911,2,0,L|23:193,3,40,8|0|0|0,0:0|0:0|0:0|0:0,0:0:0:0:
50,272,71291,5,2,3:2:0:0:
69,274,71386,1,0,0:0:0:0:
89,276,71481,1,0,0:0:0:0:
109,279,71577,1,0,0:0:0:0:
131,282,71672,2,0,L|176:289,3,40,8|0|0|0,0:0|0:0|0:0|0:0,0:0:0:0:
246,299,72052,5,2,3:2:0:0:
212,210,72242,1,0,0:0:0:0:
306,223,72432,1,8,0:0:0:0:
325,221,72527,1,0,0:0:0:0:
345,219,72622,1,0,0:0:0:0:
365,217,72717,1,0,0:0:0:0:
385,215,72813,2,0,L|430:211,3,40,2|0|0|0,3:2|0:0|0:0|0:0,0:0:0:0:
488,146,73193,5,8,0:0:0:0:
488,146,73383,1,0,0:0:0:0:
461,302,73573,1,4,0:0:0:0:
432,302,73668,1,0,0:0:0:0:
404,310,73763,1,0,0:0:0:0:
380,326,73858,1,0,0:0:0:0:
356,344,73953,5,8,0:0:0:0:
353,324,74049,1,0,0:0:0:0:
351,304,74144,1,0,0:0:0:0:
348,284,74239,1,0,0:0:0:0:
346,264,74334,1,2,3:2:0:0:
337,174,74524,5,0,0:0:0:0:
269,326,74714,1,8,0:0:0:0:
266,306,74809,1,0,0:0:0:0:
264,286,74904,1,0,0:0:0:0:
261,266,74999,1,0,0:0:0:0:
259,246,75094,5,2,3:2:0:0:
220,255,75189,1,0,0:0:0:0:
180,251,75285,1,0,0:0:0:0:
145,232,75380,1,0,0:0:0:0:
119,208,75475,2,0,L|114:164,3,40,8|0|0|0,0:0|0:0|0:0|0:0,0:0:0:0:
204,120,75855,5,2,3:2:0:0:
242,129,75950,1,0,0:0:0:0:
282,125,76045,1,0,0:0:0:0:
317,106,76140,1,0,0:0:0:0:
344,82,76235,2,0,L|349:38,3,40,8|0|0|0,0:0|0:0|0:0|0:0,0:0:0:0:
486,36,76616,5,2,3:2:0:0:
490,60,76711,1,0,0:0:0:0:
491,84,76806,1,0,0:0:0:0:
489,108,76901,1,0,0:0:0:0:
481,131,76996,1,8,0:0:0:0:
462,133,77091,1,0,0:0:0:0:
442,136,77186,1,0,0:0:0:0:
422,138,77281,1,0,0:0:0:0:
402,141,77376,2,0,L|397:198,3,40,2|0|0|0,3:2|0:0|0:0|0:0,0:0:0:0:
388,59,77756,5,8,0:0:0:0:
369,61,77852,1,0,0:0:0:0:
349,64,77947,1,0,0:0:0:0:
329,66,78042,1,0,0:0:0:0:
309,69,78137,2,0,L|304:126,3,40,2|0|0|0,3:2|0:0|0:0|0:0,0:0:0:0:
203,69,78517,2,0,L|208:126,3,40,8|0|0|0,0:0|0:0|0:0|0:0,0:0:0:0:
256,168,78897,5,2,3:2:0:0:
256,178,79088,1,2,3:2:0:0:
256,188,79278,1,2,3:2:0:0:
256,198,79468,1,2,3:2:0:0:
256,208,79658,5,12,0:0:0:0:
258,282,91067,5,8,0:0:0:0:
258,282,91257,1,2,3:2:0:0:
331,351,91447,1,8,0:0:0:0:
331,351,91637,1,2,3:2:0:0:
411,296,91828,6,0,L|415:217,1,80,4|0,0:0|0:0,0:0:0:0:
483,154,92208,2,0,P|432:171|371:125,1,120,8|0,0:0|0:0,0:0:0:0:
370,119,92588,1,2,3:2:0:0:
443,70,92778,2,0,L|447:41,2,20,2|0|0,3:2|0:0|0:0,0:0:0:0:
441,85,92968,1,8,0:0:0:0:
369,39,93159,1,0,0:0:0:0:
297,149,93349,6,0,P|241:148|184:105,1,120,2|0,3:2|0:0,0:0:0:0:
175,87,93729,2,0,L|164:174,1,80,8|0,0:0|0:0,0:0:0:0:
92,214,94109,1,2,3:2:0:0:
75,123,94300,1,2,3:2:0:0:
60,298,94490,6,0,P|116:297|173:254,1,120,8|0,0:0|0:0,0:0:0:0:
182,236,94870,2,0,L|193:323,1,80,2|0,3:2|0:0,0:0:0:0:
276,363,95250,1,8,0:0:0:0:
293,272,95440,1,0,0:0:0:0:
367,337,95631,2,0,P|411:341|457:361,1,80,2|2,3:2|3:2,0:0:0:0:
464,363,95916,1,0,0:0:0:0:
484,372,96011,2,0,L|490:289,1,80,8|0,0:0|0:0,0:0:0:0:
411,75,96391,6,0,P|402:117|420:195,1,120,2|0,3:2|0:0,0:0:0:0:
433,206,96771,2,0,L|517:206,1,80,8|0,0:0|0:0,0:0:0:0:
399,279,97152,1,2,3:2:0:0:
339,226,97342,1,2,3:2:0:0:
319,306,97532,1,8,0:0:0:0:
257,252,97722,1,2,3:2:0:0:
236,335,97912,6,0,L|153:346,1,80,4|0,0:0|0:0,0:0:0:0:
29,252,98293,2,0,P|87:258|133:221,1,120,8|0,0:0|0:0,0:0:0:0:
147,206,98673,1,2,3:2:0:0:
62,168,98863,2,0,L|56:139,2,20,2|0|0,3:2|0:0|0:0,0:0:0:0:
65,181,99053,1,8,0:0:0:0:
133,127,99243,1,0,0:0:0:0:
226,258,99434,6,0,L|349:268,1,120,2|0,3:2|0:0,0:0:0:0:
374,270,99814,1,8,0:0:0:0:
374,270,100004,1,2,3:2:0:0:
363,133,100194,5,2,3:2:0:0:
482,182,100384,1,2,3:2:0:0:
351,132,100574,5,8,0:0:0:0:
485,88,100765,1,2,3:2:0:0:
291,188,100955,6,0,P|274:138|300:62,1,120,2|0,3:2|0:0,0:0:0:0:
305,53,101335,2,0,L|385:53,1,80,8|0,0:0|0:0,0:0:0:0:
202,122,101715,2,0,L|123:122,1,80,2|2,3:2|3:2,0:0:0:0:
122,122,102001,1,2,0:0:0:0:
122,122,102096,1,8,0:0:0:0:
336,212,102286,1,2,3:2:0:0:
336,212,102476,5,2,3:2:0:0:
259,359,102761,1,2,3:2:0:0:
176,212,103046,1,2,3:2:0:0:
176,212,103237,5,2,3:2:0:0:
300,284,103522,1,2,3:2:0:0:
212,284,103807,1,2,3:2:0:0:
256,192,103997,5,2,0:0:0:0:
256,192,105518,2,0,L|256:225,3,20,2|0|0|0,0:0|0:0|0:0|0:0,0:0:0:0:
257,227,105899,2,0,L|257:260,3,20,2|0|0|0,0:0|0:0|0:0|0:0,0:0:0:0:
211,313,106279,2,0,L|207:339,3,20,2|0|0|0,0:0|0:0|0:0|0:0,0:0:0:0:
301,313,106659,2,0,L|305:339,3,20,2|0|0|0,0:0|0:0|0:0|0:0,0:0:0:0:
257,247,107040,5,2,0:0:0:0:
257,227,107230,1,2,0:0:0:0:
257,210,107420,2,0,L|257:158,1,40,2|2,0:0|0:0,0:0:0:0:
254,34,107800,5,2,0:0:0:0:
162,199,108085,1,2,0:0:0:0:
160,215,108180,1,8,0:0:0:0:
83,178,108371,1,2,0:0:0:0:
23,225,108561,6,0,L|31:303,1,60.0000022888184,12|0,0:0|0:0,0:0:0:0:
2,334,108846,2,0,P|36:325|69:325,1,60.0000022888184,8|0,0:0|0:0,0:0:0:0:
83,332,109131,1,8,0:0:0:0:
159,294,109321,1,2,0:0:0:0:
217,355,109512,5,8,3:0:0:0:
238,356,109607,1,0,3:0:0:0:
265,357,109702,1,0,3:0:0:0:
289,360,109797,1,8,3:0:0:0:
314,362,109892,1,8,3:0:0:0:
339,365,109987,1,8,3:0:0:0:
364,368,110082,1,4,3:2:0:0:
364,368,113124,5,2,0:0:0:0:
421,312,113315,2,0,L|487:303,2,60.0000022888184,2|0|2,0:0|0:0|0:0,0:0:0:0:
342,285,113885,2,0,P|336:236|347:156,1,120.000004577637,2|0,0:0|0:0,0:0:0:0:
344,166,114455,1,0,0:0:0:0:
277,83,114646,5,12,0:0:0:0:
227,183,114836,1,2,3:2:0:0:
207,185,114931,1,8,0:0:0:0:
187,187,115026,1,2,3:2:0:0:
167,189,115121,1,2,3:2:0:0:
147,192,115216,1,8,0:0:0:0:
45,329,115406,1,2,3:2:0:0:
75,320,115501,1,8,0:0:0:0:
107,317,115596,1,8,0:0:0:0:
139,322,115691,1,8,0:0:0:0:
169,333,115786,1,8,0:0:0:0:
196,345,115882,1,8,0:0:0:0:
226,353,115977,1,0,3:0:0:0:
258,356,116072,1,0,3:0:0:0:
290,351,116167,6,0,L|297:284,1,60.0000022888184,12|0,0:0|0:0,0:0:0:0:
306,202,116547,1,2,0:0:0:0:
376,254,116737,1,2,0:0:0:0:
394,176,116927,5,2,3:2:0:0:
419,186,117022,1,2,3:2:0:0:
440,204,117118,1,8,0:0:0:0:
454,229,117213,1,8,0:0:0:0:
458,256,117308,1,2,3:2:0:0:
453,284,117403,1,2,3:2:0:0:
439,308,117498,1,8,0:0:0:0:
418,325,117593,1,8,0:0:0:0:
391,335,117688,1,8,0:0:0:0:
376,254,117878,5,2,3:2:0:0:
357,257,117973,1,8,0:0:0:0:
302,335,118163,1,2,3:2:0:0:
283,332,118258,1,8,0:0:0:0:
216,267,118449,5,8,0:0:0:0:
193,270,118544,1,8,0:0:0:0:
171,273,118639,1,8,0:0:0:0:
149,276,118734,1,8,0:0:0:0:
126,279,118829,5,8,0:0:0:0:
116,252,118924,1,0,0:0:0:0:
111,225,119019,1,2,3:2:0:0:
112,197,119114,1,2,3:2:0:0:
117,169,119209,5,2,3:2:0:0:
147,42,119399,1,8,0:0:0:0:
127,39,119494,1,8,0:0:0:0:
107,37,119590,2,0,L|65:32,2,40,2|2|8,3:2|3:2|0:0,0:0:0:0:
261,125,119970,1,2,3:2:0:0:
261,125,120065,1,8,0:0:0:0:
261,125,120160,1,2,3:2:0:0:
248,241,120350,1,8,0:0:0:0:
253,258,120445,1,8,0:0:0:0:
134,204,120635,5,2,3:0:0:0:
130,222,120730,2,0,P|122:258|122:311,1,80,12|0,0:0|0:0,0:0:0:0:
90,362,121016,2,0,P|89:322|80:283,1,80,8|0,0:0|0:0,0:0:0:0:
59,262,121301,1,8,0:0:0:0:
199,336,121491,1,2,3:2:0:0:
228,338,121586,1,8,0:0:0:0:
258,341,121681,1,8,0:0:0:0:
288,343,121776,1,8,0:0:0:0:
318,346,121871,2,0,L|367:350,3,40,8|8|2|2,0:0|0:0|3:2|3:2,0:0:0:0:
392,349,122252,5,4,0:0:0:0:
383,321,122347,1,0,0:0:0:0:
383,292,122442,1,0,1:0:0:0:
391,264,122537,1,0,0:0:0:0:
399,241,122632,1,2,3:2:0:0:
407,213,122727,1,0,0:0:0:0:
407,184,122822,1,0,1:0:0:0:
399,156,122917,1,0,0:0:0:0:
389,128,123012,5,2,3:2:0:0:
307,202,123202,1,0,1:0:0:0:
307,202,123297,1,0,0:0:0:0:
307,202,123393,1,2,3:2:0:0:
266,85,123583,1,0,1:0:0:0:
264,67,123678,1,0,0:0:0:0:
261,49,123773,1,2,3:2:0:0:
259,31,123868,1,0,0:0:0:0:
257,12,123963,1,0,1:0:0:0:
189,128,124153,5,2,3:2:0:0:
162,110,124248,1,0,0:0:0:0:
131,104,124343,1,0,1:0:0:0:
100,110,124438,1,0,0:0:0:0:
73,128,124533,1,2,3:2:0:0:
55,154,124628,1,0,0:0:0:0:
49,185,124724,1,0,1:0:0:0:
55,216,124819,1,0,0:0:0:0:
72,243,124914,1,2,3:2:0:0:
98,261,125009,1,0,0:0:0:0:
129,268,125104,1,0,1:0:0:0:
141,183,125294,1,2,3:2:0:0:
191,357,125484,5,0,1:0:0:0:
213,335,125579,1,0,0:0:0:0:
239,321,125674,1,2,3:2:0:0:
267,312,125769,1,0,0:0:0:0:
296,312,125864,1,0,1:0:0:0:
324,320,125960,1,0,0:0:0:0:
347,328,126055,1,2,3:2:0:0:
375,336,126150,1,0,0:0:0:0:
404,336,126245,1,0,1:0:0:0:
432,328,126340,1,0,0:0:0:0:
460,318,126435,2,0,L|468:239,1,80,2|0,3:2|1:0,0:0:0:0:
372,88,126815,6,0,P|372:132|385:189,1,80,2|0,3:2|1:0,0:0:0:0:
417,182,127100,2,0,P|379:183|328:201,1,80,2|0,3:2|0:0,0:0:0:0:
395,267,127386,1,0,1:0:0:0:
395,267,127481,1,0,0:0:0:0:
395,267,127576,1,2,3:2:0:0:
463,313,127766,1,0,1:0:0:0:
329,364,127956,1,2,3:2:0:0:
325,344,128051,1,0,0:0:0:0:
321,324,128146,1,0,1:0:0:0:
318,304,128241,1,0,0:0:0:0:
314,285,128336,5,2,3:2:0:0:
286,276,128431,1,0,0:0:0:0:
257,276,128527,1,0,1:0:0:0:
229,284,128622,1,0,0:0:0:0:
206,292,128717,1,2,3:2:0:0:
178,300,128812,1,0,0:0:0:0:
149,300,128907,1,0,1:0:0:0:
121,292,129002,1,0,0:0:0:0:
93,282,129097,2,0,L|85:203,1,80,2|0,3:2|1:0,0:0:0:0:
200,132,129477,1,2,3:2:0:0:
177,221,129667,1,0,1:0:0:0:
85,14,129858,6,0,P|85:70|103:119,1,80,2|0,3:2|1:0,0:0:0:0:
121,122,130143,2,0,L|216:134,1,80,2|0,3:2|0:0,0:0:0:0:
223,135,130428,1,0,1:0:0:0:
390,19,130618,1,2,3:2:0:0:
370,21,130713,1,0,0:0:0:0:
350,24,130808,1,0,1:0:0:0:
330,26,130903,1,0,0:0:0:0:
309,29,130999,5,2,3:2:0:0:
299,55,131094,1,0,0:0:0:0:
295,82,131189,1,0,1:0:0:0:
296,110,131284,1,0,0:0:0:0:
304,137,131379,1,2,3:2:0:0:
411,123,131569,1,0,1:0:0:0:
410,143,131664,1,0,0:0:0:0:
409,163,131759,1,2,3:2:0:0:
408,183,131854,1,0,0:0:0:0:
407,203,131949,1,0,1:0:0:0:
310,349,132139,1,2,3:2:0:0:
311,329,132234,1,0,0:0:0:0:
312,309,132330,1,0,1:0:0:0:
224,197,132520,1,2,3:2:0:0:
222,216,132615,1,0,0:0:0:0:
221,236,132710,1,0,1:0:0:0:
127,338,132900,5,2,3:2:0:0:
107,340,133185,1,2,3:2:0:0:
87,342,133470,1,2,3:2:0:0:
102,261,133661,5,2,3:2:0:0:
83,263,133946,1,2,3:2:0:0:
63,265,134231,1,2,3:2:0:0:
256,208,134421,5,4,0:0:0:0:
212,280,134611,1,0,0:0:0:0:
256,352,134802,1,2,0:0:0:0:
300,280,134992,1,0,0:0:0:0:
340,351,135182,6,0,L|402:358,1,60.0000022888184,0|0,1:0|0:0,0:0:0:0:
399,357,135467,1,0,0:0:0:0:
399,357,135562,1,2,0:0:0:0:
476,310,135752,1,2,0:0:0:0:
411,254,135942,6,0,P|397:201|420:130,1,120.000004577637,0|2,1:0|0:0,0:0:0:0:
473,202,136513,1,0,0:0:0:0:
473,202,136703,2,0,L|330:202,1,120.000004577637,0|2,1:0|0:0,0:0:0:0:
89,53,137464,6,0,P|98:95|102:124,1,60.0000022888184,0|0,1:0|0:0,0:0:0:0:
107,196,137844,1,2,0:0:0:0:
107,196,138034,1,0,0:0:0:0:
215,132,138224,2,0,P|206:174|202:203,1,60.0000022888184,0|0,1:0|0:0,0:0:0:0:
197,275,138605,1,2,0:0:0:0:
197,275,138795,1,2,0:0:0:0:
80,354,138985,6,0,L|204:369,1,120.000004577637,0|2,1:0|0:0,0:0:0:0:
257,268,139555,1,2,0:0:0:0:
257,268,139745,2,0,L|184:276,1,60.0000022888184,0|0,1:0|0:0,0:0:0:0:
49,205,140126,2,0,P|87:208|146:167,1,90.0000034332277,0|0,1:0|0:0,0:0:0:0:
139,167,140506,6,0,L|144:97,1,60.0000022888184,4|2,1:2|0:0,0:0:0:0:
212,27,140886,1,2,0:0:0:0:
220,109,141076,1,0,0:0:0:0:
294,58,141267,2,0,L|299:128,1,60.0000022888184,0|0,1:0|0:0,0:0:0:0:
298,117,141552,1,0,0:0:0:0:
298,117,141647,1,2,0:0:0:0:
306,210,141837,1,2,0:0:0:0:
382,169,142027,6,0,L|453:179,1,60.0000022888184,0|0,1:0|0:0,0:0:0:0:
438,262,142408,1,2,0:0:0:0:
438,262,142598,2,0,L|367:272,1,60.0000022888184,2|0,0:0|1:0,0:0:0:0:
318,354,142978,5,2,0:0:0:0:
318,354,143168,1,2,0:0:0:0:
318,354,143358,1,2,0:0:0:0:
318,354,143548,2,0,L|448:373,1,120.000004577637,0|2,1:0|0:0,0:0:0:0:
438,262,144119,1,2,0:0:0:0:
438,262,144309,2,0,L|367:272,1,60.0000022888184,0|2,1:0|0:0,0:0:0:0:
379,270,144594,1,0,0:0:0:0:
379,270,144689,1,2,0:0:0:0:
395,178,144879,1,2,0:0:0:0:
313,206,145070,6,0,P|267:197|209:192,2,90.0000034332277,0|2|2,1:0|0:0|0:0,0:0:0:0:
254,282,145830,1,8,0:0:0:0:
254,282,146020,1,2,3:2:0:0:
181,351,146211,1,8,0:0:0:0:
181,351,146401,1,2,3:2:0:0:
101,296,146591,6,0,L|97:217,1,80,4|0,0:0|0:0,0:0:0:0:
164,31,146971,2,0,P|185:92|174:165,1,120,8|0,0:0|0:0,0:0:0:0:
173,167,147351,1,2,3:2:0:0:
94,107,147542,2,0,L|71:108,2,20,2|0|0,3:2|0:0|0:0,0:0:0:0:
106,106,147732,1,8,0:0:0:0:
255,44,147922,1,2,0:0:0:0:
274,142,148112,6,0,P|330:141|362:196,1,120,2|0,3:2|0:0,0:0:0:0:
365,214,148492,2,0,L|376:301,1,80,8|0,0:0|0:0,0:0:0:0:
452,351,148873,1,2,3:2:0:0:
472,252,149063,1,2,3:2:0:0:
294,325,149253,6,0,P|236:324|181:365,1,120,8|0,0:0|0:0,0:0:0:0:
166,372,149633,2,0,L|156:285,1,80,2|2,3:2|0:0,0:0:0:0:
94,185,150014,1,8,0:0:0:0:
68,276,150204,1,0,0:0:0:0:
68,276,150394,1,2,3:2:0:0:
178,213,150584,1,2,3:2:0:0:
182,193,150679,1,0,0:0:0:0:
185,173,150774,1,8,0:0:0:0:
130,90,150964,1,2,0:0:0:0:
275,142,151154,6,0,P|324:149|388:111,1,120,2|0,3:2|0:0,0:0:0:0:
403,90,151535,2,0,L|392:192,1,80,8|0,0:0|0:0,0:0:0:0:
370,344,151915,1,2,3:2:0:0:
339,255,152105,1,2,3:2:0:0:
274,329,152295,2,0,L|230:335,1,40,8|0,3:0|0:0,0:0:0:0:
207,318,152485,2,0,L|167:312,1,40,8|0,3:0|0:0,0:0:0:0:
134,350,152676,6,0,P|130:304|121:260,1,80,4|0,0:0|0:0,0:0:0:0:
34,193,153056,2,0,P|92:199|138:162,1,120,8|0,0:0|0:0,0:0:0:0:
152,147,153436,1,2,3:2:0:0:
67,109,153626,2,0,L|61:80,2,20,2|0|0,3:2|0:0|0:0,0:0:0:0:
71,122,153817,1,8,0:0:0:0:
138,68,154007,1,2,3:0:0:0:
175,223,154197,6,0,L|271:232,1,80,2|0,3:2|0:0,0:0:0:0:
344,244,154577,1,8,0:0:0:0:
344,244,154767,1,2,3:2:0:0:
303,138,154957,5,2,3:2:0:0:
256,331,155148,1,2,3:2:0:0:
206,136,155338,5,8,0:0:0:0:
256,339,155528,1,2,3:2:0:0:
303,138,155718,6,0,P|318:91|294:20,1,120,2|0,3:2|0:0,0:0:0:0:
271,16,156098,2,0,L|190:16,1,80,8|0,0:0|0:0,0:0:0:0:
137,121,156479,1,2,3:2:0:0:
137,121,156669,2,0,L|217:121,1,80,2|8,3:2|0:0,0:0:0:0:
176,212,157049,1,2,3:0:0:0:
176,212,157239,5,2,3:2:0:0:
253,359,157524,1,2,3:2:0:0:
336,212,157810,1,2,3:2:0:0:
336,212,158000,5,2,3:2:0:0:
145,359,158285,1,2,3:2:0:0:
367,359,158570,1,2,3:2:0:0:
256,192,158760,5,4,0:0:0:0:
