osu file format v14

[General]
AudioFilename: audio.mp3
AudioLeadIn: 0
PreviewTime: 5379
Countdown: 0
SampleSet: Normal
StackLeniency: 0.7
Mode: 0
LetterboxInBreaks: 0
WidescreenStoryboard: 1

[Editor]
DistanceSpacing: 0.5
BeatDivisor: 4
GridSize: 32
TimelineZoom: 1

[Metadata]
Title:A Soul as Red as a Ground Cherry
TitleUnicode:ほおずきみたいに紅い魂
Artist:ZUN
ArtistUnicode:ZUN
Creator:Dziuras
Version:Insane
Source:Touhou
Tags:
BeatmapID:1650813
BeatmapSetID:786405

[Difficulty]
HPDrainRate:5
CircleSize:4
OverallDifficulty:6
ApproachRate:9
SliderMultiplier:2.5
SliderTickRate:1

[Events]
//Background and Video events
//Break Periods
2,44888,57848
2,111095,124055
//Storyboard Layer 0 (Background)
//Storyboard Layer 1 (Fail)
//Storyboard Layer 2 (Pass)
//Storyboard Layer 3 (Foreground)
//Storyboard Sound Samples

[TimingPoints]
0,413.793103448276,3,1,0,100,1,0

[HitObjects]
192,96,5482,5,0,0:0:0:0:
384,96,5793,1,0,0:0:0:0:
365,151,5896,1,0,0:0:0:0:
192,224,6103,1,0,0:0:0:0:
192,96,6310,1,0,0:0:0:0:
384,256,6620,5,0,0:0:0:0:
384,96,6931,1,0,0:0:0:0:
224,192,7137,1,0,0:0:0:0:
128,96,7448,1,0,0:0:0:0:
127,148,7551,1,0,0:0:0:0:
288,192,7758,1,0,0:0:0:0:
352,128,7965,2,0,L|160:96,1,187.5
224,224,8793,5,0,0:0:0:0:
416,96,9103,1,0,0:0:0:0:
373,97,9206,1,0,0:0:0:0:
160,96,9413,1,0,0:0:0:0:
192,256,9620,1,0,0:0:0:0:
352,96,9931,2,0,L|160:96,1,187.5
64,96,10448,1,0,0:0:0:0:
96,256,10758,5,0,0:0:0:0:
77,218,10862,1,0,0:0:0:0:
224,96,11068,1,0,0:0:0:0:
416,96,11275,1,0,0:0:0:0:
448,192,11586,1,0,0:0:0:0:
256,192,11896,1,0,0:0:0:0:
256,96,12103,5,0,0:0:0:0:
128,128,12413,1,0,0:0:0:0:
96,160,12517,1,0,0:0:0:0:
96,320,12724,1,0,0:0:0:0:
256,192,12931,1,0,0:0:0:0:
384,64,13241,1,0,0:0:0:0:
448,224,13551,1,0,0:0:0:0:
251,198,13758,1,0,0:0:0:0:
230,147,14068,5,0,0:0:0:0:
188,149,14172,1,0,0:0:0:0:
271,322,14379,1,0,0:0:0:0:
433,128,14586,1,0,0:0:0:0:
203,64,14896,1,0,0:0:0:0:
135,184,15206,1,0,0:0:0:0:
360,280,15413,1,0,0:0:0:0:
396,98,15724,5,0,0:0:0:0:
354,99,15827,1,0,0:0:0:0:
154,263,16034,1,0,0:0:0:0:
76,108,16241,1,0,0:0:0:0:
371,67,16551,5,0,0:0:0:0:
187,286,16862,1,0,0:0:0:0:
69,117,17068,1,0,0:0:0:0:
354,79,17379,5,0,0:0:0:0:
355,119,17482,1,0,0:0:0:0:
80,313,17689,1,0,0:0:0:0:
117,85,17896,1,0,0:0:0:0:
393,264,18206,5,0,0:0:0:0:
245,46,18517,1,0,0:0:0:0:
163,225,18724,1,0,0:0:0:0:
127,68,19034,2,0,L|86:132,1,62.5
188,84,19551,2,0,L|311:145,1,125
422,147,20172,2,0,P|351:298|236:214,1,312.5
297,151,21000,1,0,0:0:0:0:
58,161,21206,1,0,0:0:0:0:
287,74,21931,6,0,L|346:333,1,250
268,332,22448,1,0,0:0:0:0:
134,334,22655,2,0,L|266:88,1,250
386,76,23275,1,0,0:0:0:0:
406,226,23482,1,0,0:0:0:0:
199,283,23689,1,0,0:0:0:0:
285,100,23896,1,0,0:0:0:0:
47,171,24103,1,0,0:0:0:0:
293,207,24310,1,0,0:0:0:0:
81,57,24517,1,0,0:0:0:0:
458,62,25241,6,0,P|459:134|303:168,1,250
306,101,25758,1,0,0:0:0:0:
223,91,26068,2,0,P|181:152|262:226,1,187.5
195,69,26793,5,0,0:0:0:0:
70,286,27000,1,0,0:0:0:0:
317,137,27310,1,0,0:0:0:0:
41,194,27620,1,0,0:0:0:0:
34,307,27827,2,0,P|163:149|370:78,1,375
361,110,28655,6,0,L|147:119,1,187.5
173,117,29068,1,0,0:0:0:0:
172,270,29275,2,0,L|364:250,1,187.5
358,250,29689,1,0,0:0:0:0:
176,113,29896,1,0,0:0:0:0:
64,256,30103,2,0,P|352:224|64:128,1,812.5
221,196,31965,5,0,0:0:0:0:
406,62,32379,1,0,0:0:0:0:
400,281,32793,1,0,0:0:0:0:
232,298,33000,1,0,0:0:0:0:
164,146,33413,1,0,0:0:0:0:
358,122,33620,1,0,0:0:0:0:
221,272,33931,1,0,0:0:0:0:
123,122,34241,1,0,0:0:0:0:
466,67,34448,2,0,P|457:212|205:195,1,437.5
215,212,35275,1,0,0:0:0:0:
301,121,35586,6,0,L|106:123,1,187.5
66,250,36310,1,0,0:0:0:0:
237,74,36517,1,0,0:0:0:0:
388,278,36724,1,0,0:0:0:0:
388,66,36931,1,0,0:0:0:0:
247,257,37137,1,0,0:0:0:0:
132,86,37344,1,0,0:0:0:0:
17,264,37551,1,0,0:0:0:0:
47,87,37758,1,0,0:0:0:0:
400,76,38586,5,0,0:0:0:0:
386,293,39000,1,0,0:0:0:0:
101,277,39413,1,0,0:0:0:0:
115,108,39620,1,0,0:0:0:0:
387,113,40034,1,0,0:0:0:0:
366,264,40241,1,0,0:0:0:0:
278,103,40551,1,0,0:0:0:0:
161,273,40862,1,0,0:0:0:0:
108,133,41068,1,0,0:0:0:0:
388,62,41793,6,0,L|402:322,1,250
294,260,42413,2,0,L|301:70,1,187.5
300,72,42827,1,0,0:0:0:0:
161,83,43137,1,0,0:0:0:0:
480,320,43344,2,0,P|192:256|480:64,1,812.5
267,132,58448,5,0,0:0:0:0:
406,68,58758,1,0,0:0:0:0:
409,249,59068,1,0,0:0:0:0:
244,295,59275,1,0,0:0:0:0:
186,125,59586,1,0,0:0:0:0:
51,285,59896,1,0,0:0:0:0:
137,84,60103,2,0,P|196:233|445:18,1,625
126,66,61758,5,0,0:0:0:0:
110,283,62068,1,0,0:0:0:0:
267,289,62275,1,0,0:0:0:0:
380,72,62586,1,0,0:0:0:0:
391,274,62896,1,0,0:0:0:0:
217,88,63206,1,0,0:0:0:0:
70,159,63413,2,0,P|247:288|481:35,1,625
442,50,65068,5,0,0:0:0:0:
271,305,65482,1,0,0:0:0:0:
167,177,65689,1,0,0:0:0:0:
271,74,65896,1,0,0:0:0:0:
442,304,66206,1,0,0:0:0:0:
425,52,66517,1,0,0:0:0:0:
279,43,66724,2,0,P|133:143|421:194,1,687.5
85,60,68379,5,0,0:0:0:0:
259,290,68793,1,0,0:0:0:0:
415,193,69000,1,0,0:0:0:0:
278,84,69206,1,0,0:0:0:0:
141,261,69517,1,0,0:0:0:0:
146,108,69827,1,0,0:0:0:0:
196,35,70034,2,0,P|389:144|96:212,1,687.5
116,66,71689,5,0,0:0:0:0:
359,80,72000,1,0,0:0:0:0:
357,125,72103,1,0,0:0:0:0:
342,259,72310,1,0,0:0:0:0:
208,272,72517,1,0,0:0:0:0:
126,100,72827,1,0,0:0:0:0:
340,70,73137,1,0,0:0:0:0:
157,67,73344,5,0,0:0:0:0:
140,170,73655,1,0,0:0:0:0:
146,216,73758,1,0,0:0:0:0:
272,295,73965,1,0,0:0:0:0:
399,288,74172,1,0,0:0:0:0:
395,109,74482,1,0,0:0:0:0:
321,52,75000,5,0,0:0:0:0:
277,59,75103,1,0,0:0:0:0:
247,68,75206,1,0,0:0:0:0:
217,77,75310,1,0,0:0:0:0:
186,84,75413,1,0,0:0:0:0:
156,94,75517,1,0,0:0:0:0:
128,109,75620,1,0,0:0:0:0:
105,130,75724,1,0,0:0:0:0:
87,155,75827,1,0,0:0:0:0:
72,183,75931,1,0,0:0:0:0:
76,213,76034,1,0,0:0:0:0:
92,239,76137,1,0,0:0:0:0:
118,256,76241,1,0,0:0:0:0:
147,266,76344,1,0,0:0:0:0:
334,161,76655,5,0,0:0:0:0:
207,60,76965,1,0,0:0:0:0:
168,175,77275,1,0,0:0:0:0:
284,271,77482,1,0,0:0:0:0:
280,175,77689,1,0,0:0:0:0:
250,80,77896,1,0,0:0:0:0:
393,88,78103,1,0,0:0:0:0:
397,207,78310,5,0,0:0:0:0:
366,213,78413,1,0,0:0:0:0:
334,217,78517,1,0,0:0:0:0:
304,225,78620,1,0,0:0:0:0:
272,226,78724,1,0,0:0:0:0:
241,219,78827,1,0,0:0:0:0:
214,202,78931,1,0,0:0:0:0:
189,182,79034,1,0,0:0:0:0:
170,157,79137,1,0,0:0:0:0:
154,129,79241,5,0,0:0:0:0:
152,97,79344,1,0,0:0:0:0:
164,68,79448,1,0,0:0:0:0:
188,49,79551,1,0,0:0:0:0:
218,40,79655,1,0,0:0:0:0:
248,36,79758,1,0,0:0:0:0:
279,36,79862,1,0,0:0:0:0:
309,40,79965,1,0,0:0:0:0:
339,47,80068,1,0,0:0:0:0:
365,63,80172,5,0,0:0:0:0:
381,90,80275,1,0,0:0:0:0:
382,121,80379,1,0,0:0:0:0:
373,150,80482,1,0,0:0:0:0:
360,179,80586,1,0,0:0:0:0:
346,206,80689,1,0,0:0:0:0:
330,233,80793,1,0,0:0:0:0:
305,251,80896,1,0,0:0:0:0:
275,261,81000,1,0,0:0:0:0:
245,271,81103,5,0,0:0:0:0:
214,274,81206,1,0,0:0:0:0:
182,277,81310,1,0,0:0:0:0:
151,283,81413,1,0,0:0:0:0:
126,263,81517,5,0,0:0:0:0:
114,234,81620,1,0,0:0:0:0:
115,202,81724,1,0,0:0:0:0:
128,174,81827,1,0,0:0:0:0:
149,151,81931,1,0,0:0:0:0:
174,133,82034,1,0,0:0:0:0:
202,120,82137,1,0,0:0:0:0:
231,108,82241,1,0,0:0:0:0:
260,99,82344,1,0,0:0:0:0:
290,106,82448,5,0,0:0:0:0:
319,115,82551,1,0,0:0:0:0:
346,130,82655,1,0,0:0:0:0:
371,148,82758,1,0,0:0:0:0:
391,171,82862,1,0,0:0:0:0:
406,197,82965,1,0,0:0:0:0:
415,226,83068,1,0,0:0:0:0:
415,257,83172,1,0,0:0:0:0:
396,282,83275,1,0,0:0:0:0:
371,301,83379,5,0,0:0:0:0:
339,308,83482,1,0,0:0:0:0:
308,301,83586,1,0,0:0:0:0:
279,289,83689,1,0,0:0:0:0:
254,269,83793,1,0,0:0:0:0:
205,152,84103,5,0,0:0:0:0:
397,134,84413,1,0,0:0:0:0:
337,312,84724,1,0,0:0:0:0:
235,288,84931,1,0,0:0:0:0:
143,127,85241,1,0,0:0:0:0:
349,94,85758,5,0,0:0:0:0:
402,206,85965,1,0,0:0:0:0:
265,301,86275,1,0,0:0:0:0:
126,256,86482,1,0,0:0:0:0:
297,80,86896,1,0,0:0:0:0:
417,227,87206,1,0,0:0:0:0:
297,298,87413,2,0,P|87:225|173:122,1,437.5
166,123,88241,5,0,0:0:0:0:
367,125,88655,1,0,0:0:0:0:
356,249,88862,1,0,0:0:0:0:
137,253,89275,5,0,0:0:0:0:
224,57,89482,1,0,0:0:0:0:
292,248,89689,1,0,0:0:0:0:
385,66,89896,1,0,0:0:0:0:
443,274,90103,1,0,0:0:0:0:
266,140,90310,1,0,0:0:0:0:
124,262,90517,1,0,0:0:0:0:
23,82,90724,2,0,P|170:89|58:274,1,437.5
78,278,91551,5,0,0:0:0:0:
302,290,91965,1,0,0:0:0:0:
402,158,92379,1,0,0:0:0:0:
287,79,92586,1,0,0:0:0:0:
64,234,93000,5,0,0:0:0:0:
149,72,93206,1,0,0:0:0:0:
280,266,93517,1,0,0:0:0:0:
393,66,93827,1,0,0:0:0:0:
255,72,94034,2,0,P|145:84|260:290,1,437.5
232,298,94862,5,0,0:0:0:0:
441,136,95275,1,0,0:0:0:0:
280,41,95482,1,0,0:0:0:0:
69,102,95896,1,0,0:0:0:0:
145,276,96103,1,0,0:0:0:0:
55,337,96310,2,0,B|431:270|431:270|61:191|61:191|387:115,1,1062.5
355,122,98172,5,0,0:0:0:0:
141,56,98586,1,0,0:0:0:0:
101,234,99000,1,0,0:0:0:0:
216,317,99206,1,0,0:0:0:0:
307,90,99620,1,0,0:0:0:0:
380,193,99827,1,0,0:0:0:0:
214,327,100137,1,0,0:0:0:0:
80,160,100448,1,0,0:0:0:0:
58,73,100655,2,0,P|220:74|404:273,1,437.5
401,262,101482,5,0,0:0:0:0:
132,247,101896,1,0,0:0:0:0:
117,142,102103,1,0,0:0:0:0:
352,89,102517,5,0,0:0:0:0:
321,295,102724,1,0,0:0:0:0:
248,109,102931,1,0,0:0:0:0:
190,290,103137,1,0,0:0:0:0:
131,98,103344,1,0,0:0:0:0:
71,275,103551,1,0,0:0:0:0:
54,104,103758,1,0,0:0:0:0:
38,327,103965,2,0,P|186:340|349:114,1,437.5
349,129,104793,5,0,0:0:0:0:
151,82,105206,1,0,0:0:0:0:
241,291,105620,1,0,0:0:0:0:
117,274,105827,1,0,0:0:0:0:
318,84,106241,5,0,0:0:0:0:
153,69,106448,1,0,0:0:0:0:
122,263,106758,1,0,0:0:0:0:
390,281,107068,1,0,0:0:0:0:
410,149,107275,2,0,P|273:66|18:151,1,437.5
23,144,108103,5,0,0:0:0:0:
174,282,108517,1,0,0:0:0:0:
306,285,108724,1,0,0:0:0:0:
372,127,109137,1,0,0:0:0:0:
259,51,109344,1,0,0:0:0:0:
139,52,109551,2,0,B|36:275|36:275|248:103|248:103|115:369,1,812.5
251,179,124655,5,0,0:0:0:0:
410,87,125068,1,0,0:0:0:0:
418,246,125275,1,0,0:0:0:0:
223,321,125482,1,0,0:0:0:0:
49,186,125793,1,0,0:0:0:0:
182,55,126103,1,0,0:0:0:0:
396,40,126310,2,0,B|311:225|58:73|58:73|87:251|488:366,1,937.5
405,89,128275,5,0,0:0:0:0:
299,83,128482,1,0,0:0:0:0:
95,79,128793,1,0,0:0:0:0:
133,299,129103,1,0,0:0:0:0:
325,305,129413,1,0,0:0:0:0:
444,312,129620,2,0,B|433:73|200:94|200:94|295:252|29:260,1,687.5
60,62,131172,5,0,0:0:0:0:
444,165,131689,1,0,0:0:0:0:
372,302,131896,1,0,0:0:0:0:
229,319,132103,1,0,0:0:0:0:
52,178,132413,1,0,0:0:0:0:
91,62,132724,1,0,0:0:0:0:
30,43,132931,2,0,B|279:138|88:304|88:304|348:301|462:129|118:12,1,937.5
72,198,135000,5,0,0:0:0:0:
178,304,135206,1,0,0:0:0:0:
309,193,135413,1,0,0:0:0:0:
231,52,135724,1,0,0:0:0:0:
418,39,136034,1,0,0:0:0:0:
474,95,136241,2,0,P|448:198|16:88,1,687.5
343,93,137896,5,0,0:0:0:0:
104,258,138206,1,0,0:0:0:0:
74,203,138310,1,0,0:0:0:0:
109,73,138517,1,0,0:0:0:0:
276,71,138724,1,0,0:0:0:0:
365,155,139034,1,0,0:0:0:0:
280,318,139344,1,0,0:0:0:0:
403,192,139551,5,0,0:0:0:0:
338,73,139862,1,0,0:0:0:0:
289,46,139965,1,0,0:0:0:0:
121,65,140172,1,0,0:0:0:0:
53,148,140379,1,0,0:0:0:0:
407,73,141206,5,0,0:0:0:0:
405,104,141310,1,0,0:0:0:0:
395,133,141413,1,0,0:0:0:0:
382,161,141517,1,0,0:0:0:0:
363,186,141620,1,0,0:0:0:0:
342,210,141724,1,0,0:0:0:0:
317,229,141827,1,0,0:0:0:0:
291,247,141931,1,0,0:0:0:0:
260,249,142034,1,0,0:0:0:0:
229,254,142137,5,0,0:0:0:0:
197,249,142241,1,0,0:0:0:0:
168,237,142344,1,0,0:0:0:0:
142,218,142448,1,0,0:0:0:0:
122,193,142551,1,0,0:0:0:0:
175,93,142862,5,0,0:0:0:0:
316,88,143172,1,0,0:0:0:0:
324,226,143482,1,0,0:0:0:0:
177,260,143689,1,0,0:0:0:0:
336,74,144413,5,0,0:0:0:0:
346,103,144517,1,0,0:0:0:0:
352,133,144620,1,0,0:0:0:0:
354,164,144724,1,0,0:0:0:0:
351,195,144827,1,0,0:0:0:0:
340,224,144931,1,0,0:0:0:0:
318,246,145034,1,0,0:0:0:0:
294,266,145137,1,0,0:0:0:0:
265,278,145241,1,0,0:0:0:0:
234,283,145344,1,0,0:0:0:0:
202,279,145448,5,0,0:0:0:0:
171,272,145551,1,0,0:0:0:0:
143,257,145655,1,0,0:0:0:0:
118,237,145758,1,0,0:0:0:0:
98,212,145862,1,0,0:0:0:0:
83,184,145965,1,0,0:0:0:0:
75,153,146068,1,0,0:0:0:0:
75,121,146172,1,0,0:0:0:0:
86,92,146275,1,0,0:0:0:0:
114,78,146379,5,0,0:0:0:0:
142,66,146482,1,0,0:0:0:0:
172,57,146586,1,0,0:0:0:0:
202,53,146689,1,0,0:0:0:0:
233,53,146793,1,0,0:0:0:0:
264,55,146896,1,0,0:0:0:0:
295,59,147000,1,0,0:0:0:0:
325,61,147103,1,0,0:0:0:0:
355,66,147206,1,0,0:0:0:0:
385,73,147310,5,0,0:0:0:0:
412,88,147413,1,0,0:0:0:0:
430,113,147517,1,0,0:0:0:0:
436,143,147620,1,0,0:0:0:0:
437,174,147724,1,0,0:0:0:0:
434,204,147827,1,0,0:0:0:0:
427,234,147931,1,0,0:0:0:0:
416,263,148034,1,0,0:0:0:0:
399,289,148137,1,0,0:0:0:0:
369,299,148241,5,0,0:0:0:0:
338,306,148344,1,0,0:0:0:0:
307,311,148448,1,0,0:0:0:0:
275,312,148551,1,0,0:0:0:0:
243,310,148655,1,0,0:0:0:0:
212,302,148758,1,0,0:0:0:0:
182,290,148862,1,0,0:0:0:0:
155,274,148965,1,0,0:0:0:0:
130,254,149068,1,0,0:0:0:0:
122,223,149172,5,0,0:0:0:0:
119,191,149275,1,0,0:0:0:0:
125,160,149379,1,0,0:0:0:0:
134,130,149482,1,0,0:0:0:0:
150,103,149586,1,0,0:0:0:0:
172,80,149689,1,0,0:0:0:0:
198,62,149793,1,0,0:0:0:0:
357,100,150310,5,0,0:0:0:0:
370,278,150620,1,0,0:0:0:0:
240,175,150931,1,0,0:0:0:0:
157,324,151137,1,0,0:0:0:0:
52,153,151551,1,0,0:0:0:0:
306,171,151965,1,0,0:0:0:0:
255,61,152172,1,0,0:0:0:0:
421,161,152586,5,0,0:0:0:0:
353,265,152793,1,0,0:0:0:0:
199,308,153103,1,0,0:0:0:0:
66,150,153413,1,0,0:0:0:0:
97,56,153620,2,0,P|227:180|475:182,1,437.5
473,182,154448,5,0,0:0:0:0:
234,42,154862,1,0,0:0:0:0:
76,103,155068,1,0,0:0:0:0:
105,283,155482,5,0,0:0:0:0:
356,311,155689,1,0,0:0:0:0:
169,149,155896,1,0,0:0:0:0:
412,152,156103,1,0,0:0:0:0:
281,51,156310,1,0,0:0:0:0:
297,230,156517,1,0,0:0:0:0:
179,68,156724,1,0,0:0:0:0:
81,244,156931,2,0,P|234:298|382:93,1,437.5
139,81,158172,5,0,0:0:0:0:
104,256,158586,1,0,0:0:0:0:
252,288,158793,1,0,0:0:0:0:
378,150,159206,1,0,0:0:0:0:
311,72,159413,1,0,0:0:0:0:
166,111,159724,1,0,0:0:0:0:
150,267,160034,1,0,0:0:0:0:
70,350,160241,2,0,P|124:210|386:140,1,437.5
382,240,161482,5,0,0:0:0:0:
261,132,161689,1,0,0:0:0:0:
385,101,162103,1,0,0:0:0:0:
318,241,162310,1,0,0:0:0:0:
431,343,162517,2,0,B|33:212|33:212|425:102,1,812.5
