osu file format v14

[General]
AudioFilename: audio.mp3
AudioLeadIn: 0
PreviewTime: 5379
Countdown: 0
SampleSet: Normal
StackLeniency: 0.7
Mode: 0
LetterboxInBreaks: 0
WidescreenStoryboard: 1

[Editor]
DistanceSpacing: 0.5
BeatDivisor: 4
GridSize: 32
TimelineZoom: 1

[Metadata]
Title:A Soul as Red as a Ground Cherry
TitleUnicode:ほおずきみたいに紅い魂
Artist:ZUN
ArtistUnicode:ZUN
Creator:Dziuras
Version:Hard
Source:Touhou
Tags:
BeatmapID:1651274
BeatmapSetID:786405

[Difficulty]
HPDrainRate:4
CircleSize:5
OverallDifficulty:6
ApproachRate:7
SliderMultiplier:2
SliderTickRate:1

[Events]
//Background and Video events
//Break Periods
2,44888,57548
2,111095,123755
//Storyboard Layer 0 (Background)
//Storyboard Layer 1 (Fail)
//Storyboard Layer 2 (Pass)
//Storyboard Layer 3 (Foreground)
//Storyboard Sound Samples

[TimingPoints]
0,413.793103448276,3,1,0,100,1,0

[HitObjects]
192,96,5482,5,0,0:0:0:0:
287,99,5793,1,0,0:0:0:0:
287,99,5896,1,0,0:0:0:0:
372,108,6103,1,0,0:0:0:0:
392,177,6310,1,0,0:0:0:0:
384,256,6620,5,0,0:0:0:0:
303,259,6931,1,0,0:0:0:0:
223,253,7137,1,0,0:0:0:0:
158,232,7448,1,0,0:0:0:0:
158,232,7551,1,0,0:0:0:0:
220,177,7758,1,0,0:0:0:0:
267,118,7965,2,0,L|75:86,1,150
110,181,8793,5,0,0:0:0:0:
211,233,9103,1,0,0:0:0:0:
211,233,9206,1,0,0:0:0:0:
256,156,9413,1,0,0:0:0:0:
327,118,9620,1,0,0:0:0:0:
356,64,9931,2,0,L|164:64,1,150
89,103,10448,1,0,0:0:0:0:
86,196,10758,5,0,0:0:0:0:
86,196,10862,1,0,0:0:0:0:
171,168,11068,1,0,0:0:0:0:
262,155,11275,1,0,0:0:0:0:
362,161,11586,1,0,0:0:0:0:
418,213,11896,1,0,0:0:0:0:
376,275,12103,5,0,0:0:0:0:
292,290,12413,1,0,0:0:0:0:
292,290,12517,1,0,0:0:0:0:
194,285,12724,1,0,0:0:0:0:
122,260,12931,1,0,0:0:0:0:
111,188,13241,1,0,0:0:0:0:
131,125,13551,1,0,0:0:0:0:
174,83,13758,1,0,0:0:0:0:
230,147,14068,5,0,0:0:0:0:
230,147,14172,1,0,0:0:0:0:
255,226,14379,1,0,0:0:0:0:
306,278,14586,1,0,0:0:0:0:
381,262,14896,1,0,0:0:0:0:
389,186,15206,1,0,0:0:0:0:
359,121,15413,1,0,0:0:0:0:
319,61,15724,5,0,0:0:0:0:
319,61,15827,1,0,0:0:0:0:
244,66,16034,1,0,0:0:0:0:
164,73,16241,1,0,0:0:0:0:
118,147,16551,5,0,0:0:0:0:
149,225,16862,1,0,0:0:0:0:
198,284,17068,1,0,0:0:0:0:
337,236,17379,5,0,0:0:0:0:
337,236,17482,1,0,0:0:0:0:
364,149,17689,1,0,0:0:0:0:
339,79,17896,1,0,0:0:0:0:
248,73,18206,5,0,0:0:0:0:
253,155,18517,1,0,0:0:0:0:
164,151,18724,1,0,0:0:0:0:
127,68,19034,2,0,L|86:132,1,50
188,84,19551,2,0,L|311:145,1,100
377,137,20172,2,0,P|351:298|259:288,1,250
244,245,21000,1,0,0:0:0:0:
203,173,21206,1,0,0:0:0:0:
287,74,21931,6,0,L|340:308,1,200
331,269,22448,1,0,0:0:0:0:
274,330,22655,2,0,L|223:119,1,200
288,108,23275,1,0,0:0:0:0:
362,123,23482,1,0,0:0:0:0:
396,184,23689,1,0,0:0:0:0:
362,251,23896,1,0,0:0:0:0:
297,288,24103,1,0,0:0:0:0:
228,247,24310,1,0,0:0:0:0:
190,181,24517,1,0,0:0:0:0:
458,62,25241,6,0,P|459:134|333:139,1,200
351,158,25758,1,0,0:0:0:0:
223,91,26068,2,0,P|181:152|256:225,1,150
277,242,26793,5,0,0:0:0:0:
223,300,27000,1,0,0:0:0:0:
157,266,27310,1,0,0:0:0:0:
96,222,27620,1,0,0:0:0:0:
34,307,27827,2,0,P|163:149|285:96,1,300
233,51,28655,6,0,L|40:58,1,150
83,56,29068,1,0,0:0:0:0:
77,148,29275,2,0,L|230:131,1,150
226,131,29689,1,0,0:0:0:0:
186,205,29896,1,0,0:0:0:0:
138,251,30103,2,0,P|426:219|236:66,1,650
113,155,31965,5,0,0:0:0:0:
186,180,32379,1,0,0:0:0:0:
258,216,32793,1,0,0:0:0:0:
236,278,33000,1,0,0:0:0:0:
141,241,33413,1,0,0:0:0:0:
99,189,33620,1,0,0:0:0:0:
185,154,33931,1,0,0:0:0:0:
149,85,34241,1,0,0:0:0:0:
264,104,34448,2,0,P|255:249|49:264,1,350
79,287,35275,1,0,0:0:0:0:
128,233,35586,6,0,L|153:83,1,150
222,58,36310,1,0,0:0:0:0:
294,57,36517,1,0,0:0:0:0:
365,59,36724,1,0,0:0:0:0:
435,90,36931,1,0,0:0:0:0:
460,158,37137,1,0,0:0:0:0:
440,229,37344,1,0,0:0:0:0:
372,275,37551,1,0,0:0:0:0:
309,299,37758,1,0,0:0:0:0:
400,76,38586,5,0,0:0:0:0:
399,153,39000,1,0,0:0:0:0:
354,232,39413,1,0,0:0:0:0:
281,266,39620,1,0,0:0:0:0:
282,200,40034,1,0,0:0:0:0:
351,161,40241,1,0,0:0:0:0:
308,101,40551,1,0,0:0:0:0:
231,119,40862,1,0,0:0:0:0:
158,132,41068,1,0,0:0:0:0:
388,62,41793,6,0,L|404:303,1,200
401,261,42310,2,0,L|296:159,1,100
266,204,42931,1,0,0:0:0:0:
321,273,43137,1,0,0:0:0:0:
395,310,43344,2,0,P|107:246|289:27,1,650
278,184,58448,5,0,0:0:0:0:
342,151,58758,1,0,0:0:0:0:
407,110,59068,1,0,0:0:0:0:
340,64,59275,1,0,0:0:0:0:
271,37,59586,1,0,0:0:0:0:
199,41,59896,1,0,0:0:0:0:
137,84,60103,2,0,P|196:233|423:34,1,550
372,43,61758,5,0,0:0:0:0:
319,99,62068,1,0,0:0:0:0:
316,164,62275,1,0,0:0:0:0:
239,132,62586,1,0,0:0:0:0:
181,186,62896,1,0,0:0:0:0:
148,120,63206,1,0,0:0:0:0:
70,159,63413,2,0,P|247:288|464:56,1,550
390,112,65068,5,0,0:0:0:0:
428,48,65482,1,0,0:0:0:0:
340,50,65689,1,0,0:0:0:0:
325,132,65896,1,0,0:0:0:0:
260,107,66206,1,0,0:0:0:0:
319,40,66517,1,0,0:0:0:0:
243,43,66724,2,0,P|97:143|345:194,1,550
345,147,68379,5,0,0:0:0:0:
265,179,68793,1,0,0:0:0:0:
195,171,69000,1,0,0:0:0:0:
139,136,69206,1,0,0:0:0:0:
130,66,69517,1,0,0:0:0:0:
203,107,69827,1,0,0:0:0:0:
196,35,70034,2,0,P|389:144|157:211,1,550
100,210,71689,5,0,0:0:0:0:
99,130,72000,1,0,0:0:0:0:
99,130,72103,1,0,0:0:0:0:
171,77,72310,1,0,0:0:0:0:
240,67,72517,1,0,0:0:0:0:
287,138,72827,1,0,0:0:0:0:
336,68,73137,1,0,0:0:0:0:
398,123,73344,5,0,0:0:0:0:
384,195,73655,1,0,0:0:0:0:
384,195,73758,1,0,0:0:0:0:
316,248,73965,1,0,0:0:0:0:
250,271,74172,1,0,0:0:0:0:
178,262,74482,1,0,0:0:0:0:
156,202,75000,6,0,L|214:200,13,50
285,192,76655,5,0,0:0:0:0:
231,127,76965,1,0,0:0:0:0:
295,85,77275,1,0,0:0:0:0:
353,147,77482,1,0,0:0:0:0:
294,197,77689,1,0,0:0:0:0:
344,245,77896,1,0,0:0:0:0:
269,265,78103,1,0,0:0:0:0:
261,190,78310,6,0,L|246:134,53,50
314,116,84103,5,0,0:0:0:0:
376,172,84413,1,0,0:0:0:0:
337,235,84724,1,0,0:0:0:0:
270,245,84931,1,0,0:0:0:0:
188,219,85241,1,0,0:0:0:0:
168,142,85758,5,0,0:0:0:0:
218,86,85965,1,0,0:0:0:0:
289,83,86275,1,0,0:0:0:0:
353,113,86482,1,0,0:0:0:0:
336,187,86896,1,0,0:0:0:0:
290,251,87206,1,0,0:0:0:0:
297,298,87413,2,0,P|87:225|96:184,1,300
98,190,88241,5,0,0:0:0:0:
161,146,88655,1,0,0:0:0:0:
163,221,88862,1,0,0:0:0:0:
212,276,89275,5,0,0:0:0:0:
238,207,89482,1,0,0:0:0:0:
294,257,89689,1,0,0:0:0:0:
356,293,89896,1,0,0:0:0:0:
424,262,90103,1,0,0:0:0:0:
409,196,90310,1,0,0:0:0:0:
333,175,90517,1,0,0:0:0:0:
280,123,90724,2,0,P|213:100|101:285,1,300
96,312,91551,5,0,0:0:0:0:
171,306,91965,1,0,0:0:0:0:
260,290,92379,1,0,0:0:0:0:
332,280,92586,1,0,0:0:0:0:
351,211,93000,5,0,0:0:0:0:
369,139,93206,1,0,0:0:0:0:
392,74,93517,1,0,0:0:0:0:
329,62,93827,1,0,0:0:0:0:
257,72,94034,2,0,P|147:84|246:265,1,400
169,251,95275,1,0,0:0:0:0:
110,204,95482,1,0,0:0:0:0:
46,250,95896,1,0,0:0:0:0:
0,302,96103,1,0,0:0:0:0:
55,336,96310,6,0,B|431:269|431:269|61:190|61:190|195:145,1,900
141,56,98586,5,0,0:0:0:0:
216,58,99000,1,0,0:0:0:0:
284,57,99206,1,0,0:0:0:0:
298,127,99620,1,0,0:0:0:0:
364,157,99827,1,0,0:0:0:0:
319,229,100137,1,0,0:0:0:0:
240,245,100448,1,0,0:0:0:0:
139,229,100655,2,0,P|220:74|336:128,1,300
374,134,101482,5,0,0:0:0:0:
391,200,101896,1,0,0:0:0:0:
347,259,102103,1,0,0:0:0:0:
272,239,102517,5,0,0:0:0:0:
297,301,102724,1,0,0:0:0:0:
229,303,102931,1,0,0:0:0:0:
193,242,103137,1,0,0:0:0:0:
131,188,103344,1,0,0:0:0:0:
118,255,103551,1,0,0:0:0:0:
44,259,103758,1,0,0:0:0:0:
38,327,103965,2,0,P|186:340|302:143,1,400
238,110,105206,5,0,0:0:0:0:
192,174,105620,1,0,0:0:0:0:
133,209,105827,1,0,0:0:0:0:
96,143,106241,5,0,0:0:0:0:
143,76,106448,1,0,0:0:0:0:
210,74,106758,1,0,0:0:0:0:
288,69,107068,1,0,0:0:0:0:
409,148,107275,2,0,P|275:184|73:157,1,300
74,240,108103,5,0,0:0:0:0:
0,183,108517,1,0,0:0:0:0:
25,115,108724,1,0,0:0:0:0:
29,57,109137,1,0,0:0:0:0:
82,34,109344,1,0,0:0:0:0:
139,52,109551,2,0,B|36:275|36:275|248:103|248:103|170:250,1,650
251,179,124655,5,0,0:0:0:0:
328,165,125068,1,0,0:0:0:0:
397,177,125275,1,0,0:0:0:0:
448,140,125482,1,0,0:0:0:0:
475,79,125793,1,0,0:0:0:0:
436,28,126103,1,0,0:0:0:0:
396,40,126310,2,0,B|311:225|58:73|58:73|87:251|349:297,1,750
392,276,128275,5,0,0:0:0:0:
415,207,128482,1,0,0:0:0:0:
333,186,128793,1,0,0:0:0:0:
290,266,129103,1,0,0:0:0:0:
372,313,129413,1,0,0:0:0:0:
444,312,129620,2,0,B|433:73|200:94|200:94|295:252|143:226,1,550
158,192,131172,5,0,0:0:0:0:
123,125,131689,1,0,0:0:0:0:
87,43,131896,1,0,0:0:0:0:
15,109,132103,1,0,0:0:0:0:
52,178,132413,1,0,0:0:0:0:
3,246,132724,1,0,0:0:0:0:
66,211,132931,2,0,B|279:138|88:304|88:304|348:301|462:129|226:75,1,750
157,70,135000,5,0,0:0:0:0:
85,88,135206,1,0,0:0:0:0:
47,157,135413,1,0,0:0:0:0:
64,223,135724,1,0,0:0:0:0:
119,271,136034,1,0,0:0:0:0:
138,196,136241,2,0,P|448:198|426:87,1,550
352,98,137896,5,0,0:0:0:0:
307,152,138206,1,0,0:0:0:0:
307,152,138310,1,0,0:0:0:0:
280,85,138517,1,0,0:0:0:0:
351,60,138724,1,0,0:0:0:0:
383,132,139034,1,0,0:0:0:0:
465,147,139344,1,0,0:0:0:0:
408,206,139551,5,0,0:0:0:0:
390,275,139862,1,0,0:0:0:0:
390,275,139965,1,0,0:0:0:0:
323,309,140172,1,0,0:0:0:0:
249,319,140379,1,0,0:0:0:0:
256,246,141206,2,0,L|260:187,13,50
178,184,142862,5,0,0:0:0:0:
124,138,143172,1,0,0:0:0:0:
148,68,143482,1,0,0:0:0:0:
218,56,143689,1,0,0:0:0:0:
248,57,144413,6,0,L|297:74,52,50
362,109,150310,5,0,0:0:0:0:
410,166,150620,1,0,0:0:0:0:
393,228,150931,1,0,0:0:0:0:
341,282,151137,1,0,0:0:0:0:
268,242,151551,1,0,0:0:0:0:
306,171,151965,1,0,0:0:0:0:
311,101,152172,1,0,0:0:0:0:
227,101,152586,5,0,0:0:0:0:
162,158,152793,1,0,0:0:0:0:
90,183,153103,1,0,0:0:0:0:
50,117,153413,1,0,0:0:0:0:
97,56,153620,2,0,P|227:180|475:182,1,400
431,130,154862,1,0,0:0:0:0:
384,79,155068,1,0,0:0:0:0:
245,75,155482,5,0,0:0:0:0:
169,74,155689,1,0,0:0:0:0:
169,145,155896,1,0,0:0:0:0:
245,139,156103,1,0,0:0:0:0:
247,214,156310,1,0,0:0:0:0:
165,223,156517,1,0,0:0:0:0:
163,283,156724,1,0,0:0:0:0:
232,260,156931,2,0,P|335:267|314:41,1,400
255,49,158172,5,0,0:0:0:0:
183,78,158586,1,0,0:0:0:0:
132,108,158793,1,0,0:0:0:0:
99,187,159206,1,0,0:0:0:0:
136,242,159413,1,0,0:0:0:0:
209,285,159724,1,0,0:0:0:0:
147,333,160034,1,0,0:0:0:0:
70,350,160241,2,0,P|124:210|333:125,1,350
380,155,161482,5,0,0:0:0:0:
439,211,161689,1,0,0:0:0:0:
379,248,162103,1,0,0:0:0:0:
445,280,162310,1,0,0:0:0:0:
431,343,162517,2,0,B|33:212|33:212|279:131,1,650
