osu file format v14

[General]
AudioFilename: audio.mp3
AudioLeadIn: 0
PreviewTime: 5379
Countdown: 0
SampleSet: Normal
StackLeniency: 0.7
Mode: 0
LetterboxInBreaks: 0
WidescreenStoryboard: 1

[Editor]
DistanceSpacing: 0.5
BeatDivisor: 4
GridSize: 32
TimelineZoom: 1

[Metadata]
Title:A Soul as Red as a Ground Cherry
TitleUnicode:ほおずきみたいに紅い魂
Artist:ZUN
ArtistUnicode:ZUN
Creator:Dziuras
Version:Easy
Source:Touhou
Tags:
BeatmapID:1650933
BeatmapSetID:786405

[Difficulty]
HPDrainRate:3
CircleSize:3
OverallDifficulty:2
ApproachRate:5
SliderMultiplier:1.5
SliderTickRate:1

[Events]
//Background and Video events
//Break Periods
2,45303,57144
2,111510,136696
//Storyboard Layer 0 (Background)
//Storyboard Layer 1 (Fail)
//Storyboard Layer 2 (Pass)
//Storyboard Layer 3 (Foreground)
//Storyboard Sound Samples

[TimingPoints]
0,413.793103448276,3,1,0,100,1,0

[HitObjects]
216,170,5379,5,0,0:0:0:0:
323,200,5793,2,0,P|310:76|151:78,1,300
130,123,6931,2,0,P|164:298|379:181,1,487.5
260,124,8689,1,0,0:0:0:0:
194,69,9103,2,0,P|103:112|192:256,1,300
224,192,10241,5,0,0:0:0:0:
232,96,10758,2,0,P|323:57|323:217,1,300
266,200,11896,1,0,0:0:0:0:
216,134,12413,2,0,P|97:126|90:282,1,300
163,281,13551,1,0,0:0:0:0:
243,266,14068,2,0,P|325:220|201:110,1,300
232,188,15206,5,0,0:0:0:0:
245,256,15724,2,0,P|159:229|256:104,1,300
240,182,16862,1,0,0:0:0:0:
255,237,17379,6,0,P|327:170|180:122,1,300
227,194,18620,1,0,0:0:0:0:
183,232,19034,1,0,0:0:0:0:
139,244,19448,2,0,L|104:166,1,75
117,150,20068,2,0,L|206:151,1,75
307,160,20689,2,0,P|346:218|194:241,1,300
190,328,21931,2,0,P|87:249|149:94,1,300
159,44,22965,6,0,B|285:45|285:45|411:110|411:110|416:229|416:229|292:330|292:330|221:201,1,675
83,195,25241,5,0,0:0:0:0:
131,116,25655,1,0,0:0:0:0:
201,78,26068,2,0,P|371:83|170:253,1,600
172,332,28551,6,0,L|51:48,1,300
141,54,29793,1,0,0:0:0:0:
216,52,30000,2,0,L|460:347,1,375
448,192,31965,5,0,0:0:0:0:
384,128,32379,1,0,0:0:0:0:
334,64,32793,2,0,L|282:67,1,37.5
289,76,33310,2,0,L|108:148,1,187.5
112,188,34241,6,0,L|202:226,1,75
315,146,35172,2,0,P|203:133|258:272,1,300
268,281,36310,2,0,B|401:221|315:93|211:51|211:51|75:124|190:330,1,600
400,303,38586,6,0,L|396:117,1,150
321,106,39310,1,0,0:0:0:0:
256,100,39620,2,0,P|104:120|160:267,1,337.5
195,263,40862,2,0,P|238:285|269:270,1,75
256,192,41896,12,0,45103,0:0:0:0:
256,192,58344,12,0,60827,0:0:0:0:
191,137,61758,5,0,0:0:0:0:
118,227,62172,2,0,L|385:229,1,262.5
331,189,63206,1,0,0:0:0:0:
266,153,63413,1,0,0:0:0:0:
355,128,65068,5,0,0:0:0:0:
289,127,65482,2,0,L|109:334,1,262.5
74,252,66517,1,0,0:0:0:0:
99,179,66724,1,0,0:0:0:0:
142,73,68379,5,0,0:0:0:0:
201,60,68793,2,0,L|432:199,1,262.5
432,255,69827,1,0,0:0:0:0:
391,315,70034,1,0,0:0:0:0:
57,150,71689,6,0,L|383:150,1,300
389,207,72827,1,0,0:0:0:0:
407,256,73137,2,0,L|134:249,1,262.5
69,201,74172,2,0,L|218:102,1,150
256,192,75103,12,0,83482,0:0:0:0:
173,140,84103,5,0,0:0:0:0:
128,207,84413,2,0,L|305:206,1,150
285,152,85241,1,0,0:0:0:0:
244,125,85758,2,0,L|165:162,1,75
126,186,86379,2,0,L|73:123,1,75
128,88,86896,1,0,0:0:0:0:
181,88,87206,2,0,L|266:86,1,75
194,163,88241,5,0,0:0:0:0:
208,231,88551,2,0,L|311:225,1,75
340,268,89275,2,0,P|141:246|290:91,1,487.5
126,116,91551,5,0,0:0:0:0:
171,178,91758,2,0,L|261:223,1,75
291,203,92379,2,0,L|316:126,1,75
251,79,93000,2,0,L|164:80,1,75
87,112,93517,1,0,0:0:0:0:
162,152,93827,2,0,L|244:173,1,75
368,225,94862,5,0,0:0:0:0:
327,177,95275,2,0,L|242:182,1,75
221,237,95896,2,0,L|388:300,1,150
73,77,98172,5,0,0:0:0:0:
167,103,98586,1,0,0:0:0:0:
246,115,99000,2,0,L|194:172,1,75
159,205,99620,2,0,L|242:210,1,75
250,160,100137,1,0,0:0:0:0:
291,142,100448,2,0,L|370:158,1,75
408,260,101482,5,0,0:0:0:0:
346,268,101896,2,0,L|337:190,1,75
277,189,102517,2,0,P|291:126|106:222,1,487.5
72,241,104793,5,0,0:0:0:0:
142,245,105206,1,0,0:0:0:0:
217,246,105620,2,0,L|300:248,1,75
374,248,106241,2,0,L|368:165,1,75
293,161,106758,1,0,0:0:0:0:
237,167,107068,2,0,L|146:166,1,75
256,192,108103,12,0,111310,0:0:0:0:
93,212,137896,5,0,0:0:0:0:
98,133,138206,2,0,L|377:134,1,262.5
389,185,139241,1,0,0:0:0:0:
389,259,139448,2,0,L|57:252,1,300
183,52,141206,5,0,0:0:0:0:
129,96,141620,2,0,L|383:167,1,262.5
362,213,142758,1,0,0:0:0:0:
314,285,143068,1,0,0:0:0:0:
228,318,143379,2,0,L|146:314,1,75
67,83,144517,6,0,L|172:83,25,75
238,58,150310,5,0,0:0:0:0:
306,62,150620,1,0,0:0:0:0:
363,70,150931,1,0,0:0:0:0:
431,124,151137,2,0,P|433:251|341:224,1,262.5
284,163,152068,2,0,P|155:155|172:226,1,225
203,232,153000,5,0,0:0:0:0:
271,257,153413,2,0,L|348:254,1,75
361,198,154448,5,0,0:0:0:0:
344,145,154862,2,0,L|264:148,1,75
274,91,155379,2,0,P|100:129|310:251,1,562.5
306,221,157758,5,0,0:0:0:0:
231,231,158172,1,0,0:0:0:0:
197,171,158586,2,0,L|282:170,1,75
313,105,159206,2,0,L|230:105,1,75
180,66,159724,1,0,0:0:0:0:
241,31,160034,2,0,L|322:33,1,75
256,192,161068,12,0,163862,0:0:0:0:
