osu file format v14

[General]
AudioFilename: audio.mp3
AudioLeadIn: 0
PreviewTime: 20700
Countdown: 1
SampleSet: Normal
StackLeniency: 0.7
Mode: 2
LetterboxInBreaks: 0
WidescreenStoryboard: 1

[Editor]
DistanceSpacing: 1
BeatDivisor: 8
GridSize: 16
TimelineZoom: 4.099998

[Metadata]
Title:Higan Retour -idling mix-
TitleUnicode:彼岸帰航-idling mix-
Artist:ZUN (Arr. sun3)
ArtistUnicode:ZUN (Arr. sun3)
Creator:Pltilt
Version:CROSSOVER RETOUR
Source:Touhou
Tags:komachi
BeatmapID:1678872
BeatmapSetID:799645

[Difficulty]
HPDrainRate:2
CircleSize:4
OverallDifficulty:6
ApproachRate:9.8
SliderMultiplier:2
SliderTickRate:1

[Events]
//Background and Video events
0,0,"bg.jpg",0,0
//Break Periods
2,73700,82621
//Storyboard Layer 0 (Background)
//Storyboard Layer 1 (Fail)
//Storyboard Layer 2 (Pass)
//Storyboard Layer 3 (Foreground)
//Storyboard Sound Samples

[TimingPoints]
0,300,4,2,0,70,1,0
20700,300,4,1,0,70,1,0
59100,-100,4,1,0,70,0,0
59400,-100,4,1,0,70,0,0
59418,-100,4,1,0,5,0,0
59550,-100,4,1,0,70,0,0
59568,-100,4,1,0,5,0,0
59700,-100,4,1,0,70,0,0
60600,-100,4,1,0,70,0,0
60618,-100,4,1,0,5,0,0
60750,-100,4,1,0,70,0,0
60768,-100,4,1,0,5,0,0
60900,-100,4,1,0,70,0,0
61800,-100,4,1,0,70,0,0
61818,-100,4,1,0,5,0,0
61950,-100,4,1,0,70,0,0
61968,-100,4,1,0,5,0,0
62100,-100,4,1,0,70,0,0
63000,-100,4,1,0,70,0,0
63018,-100,4,1,0,5,0,0
63150,-100,4,1,0,70,0,0
63168,-100,4,1,0,5,0,0
63300,-100,4,1,0,70,0,0
64200,-100,4,1,0,70,0,0
64218,-100,4,1,0,5,0,0
64350,-100,4,1,0,70,0,0
64368,-100,4,1,0,5,0,0
64500,-100,4,1,0,70,0,0
65400,-100,4,1,0,70,0,0
65418,-100,4,1,0,5,0,0
65550,-100,4,1,0,70,0,0
65568,-100,4,1,0,5,0,0
65700,-100,4,1,0,70,0,0
66600,-100,4,1,0,70,0,0
66618,-100,4,1,0,5,0,0
66750,-100,4,1,0,70,0,0
66768,-100,4,1,0,5,0,0
66900,-100,4,1,0,70,0,0
67800,-100,4,1,0,70,0,0
67818,-100,4,1,0,5,0,0
67950,-100,4,1,0,70,0,0
67968,-100,4,1,0,5,0,0
68100,-100,4,1,0,70,0,0
68700,-100,4,1,0,70,0,0
73500,-100,4,2,0,70,0,0
92700,-100,4,1,0,70,0,0
111900,-100,4,1,0,70,0,0
111918,-100,4,1,0,5,0,0
112125,-100,4,1,0,70,0,0
112143,-100,4,1,0,5,0,0
112200,-100,4,1,0,70,0,0
112218,-100,4,1,0,5,0,0
112350,-100,4,1,0,70,0,0
112368,-100,4,1,0,5,0,0
112575,-100,4,1,0,70,0,0
112593,-100,4,1,0,5,0,0
112650,-100,4,1,0,70,0,0
112668,-100,4,1,0,5,0,0
112800,-100,4,1,0,70,0,0
112818,-100,4,1,0,5,0,0
112950,-100,4,1,0,70,0,0
112968,-100,4,1,0,5,0,0
113100,-100,4,1,0,70,0,0
113118,-100,4,1,0,5,0,0
113325,-100,4,1,0,70,0,0
113343,-100,4,1,0,5,0,0
113400,-100,4,1,0,70,0,0
113418,-100,4,1,0,5,0,0
113550,-100,4,1,0,70,0,0
113568,-100,4,1,0,5,0,0
113775,-100,4,1,0,70,0,0
113793,-100,4,1,0,5,0,0
113850,-100,4,1,0,70,0,0
113868,-100,4,1,0,5,0,0
114000,-100,4,1,0,70,0,0
114018,-100,4,1,0,5,0,0
114150,-100,4,1,0,70,0,0
114168,-100,4,1,0,5,0,0
114300,-100,4,1,0,70,0,0
114318,-100,4,1,0,5,0,0
114525,-100,4,1,0,70,0,0
114543,-100,4,1,0,5,0,0
114600,-100,4,1,0,70,0,0
114618,-100,4,1,0,5,0,0
114750,-100,4,1,0,70,0,0
114768,-100,4,1,0,5,0,0
114975,-100,4,1,0,70,0,0
114993,-100,4,1,0,5,0,0
115050,-100,4,1,0,70,0,0
115068,-100,4,1,0,5,0,0
115200,-100,4,1,0,70,0,0
115218,-100,4,1,0,5,0,0
115350,-100,4,1,0,70,0,0
115368,-100,4,1,0,5,0,0
115500,-100,4,1,0,70,0,0
115518,-100,4,1,0,5,0,0
115725,-100,4,1,0,70,0,0
115743,-100,4,1,0,5,0,0
115800,-100,4,1,0,70,0,0
115818,-100,4,1,0,5,0,0
115950,-100,4,1,0,70,0,0
115968,-100,4,1,0,5,0,0
116175,-100,4,1,0,70,0,0
116193,-100,4,1,0,5,0,0
116250,-100,4,1,0,70,0,0
116268,-100,4,1,0,5,0,0
116400,-100,4,1,0,70,0,0
116418,-100,4,1,0,5,0,0
116550,-100,4,1,0,70,0,0
116568,-100,4,1,0,5,0,0
116700,-100,4,1,0,70,0,0
116718,-100,4,1,0,5,0,0
116925,-100,4,1,0,70,0,0
116943,-100,4,1,0,5,0,0
117000,-100,4,1,0,70,0,0
117018,-100,4,1,0,5,0,0
117150,-100,4,1,0,70,0,0
117168,-100,4,1,0,5,0,0
117375,-100,4,1,0,70,0,0
117393,-100,4,1,0,5,0,0
117450,-100,4,1,0,70,0,0
117468,-100,4,1,0,5,0,0
117600,-100,4,1,0,70,0,0
117618,-100,4,1,0,5,0,0
117750,-100,4,1,0,70,0,0
117768,-100,4,1,0,5,0,0
117900,-100,4,1,0,70,0,0
117918,-100,4,1,0,5,0,0
118125,-100,4,1,0,70,0,0
118143,-100,4,1,0,5,0,0
118200,-100,4,1,0,70,0,0
118218,-100,4,1,0,5,0,0
118350,-100,4,1,0,70,0,0
118368,-100,4,1,0,5,0,0
118575,-100,4,1,0,70,0,0
118593,-100,4,1,0,5,0,0
118650,-100,4,1,0,70,0,0
118668,-100,4,1,0,5,0,0
118800,-100,4,1,0,70,0,0
118818,-100,4,1,0,5,0,0
118950,-100,4,1,0,70,0,0
118968,-100,4,1,0,5,0,0
119100,-100,4,1,0,70,0,0
119118,-100,4,1,0,5,0,0
119325,-100,4,1,0,70,0,0
119343,-100,4,1,0,5,0,0
119400,-100,4,1,0,70,0,0
119418,-100,4,1,0,5,0,0
119550,-100,4,1,0,70,0,0
119568,-100,4,1,0,5,0,0
119775,-100,4,1,0,70,0,0
119793,-100,4,1,0,5,0,0
119850,-100,4,1,0,70,0,0
119868,-100,4,1,0,5,0,0
120000,-100,4,1,0,70,0,0
120018,-100,4,1,0,5,0,0
120150,-100,4,1,0,70,0,0
120168,-100,4,1,0,5,0,0
120300,-100,4,1,0,70,0,0
120318,-100,4,1,0,5,0,0
120525,-100,4,1,0,70,0,0
120543,-100,4,1,0,5,0,0
120600,-100,4,1,0,70,0,0
120618,-100,4,1,0,5,0,0
120750,-100,4,1,0,70,0,0
120768,-100,4,1,0,5,0,0
120975,-100,4,1,0,70,0,0
120993,-100,4,1,0,5,0,0
121050,-100,4,1,0,70,0,0
121068,-100,4,1,0,5,0,0
121200,-100,4,1,0,70,0,0
121218,-100,4,1,0,5,0,0
121350,-100,4,1,0,70,0,0
121368,-100,4,1,0,5,0,0
121500,-100,4,1,0,70,0,0
121518,-100,4,1,0,5,0,0
121725,-100,4,1,0,70,0,0
121743,-100,4,1,0,5,0,0
121800,-100,4,1,0,70,0,0
121818,-100,4,1,0,5,0,0
121950,-100,4,1,0,70,0,0
121968,-100,4,1,0,5,0,0
122175,-100,4,1,0,70,0,0
122193,-100,4,1,0,5,0,0
122250,-100,4,1,0,70,0,0
122268,-100,4,1,0,5,0,0
122400,-100,4,1,0,70,0,0
122418,-100,4,1,0,5,0,0
122550,-100,4,1,0,70,0,0
122568,-100,4,1,0,5,0,0
122700,-100,4,1,0,70,0,0
122718,-100,4,1,0,5,0,0
122925,-100,4,1,0,70,0,0
122943,-100,4,1,0,5,0,0
123000,-100,4,1,0,70,0,0
123018,-100,4,1,0,5,0,0
123150,-100,4,1,0,70,0,0
123168,-100,4,1,0,5,0,0
123375,-100,4,1,0,70,0,0
123393,-100,4,1,0,5,0,0
123450,-100,4,1,0,70,0,0
123468,-100,4,1,0,5,0,0
123600,-100,4,1,0,70,0,0
123618,-100,4,1,0,5,0,0
123750,-100,4,1,0,70,0,0
123768,-100,4,1,0,5,0,0
123900,-100,4,1,0,70,0,0
123918,-100,4,1,0,5,0,0
124125,-100,4,1,0,70,0,0
124143,-100,4,1,0,5,0,0
124200,-100,4,1,0,70,0,0
124218,-100,4,1,0,5,0,0
124350,-100,4,1,0,70,0,0
124368,-100,4,1,0,5,0,0
124575,-100,4,1,0,70,0,0
124593,-100,4,1,0,5,0,0
124650,-100,4,1,0,70,0,0
124668,-100,4,1,0,5,0,0
124800,-100,4,1,0,70,0,0
124818,-100,4,1,0,5,0,0
124950,-100,4,1,0,70,0,0
124968,-100,4,1,0,5,0,0
125100,-100,4,1,0,70,0,0
125118,-100,4,1,0,5,0,0
125325,-100,4,1,0,70,0,0
125343,-100,4,1,0,5,0,0
125400,-100,4,1,0,70,0,0
125418,-100,4,1,0,5,0,0
125550,-100,4,1,0,70,0,0
125568,-100,4,1,0,5,0,0
125775,-100,4,1,0,70,0,0
125793,-100,4,1,0,5,0,0
125850,-100,4,1,0,70,0,0
125868,-100,4,1,0,5,0,0
126000,-100,4,1,0,70,0,0
126018,-100,4,1,0,5,0,0
126150,-100,4,1,0,70,0,0
126168,-100,4,1,0,5,0,0
126300,-100,4,1,0,70,0,0
126318,-100,4,1,0,5,0,0
126525,-100,4,1,0,70,0,0
126543,-100,4,1,0,5,0,0
126600,-100,4,1,0,70,0,0
126618,-100,4,1,0,5,0,0
126750,-100,4,1,0,70,0,0
126768,-100,4,1,0,5,0,0
126975,-100,4,1,0,70,0,0
126993,-100,4,1,0,5,0,0
127050,-100,4,1,0,70,0,0
127068,-100,4,1,0,5,0,0
127200,-100,4,1,0,70,0,0
127218,-100,4,1,0,5,0,0
127350,-100,4,1,0,70,0,0
127368,-100,4,1,0,5,0,0
127500,-100,4,1,0,70,0,0
127518,-100,4,1,0,5,0,0
127725,-100,4,1,0,70,0,0
127743,-100,4,1,0,5,0,0
127800,-100,4,1,0,70,0,0
127818,-100,4,1,0,5,0,0
127950,-100,4,1,0,70,0,0
127968,-100,4,1,0,5,0,0
128175,-100,4,1,0,70,0,0
128193,-100,4,1,0,5,0,0
128250,-100,4,1,0,70,0,0
128268,-100,4,1,0,5,0,0
128400,-100,4,1,0,70,0,0
128418,-100,4,1,0,5,0,0
128550,-100,4,1,0,70,0,0
128568,-100,4,1,0,5,0,0
128700,-100,4,1,0,70,0,0
128718,-100,4,1,0,5,0,0
128925,-100,4,1,0,70,0,0
128943,-100,4,1,0,5,0,0
129000,-100,4,1,0,70,0,0
129018,-100,4,1,0,5,0,0
129150,-100,4,1,0,70,0,0
129168,-100,4,1,0,5,0,0
129375,-100,4,1,0,70,0,0
129393,-100,4,1,0,5,0,0
129450,-100,4,1,0,70,0,0
129468,-100,4,1,0,5,0,0
129600,-100,4,1,0,70,0,0
129618,-100,4,1,0,5,0,0
129750,-100,4,1,0,70,0,0
129768,-100,4,1,0,5,0,0
129900,-100,4,1,0,70,0,0
129918,-100,4,1,0,5,0,0
130125,-100,4,1,0,70,0,0
130143,-100,4,1,0,5,0,0
130200,-100,4,1,0,70,0,0
130218,-100,4,1,0,5,0,0
130350,-100,4,1,0,70,0,0
130368,-100,4,1,0,5,0,0
130575,-100,4,1,0,70,0,0
130593,-100,4,1,0,5,0,0
130650,-100,4,1,0,70,0,0
130668,-100,4,1,0,5,0,0
130800,-100,4,1,0,70,0,0
130818,-100,4,1,0,5,0,0
130950,-100,4,1,0,70,0,0
130968,-100,4,1,0,5,0,0
131100,-100,4,1,0,70,0,0

[HitObjects]
256,32,1200,6,0,L|256:352,2,300
96,192,2400,6,0,L|416:192,2,300
96,128,3600,5,0,0:0:0:0:
192,128,3750,1,0,0:0:0:0:
288,128,3900,1,2,0:0:0:0:
384,128,4050,1,0,0:0:0:0:
480,128,4200,1,2,0:0:0:0:
192,128,4500,1,0,0:0:0:0:
256,224,4800,6,0,L|32:224,1,200
352,320,5250,2,0,L|128:320,1,200
128,256,5700,1,0,0:0:0:0:
256,256,5850,1,0,0:0:0:0:
64,192,6000,6,0,L|416:192,2,300
352,320,7200,6,0,P|256:128|96:128,2,300,0|0|2,0:0|0:0|0:0,0:0:0:0:
128,192,8400,5,2,0:0:0:0:
256,192,8550,1,0,0:0:0:0:
384,192,8700,1,2,0:0:0:0:
256,192,9000,1,2,0:0:0:0:
128,192,9300,1,2,0:0:0:0:
64,192,9600,6,0,L|480:192,1,400
288,192,10350,1,0,0:0:0:0:
160,192,10500,1,2,0:0:0:0:
224,192,10650,1,0,0:0:0:0:
128,96,10800,6,0,L|0:96,1,100,0|0,1:0|1:0,1:0:0:0:
192,96,11100,1,8,0:0:0:0:
128,192,11250,5,0,0:0:0:0:
128,224,11325,1,0,0:0:0:0:
160,256,11400,1,0,0:0:0:0:
192,288,11475,1,0,0:0:0:0:
224,320,11550,1,0,0:0:0:0:
352,224,11700,1,8,0:0:0:0:
448,224,11850,1,0,0:0:0:0:
352,96,12000,6,0,L|480:96,1,100,0|0,1:0|1:0,1:0:0:0:
192,160,12300,5,8,0:0:0:0:
64,256,12450,2,0,L|0:256,1,50
192,288,12600,2,0,L|256:288,1,50
352,224,12750,1,0,0:0:0:0:
256,224,12900,1,8,0:0:0:0:
448,224,13050,1,0,0:0:0:0:
160,128,13200,6,0,L|32:128,1,100,0|0,1:0|1:0,1:0:0:0:
320,192,13500,6,0,L|448:192,2,100,2|0|2,0:1|1:1|0:1,0:1:0:0:
128,224,13950,1,0,1:0:0:0:
320,320,14100,2,0,L|448:320,1,100,2|0,0:1|0:0,0:0:0:0:
384,96,14400,6,0,L|448:96,1,50,0|0,1:0|0:0,0:0:0:0:
256,96,14550,2,0,L|192:96,1,50,0|0,1:0|0:0,0:0:0:0:
352,192,14700,2,0,B|512:192|512:192|448:192,1,200,8|0,0:0|0:0,0:0:0:0:
352,192,15075,1,0,0:0:0:0:
320,192,15150,1,0,0:0:0:0:
288,192,15225,1,0,0:0:0:0:
256,192,15300,1,8,0:0:0:0:
224,192,15375,1,0,0:0:0:0:
192,192,15450,1,0,0:0:0:0:
160,192,15525,1,0,0:0:0:0:
128,96,15600,5,0,1:0:0:0:
64,96,15675,1,0,0:0:0:0:
0,96,15750,1,0,1:0:0:0:
192,32,15900,1,8,0:0:0:0:
128,32,15975,1,0,0:0:0:0:
64,32,16050,1,0,0:0:0:0:
256,160,16200,1,8,0:0:0:0:
192,160,16275,1,0,0:0:0:0:
128,160,16350,1,0,0:0:0:0:
192,224,16425,1,0,0:0:0:0:
256,224,16500,1,0,0:0:0:0:
320,224,16575,1,0,0:0:0:0:
256,288,16650,1,0,0:0:0:0:
480,128,16800,5,0,1:0:0:0:
416,128,16875,1,0,0:0:0:0:
352,128,16950,1,0,1:0:0:0:
192,192,17100,1,8,0:0:0:0:
256,192,17175,1,0,0:0:0:0:
320,192,17250,1,0,0:0:0:0:
128,288,17400,1,0,0:0:0:0:
64,288,17475,1,0,0:0:0:0:
0,288,17550,1,0,0:0:0:0:
64,224,17625,1,0,0:0:0:0:
128,224,17700,1,0,0:0:0:0:
64,224,17775,1,0,0:0:0:0:
0,192,17850,1,0,0:0:0:0:
64,160,17925,1,0,0:0:0:0:
256,128,18000,6,0,L|320:96,3,50,0|0|0|0,1:0|0:0|0:0|0:0,0:0:0:0:
320,160,18300,2,0,L|416:160,3,50,0|0|0|0,1:0|0:0|0:0|0:0,0:0:0:0:
352,224,18600,2,0,L|416:256,3,50,0|0|0|0,1:0|0:0|0:0|0:0,0:0:0:0:
352,288,18900,2,0,L|384:352,3,50,0|0|0|0,1:0|0:0|0:0|0:0,0:0:0:0:
512,352,19200,6,0,L|480:352,1,25,0|0,1:0|0:0,0:0:0:0:
352,352,19275,2,0,L|320:320,1,25
0,352,19350,6,0,L|32:352,1,25,0|0,1:0|0:0,0:0:0:0:
160,352,19425,2,0,L|192:320,1,25
512,352,19500,6,0,L|480:352,1,25,0|0,1:0|0:0,0:0:0:0:
352,352,19575,2,0,L|320:320,1,25
0,352,19650,6,0,L|32:352,1,25,0|0,1:0|0:0,0:0:0:0:
160,352,19725,2,0,L|192:320,1,25
512,352,19800,6,0,L|480:352,1,25,0|0,1:0|0:0,0:0:0:0:
352,352,19875,2,0,L|320:320,1,25,0|0,1:0|0:0,0:0:0:0:
0,352,19950,6,0,L|32:352,1,25,0|0,1:0|0:0,0:0:0:0:
160,352,20025,2,0,L|192:320,1,25,0|0,1:0|0:0,0:0:0:0:
512,352,20100,6,0,L|480:352,1,25,0|0,1:0|1:0,1:0:0:0:
352,352,20175,2,0,L|320:320,1,25,0|0,1:0|1:0,1:0:0:0:
0,352,20250,6,0,L|32:352,1,25,0|0,1:0|1:0,1:0:0:0:
160,352,20325,2,0,L|192:320,1,25,0|0,1:0|1:0,1:0:0:0:
96,160,20700,5,0,0:0:0:0:
192,160,20850,1,0,0:0:0:0:
320,160,21000,2,0,L|448:160,1,100,8|0,0:0|0:0,0:0:0:0:
416,160,21225,1,0,0:0:0:0:
384,160,21300,1,0,0:0:0:0:
352,160,21375,1,0,0:0:0:0:
320,160,21450,1,0,0:0:0:0:
288,160,21525,1,0,0:0:0:0:
128,160,21600,2,0,L|0:160,1,100,8|0,0:0|0:0,0:0:0:0:
96,256,21900,5,0,0:0:0:0:
192,256,22050,1,0,0:0:0:0:
320,96,22200,2,0,L|192:96,1,100,8|0,0:0|0:0,0:0:0:0:
256,192,22425,1,0,0:0:0:0:
288,192,22500,1,0,0:0:0:0:
320,192,22575,1,0,0:0:0:0:
352,192,22650,1,0,0:0:0:0:
384,192,22725,1,0,0:0:0:0:
192,224,22800,2,0,L|64:224,1,100,8|0,0:0|0:0,0:0:0:0:
64,160,23100,6,0,L|128:128,1,50
288,96,23250,2,0,L|224:64,1,50
352,128,23400,1,8,0:0:0:0:
416,128,23475,1,0,0:0:0:0:
480,128,23550,1,0,0:0:0:0:
512,192,23625,1,0,0:0:0:0:
448,256,23700,2,0,L|512:192,1,50
288,224,23850,2,0,L|224:192,1,50
192,256,24000,1,8,0:0:0:0:
128,224,24075,1,0,0:0:0:0:
96,160,24150,1,0,0:0:0:0:
128,96,24225,1,0,0:0:0:0:
224,128,24300,6,0,L|160:96,1,50
352,96,24450,2,0,L|416:64,1,50,2|0,0:0|0:0,0:0:0:0:
224,256,24600,2,0,L|160:224,1,50
352,288,24750,2,0,L|416:288,1,50
288,288,24900,5,0,0:0:0:0:
256,288,24975,1,0,0:0:0:0:
224,288,25050,1,2,0:0:0:0:
192,288,25125,1,0,0:0:0:0:
384,192,25200,1,0,0:0:0:0:
352,192,25275,1,0,0:0:0:0:
320,192,25350,1,2,0:0:0:0:
288,192,25425,1,0,0:0:0:0:
160,192,25500,6,0,L|32:192,1,100
256,128,25725,1,0,0:0:0:0:
288,128,25800,1,8,0:0:0:0:
320,128,25875,1,0,0:0:0:0:
352,128,25950,1,0,0:0:0:0:
384,128,26025,1,0,0:0:0:0:
416,128,26100,1,0,0:0:0:0:
448,128,26175,1,0,0:0:0:0:
448,192,26250,2,0,L|384:192,1,50
96,224,26400,2,0,L|224:224,1,100,8|0,0:0|0:0,0:0:0:0:
160,128,26700,6,0,L|32:128,1,100
256,128,27000,1,8,0:0:0:0:
288,224,27150,2,0,L|224:224,1,50
384,224,27300,2,0,L|320:224,1,50
480,224,27450,2,0,L|416:224,1,50
384,288,27600,1,8,0:0:0:0:
256,288,27750,1,0,0:0:0:0:
96,192,27900,6,0,L|160:160,1,50
320,192,28050,2,0,L|256:160,1,50
96,128,28200,2,0,L|160:96,1,50
352,128,28350,2,0,L|288:96,1,50
96,64,28500,1,0,0:0:0:0:
160,64,28575,1,0,0:0:0:0:
384,64,28650,1,0,0:0:0:0:
320,64,28725,1,0,0:0:0:0:
96,128,28800,2,0,L|160:128,1,50
384,128,28950,2,0,L|320:128,1,50
192,288,29100,6,0,L|128:256,1,50
160,224,29250,2,0,L|224:192,1,50
320,192,29400,1,0,0:0:0:0:
352,192,29475,1,0,0:0:0:0:
384,192,29550,1,0,0:0:0:0:
416,192,29625,1,0,0:0:0:0:
352,128,29700,2,0,L|416:96,1,50
384,64,29850,2,0,L|320:32,1,50
224,32,30000,1,0,0:0:0:0:
160,32,30075,1,0,0:0:0:0:
96,32,30150,1,0,0:0:0:0:
32,32,30225,1,0,0:0:0:0:
64,96,30300,6,0,L|64:224,2,100,0|0|2,0:0|0:0|0:0,0:0:0:0:
64,256,30750,1,0,0:0:0:0:
128,256,30825,1,0,0:0:0:0:
192,256,30900,1,0,0:0:0:0:
256,256,30975,1,0,0:0:0:0:
320,256,31050,1,0,0:0:0:0:
448,160,31200,2,0,L|320:160,1,100,2|0,0:0|0:0,0:0:0:0:
96,96,31500,6,0,L|224:96,2,100,0|0|2,0:0|0:0|0:0,0:0:0:0:
416,192,31950,1,0,0:0:0:0:
352,192,32025,1,0,0:0:0:0:
160,224,32100,1,0,0:0:0:0:
224,224,32175,1,0,0:0:0:0:
448,320,32250,1,0,0:0:0:0:
384,320,32325,1,0,0:0:0:0:
160,320,32400,1,2,0:0:0:0:
64,320,32550,1,0,0:0:0:0:
64,224,32700,6,0,L|0:192,1,50
64,160,32850,2,0,L|128:128,1,50
288,256,33000,6,0,L|352:224,1,50
288,192,33150,2,0,L|224:160,1,50
128,192,33300,6,0,L|64:160,1,50
128,128,33450,2,0,L|192:96,1,50
352,224,33600,6,0,L|416:192,1,50
352,160,33750,2,0,L|288:128,1,50
160,160,33900,6,0,L|96:128,1,50
160,96,34050,2,0,L|224:64,1,50,2|0,0:0|0:0,0:0:0:0:
384,192,34200,6,0,L|448:160,1,50
384,128,34350,2,0,L|320:96,1,50
224,128,34500,6,0,L|160:96,1,50,2|0,0:0|0:0,0:0:0:0:
224,64,34650,2,0,L|288:32,1,50
448,160,34800,6,0,L|512:128,1,50,2|0,0:0|0:0,0:0:0:0:
448,96,34950,2,0,L|384:64,1,50
256,192,35100,6,0,L|128:192,2,100,0|0|2,0:0|0:0|0:0,0:0:0:0:
128,192,35550,1,0,0:0:0:0:
96,192,35625,1,0,0:0:0:0:
64,192,35700,1,0,0:0:0:0:
32,192,35775,1,0,0:0:0:0:
0,192,35850,1,0,0:0:0:0:
256,256,36000,2,0,L|384:256,1,100,2|0,0:0|0:0,0:0:0:0:
512,192,36300,5,0,0:0:0:0:
416,192,36375,1,0,0:0:0:0:
320,192,36450,1,0,0:0:0:0:
96,192,36600,1,2,0:0:0:0:
224,192,36750,1,0,0:0:0:0:
32,96,36900,1,0,0:0:0:0:
128,96,36975,1,0,0:0:0:0:
224,96,37050,1,0,0:0:0:0:
448,192,37200,1,2,0:0:0:0:
320,192,37350,1,0,0:0:0:0:
96,256,37500,6,0,L|64:192,1,50
256,256,37650,2,0,L|288:192,1,50
104,256,37800,6,0,L|72:192,1,50
264,256,37950,2,0,L|296:192,1,50
112,256,38100,6,0,L|80:192,1,50
272,256,38250,2,0,L|304:192,1,50
120,256,38400,6,0,L|88:192,1,50
280,256,38550,2,0,L|312:192,1,50
132,256,38700,6,0,L|100:192,1,50
292,256,38850,2,0,L|324:192,1,50
140,256,39000,6,0,L|108:192,1,50
300,256,39150,2,0,L|332:192,1,50
148,256,39300,6,0,L|116:192,1,50
308,256,39450,2,0,L|340:192,1,50
156,256,39600,6,0,L|124:192,1,50
316,256,39750,2,0,L|348:192,1,50
416,128,39900,6,0,L|256:128,1,150
224,128,40200,1,8,0:0:0:0:
96,160,40350,1,0,0:0:0:0:
192,160,40500,1,2,0:0:0:0:
352,256,40650,1,0,0:0:0:0:
416,256,40725,1,0,0:0:0:0:
480,256,40800,1,8,0:0:0:0:
160,256,40950,1,0,0:0:0:0:
64,224,41100,6,0,L|64:96,2,100,2|0|2,0:0|0:0|0:0,0:0:0:0:
160,128,41550,5,0,0:0:0:0:
144,108,41587,1,0,0:0:0:0:
133,86,41625,1,0,0:0:0:0:
127,61,41662,1,0,0:0:0:0:
127,36,41700,1,2,0:0:0:0:
320,224,41850,5,0,0:0:0:0:
335,204,41887,1,0,0:0:0:0:
346,182,41925,1,0,0:0:0:0:
352,157,41962,1,0,0:0:0:0:
352,132,42000,1,2,0:0:0:0:
192,224,42150,5,0,0:0:0:0:
64,160,42300,5,2,0:0:0:0:
256,160,42450,2,2,L|256:96,2,50
448,160,42750,1,2,0:0:0:0:
256,160,42900,1,2,0:0:0:0:
160,224,43050,6,0,L|32:224,1,100,0|8,0:0|0:0,0:0:0:0:
160,224,43350,1,0,0:0:0:0:
320,320,43500,6,2,P|352:256|352:192,1,100
96,160,43800,2,2,P|96:96|64:32,1,100
256,192,44100,5,4,0:0:0:0:
256,192,44175,12,4,44400,0:0:0:0:
64,160,44700,5,2,0:0:0:0:
256,160,44850,1,2,0:0:0:0:
320,160,44925,1,2,0:0:0:0:
384,160,45000,1,2,0:0:0:0:
160,224,45150,6,2,L|32:224,1,100
288,256,45450,1,0,0:0:0:0:
416,256,45600,1,8,0:0:0:0:
288,256,45750,1,2,0:0:0:0:
64,224,45900,5,2,0:0:0:0:
256,224,46050,2,2,L|256:160,2,50
416,96,46350,2,2,L|288:96,1,100
64,96,46650,2,2,L|192:96,1,100
288,160,46950,1,2,0:0:0:0:
128,352,47100,6,0,P|96:224|96:192,1,150,2|0,0:0|0:0,0:0:0:0:
96,160,47400,1,8,0:0:0:0:
256,160,47550,1,0,0:0:0:0:
416,160,47700,1,2,0:0:0:0:
256,160,47850,1,0,0:0:0:0:
96,160,48000,1,2,0:0:0:0:
256,160,48150,1,0,0:0:0:0:
224,256,48300,6,0,L|64:256,1,150,4|0,0:0|0:0,0:0:0:0:
64,192,48600,2,0,L|256:192,1,150,4|0,0:0|0:0,0:0:0:0:
256,192,48900,1,4,0:0:0:0:
256,192,48975,12,6,49500,0:0:0:0:
256,192,49800,5,8,0:0:0:0:
192,192,49950,6,0,L|64:192,1,100
320,192,50250,1,0,0:0:0:0:
384,192,50325,1,0,0:0:0:0:
448,192,50400,1,8,0:0:0:0:
256,192,50550,1,0,0:0:0:0:
96,128,50700,5,0,0:0:0:0:
256,128,50850,5,0,0:0:0:0:
416,128,51000,5,0,0:0:0:0:
256,128,51150,5,0,0:0:0:0:
256,224,51300,6,4,L|32:224,1,200
160,288,51750,1,0,0:0:0:0:
128,224,51900,6,0,L|96:128,1,100,2|0,0:0|0:0,0:0:0:0:
352,160,52200,2,0,L|384:64,1,100,2|0,0:0|0:0,0:0:0:0:
144,224,52500,6,0,L|112:128,1,100,2|0,0:0|0:0,0:0:0:0:
368,160,52800,2,0,L|400:64,1,100,2|0,0:0|0:0,0:0:0:0:
96,192,53100,5,2,1:0:0:0:
99,216,53137,1,2,2:0:0:0:
105,240,53175,1,2,2:0:0:0:
114,264,53212,1,2,2:0:0:0:
126,286,53250,1,2,2:0:0:0:
141,306,53287,1,2,2:0:0:0:
158,325,53325,1,2,2:0:0:0:
176,341,53362,1,2,2:0:0:0:
256,352,53400,2,0,L|384:352,2,100,0|0|4,0:0|0:0|0:0,0:0:0:0:
256,192,53775,12,6,54300,0:0:0:0:
256,192,54450,5,0,0:0:0:0:
256,192,54525,1,0,0:0:0:0:
256,192,54600,1,0,0:0:0:0:
256,192,54675,1,0,0:0:0:0:
256,192,54750,1,0,0:0:0:0:
256,192,54825,1,0,0:0:0:0:
256,192,54900,1,0,0:0:0:0:
256,192,54975,1,0,0:0:0:0:
256,192,55050,1,0,0:0:0:0:
256,192,55125,1,0,0:0:0:0:
256,192,55200,1,0,0:0:0:0:
256,192,55500,1,4,0:0:0:0:
192,128,55800,5,0,0:0:0:0:
192,128,55875,1,0,0:0:0:0:
192,128,55950,1,0,0:0:0:0:
160,128,56025,1,0,0:0:0:0:
160,128,56100,1,0,0:0:0:0:
160,128,56175,1,0,0:0:0:0:
128,128,56250,1,0,0:0:0:0:
96,128,56325,1,0,0:0:0:0:
64,128,56400,1,0,0:0:0:0:
32,128,56475,1,0,0:0:0:0:
0,128,56550,1,0,0:0:0:0:
256,192,56700,5,6,0:0:0:0:
256,128,56850,1,8,0:0:0:0:
352,128,57000,1,2,0:0:0:0:
416,128,57075,1,0,0:0:0:0:
480,128,57150,1,0,0:0:0:0:
256,192,57300,1,2,0:0:0:0:
160,128,57450,1,0,0:0:0:0:
96,128,57525,1,0,0:0:0:0:
32,128,57600,1,2,0:0:0:0:
0,224,57750,1,8,0:0:0:0:
0,192,57900,6,0,L|32:128,1,50
512,192,58050,6,0,L|480:256,1,50
0,192,58200,6,0,L|32:256,1,50
512,192,58350,6,0,L|480:128,1,50
0,192,58500,6,0,L|32:160,1,25
512,192,58575,6,0,L|480:224,1,25
0,192,58650,6,0,L|32:224,1,25
512,192,58725,6,0,L|480:160,1,25
0,192,58800,6,0,L|32:160,1,25
512,192,58875,6,0,L|480:224,1,25
0,192,58950,6,0,L|32:224,1,25
512,192,59025,6,0,L|480:160,1,25
96,256,59100,5,4,0:0:0:0:
0,192,59400,6,0,L|16:192,1,12.5
160,192,59437,6,0,L|176:192,1,12.5
336,192,59475,6,0,L|352:192,1,12.5
496,192,59512,6,0,L|512:192,1,12.5
512,240,59550,6,0,L|496:240,1,12.5
352,240,59587,6,0,L|336:240,1,12.5
176,240,59625,6,0,L|160:240,1,12.5
16,240,59662,6,0,L|0:240,1,12.5
0,128,59700,5,0,0:0:0:0:
160,128,59850,1,0,0:0:0:0:
320,128,59925,1,0,0:0:0:0:
496,128,60000,1,0,0:0:0:0:
416,256,60300,5,4,0:0:0:0:
512,192,60600,6,0,L|496:192,1,12.5
352,192,60637,6,0,L|336:192,1,12.5
176,192,60675,6,0,L|160:192,1,12.5
16,192,60712,6,0,L|0:192,1,12.5
0,240,60750,6,0,L|16:240,1,12.5
160,240,60787,6,0,L|176:240,1,12.5
336,240,60825,6,0,L|352:240,1,12.5
496,240,60862,6,0,L|512:240,1,12.5
512,128,60900,5,0,0:0:0:0:
352,128,61050,1,0,0:0:0:0:
192,128,61125,1,0,0:0:0:0:
16,128,61200,1,0,0:0:0:0:
96,256,61500,5,4,0:0:0:0:
0,192,61800,6,0,L|16:192,1,12.5
160,192,61837,6,0,L|176:192,1,12.5
336,192,61875,6,0,L|352:192,1,12.5
496,192,61912,6,0,L|512:192,1,12.5
512,240,61950,6,0,L|496:240,1,12.5
352,240,61987,6,0,L|336:240,1,12.5
176,240,62025,6,0,L|160:240,1,12.5
16,240,62062,6,0,L|0:240,1,12.5
0,128,62100,5,0,0:0:0:0:
160,128,62250,1,0,0:0:0:0:
320,128,62325,1,0,0:0:0:0:
496,128,62400,1,0,0:0:0:0:
416,256,62700,5,4,0:0:0:0:
512,192,63000,6,0,L|496:192,1,12.5
352,192,63037,6,0,L|336:192,1,12.5
176,192,63075,6,0,L|160:192,1,12.5
16,192,63112,6,0,L|0:192,1,12.5
0,240,63150,6,0,L|16:240,1,12.5
160,240,63187,6,0,L|176:240,1,12.5
336,240,63225,6,0,L|352:240,1,12.5
496,240,63262,6,0,L|512:240,1,12.5
512,128,63300,5,0,0:0:0:0:
352,128,63450,1,0,0:0:0:0:
192,128,63525,1,0,0:0:0:0:
16,128,63600,1,0,0:0:0:0:
96,256,63900,5,6,0:0:0:0:
0,192,64200,6,2,L|16:192,1,12.5
160,192,64237,6,2,L|176:192,1,12.5
336,192,64275,6,2,L|352:192,1,12.5
496,192,64312,6,2,L|512:192,1,12.5
512,240,64350,6,2,L|496:240,1,12.5
352,240,64387,6,2,L|336:240,1,12.5
176,240,64425,6,2,L|160:240,1,12.5
16,240,64462,6,2,L|0:240,1,12.5
0,128,64500,5,2,0:0:0:0:
160,128,64650,1,2,0:0:0:0:
320,128,64725,1,2,0:0:0:0:
496,128,64800,1,2,0:0:0:0:
416,256,65100,5,6,0:0:0:0:
512,192,65400,6,2,L|496:192,1,12.5
352,192,65437,6,2,L|336:192,1,12.5
176,192,65475,6,2,L|160:192,1,12.5
16,192,65512,6,2,L|0:192,1,12.5
0,240,65550,6,2,L|16:240,1,12.5
160,240,65587,6,2,L|176:240,1,12.5
336,240,65625,6,2,L|352:240,1,12.5
496,240,65662,6,2,L|512:240,1,12.5
512,128,65700,5,2,0:0:0:0:
352,128,65850,1,2,0:0:0:0:
192,128,65925,1,2,0:0:0:0:
16,128,66000,1,2,0:0:0:0:
96,256,66300,5,6,0:0:0:0:
0,192,66600,6,2,L|16:192,1,12.5
160,192,66637,6,2,L|176:192,1,12.5
336,192,66675,6,2,L|352:192,1,12.5
496,192,66712,6,2,L|512:192,1,12.5
512,240,66750,6,2,L|496:240,1,12.5
352,240,66787,6,2,L|336:240,1,12.5
176,240,66825,6,2,L|160:240,1,12.5
16,240,66862,6,2,L|0:240,1,12.5
0,128,66900,5,2,0:0:0:0:
160,128,67050,1,2,0:0:0:0:
320,128,67125,1,2,0:0:0:0:
496,128,67200,1,2,0:0:0:0:
416,256,67500,5,6,0:0:0:0:
512,192,67800,6,2,L|496:192,1,12.5
352,192,67837,6,2,L|336:192,1,12.5
176,192,67875,6,2,L|160:192,1,12.5
16,192,67912,6,2,L|0:192,1,12.5
0,240,67950,6,2,L|16:240,1,12.5
160,240,67987,6,2,L|176:240,1,12.5
336,240,68025,6,2,L|352:240,1,12.5
496,240,68062,6,2,L|512:240,1,12.5
512,128,68100,5,2,0:0:0:0:
352,128,68250,1,2,0:0:0:0:
192,128,68325,1,2,0:0:0:0:
16,128,68400,1,2,0:0:0:0:
0,192,68700,6,0,L|32:64,1,100,0|0,2:0|2:0,2:0:0:0:
512,192,68925,6,0,L|480:320,1,100,0|0,2:0|2:0,2:0:0:0:
0,192,69150,6,0,L|32:320,1,100,0|0,2:0|2:0,2:0:0:0:
512,192,69375,6,0,L|480:64,1,100,0|0,2:0|2:0,2:0:0:0:
0,192,69600,6,0,L|32:64,1,100,0|0,2:0|2:0,2:0:0:0:
512,192,69825,6,0,L|480:320,1,100,0|0,2:0|2:0,2:0:0:0:
0,192,70050,6,0,L|32:320,1,100,0|0,2:0|2:0,2:0:0:0:
512,192,70275,6,0,L|480:64,1,100,0|0,2:0|2:0,2:0:0:0:
0,192,70500,6,0,L|32:64,1,100,0|0,2:0|2:0,2:0:0:0:
512,192,70725,6,0,L|480:320,1,100,0|0,2:0|2:0,2:0:0:0:
0,192,70950,6,0,L|32:320,1,100,0|0,2:0|2:0,2:0:0:0:
512,192,71175,6,0,L|480:64,1,100,0|0,2:0|2:0,2:0:0:0:
0,192,71400,6,0,L|32:64,1,100,0|0,2:0|2:0,2:0:0:0:
512,192,71625,6,0,L|480:320,1,100,0|0,2:0|2:0,2:0:0:0:
0,192,71850,6,0,L|32:320,1,100,0|0,2:0|2:0,2:0:0:0:
512,192,72075,6,0,L|480:64,1,100,0|0,2:0|2:0,2:0:0:0:
0,192,72300,6,0,L|32:64,1,100,0|0,2:0|2:0,2:0:0:0:
512,192,72525,6,0,L|480:320,1,100,0|0,2:0|2:0,2:0:0:0:
0,192,72750,6,0,L|32:320,1,100,0|0,2:0|2:0,2:0:0:0:
512,192,72975,6,0,L|480:64,1,100,0|0,2:0|2:0,2:0:0:0:
256,192,73200,6,4,B|257:191|257:191|256:191|256:191|255:191|255:191|258:189|258:189|256:188|256:188|253:190|253:190,15,12.5,4|4|4|4|4|4|4|4|4|4|4|4|4|4|4|4,2:0|2:0|2:0|2:0|2:0|2:0|2:0|2:0|2:0|2:0|2:0|2:0|2:0|2:0|2:0|2:0,2:0:0:0:
256,192,73500,5,4,0:0:0:0:
128,192,83100,6,0,L|0:192,2,100,2|2|8,0:0|0:0|0:0,0:0:0:0:
224,192,83550,1,0,0:0:0:0:
288,192,83625,1,0,0:0:0:0:
352,192,83700,1,0,0:0:0:0:
416,192,83775,1,0,0:0:0:0:
480,192,83850,1,0,0:0:0:0:
128,192,84000,2,0,L|0:192,1,100,2|8,0:0|0:0,0:0:0:0:
144,128,84300,6,0,L|16:128,2,100,2|2|8,0:0|0:0|0:0,0:0:0:0:
240,128,84750,1,0,0:0:0:0:
304,128,84825,1,0,0:0:0:0:
368,128,84900,1,0,0:0:0:0:
432,128,84975,1,0,0:0:0:0:
496,128,85050,1,0,0:0:0:0:
144,128,85200,2,0,L|16:128,1,100,2|8,0:0|0:0,0:0:0:0:
160,64,85500,6,0,L|32:64,2,100,2|2|8,0:0|0:0|0:0,0:0:0:0:
256,64,85950,1,0,0:0:0:0:
320,64,86025,1,0,0:0:0:0:
384,64,86100,1,0,0:0:0:0:
448,64,86175,1,0,0:0:0:0:
512,64,86250,1,0,0:0:0:0:
160,64,86400,2,0,L|32:64,1,100,2|8,0:0|0:0,0:0:0:0:
112,112,86700,6,0,L|-16:112,2,100,2|2|8,0:0|0:0|0:0,0:0:0:0:
208,112,87150,1,0,0:0:0:0:
272,112,87225,1,0,0:0:0:0:
336,112,87300,1,0,0:0:0:0:
400,112,87375,1,0,0:0:0:0:
464,112,87450,1,0,0:0:0:0:
112,112,87600,2,0,L|-16:112,1,100,2|8,0:0|0:0,0:0:0:0:
256,192,87900,6,0,B|0:192|0:192|0:160|0:160|480:160,1,750,4|0,0:0|0:0,0:0:0:0:
480,160,89100,6,0,B|480:192|480:192|0:192|0:192|0:160|0:160|224:160,1,750,4|0,0:0|0:0,0:0:0:0:
224,160,90300,6,0,B|480:160|480:160|480:192|480:192|416:192,1,350,4|0,0:0|0:0,0:0:0:0:
384,192,90900,2,0,B|0:192|0:192|0:192|0:192,1,350,4|0,0:0|0:0,0:0:0:0:
32,128,91500,5,2,0:0:0:0:
256,128,91600,1,2,0:0:0:0:
48,128,91700,1,2,0:0:0:0:
256,128,91800,1,2,0:0:0:0:
64,128,91900,1,2,0:0:0:0:
256,128,92000,1,2,0:0:0:0:
48,128,92100,1,2,0:0:0:0:
256,128,92200,1,2,0:0:0:0:
32,128,92300,1,2,0:0:0:0:
256,128,92400,1,2,0:0:0:0:
48,128,92500,1,2,0:0:0:0:
256,128,92600,1,2,0:0:0:0:
112,336,92700,6,0,P|96:256|128:128,1,200,2|8,0:0|0:0,0:0:0:0:
256,224,93300,1,2,0:0:0:0:
448,224,93450,5,2,2:0:0:0:
444,199,93487,1,2,2:0:0:0:
438,175,93525,1,2,2:0:0:0:
429,151,93562,1,2,2:0:0:0:
417,129,93600,1,2,0:0:0:0:
128,192,93750,1,0,0:0:0:0:
96,64,93900,6,8,L|64:288,1,200
352,288,94350,6,0,P|384:160|352:64,1,200,4|0,0:0|0:0,0:0:0:0:
288,96,94800,1,2,0:0:0:0:
128,256,95100,6,0,B|96:224|96:224|128:192|128:192|96:160|96:160,1,100,2|0,0:0|0:0,0:0:0:0:
320,256,95400,2,0,B|352:224|352:224|320:192|320:192|352:160,1,100,2|0,0:0|0:0,0:0:0:0:
192,160,95700,6,0,B|160:128|160:128|192:96,1,50,2|0,0:0|0:0,0:0:0:0:
320,160,95850,2,0,B|352:128|352:128|320:96,1,50,2|0,0:0|0:0,0:0:0:0:
208,160,96000,6,0,B|176:128|176:128|208:96,1,50,2|0,0:0|0:0,0:0:0:0:
336,160,96150,2,0,B|368:128|368:128|336:96,1,50,2|0,0:0|0:0,0:0:0:0:
448,96,96300,6,0,P|448:224|416:320,1,200,4|8,0:0|0:0,0:0:0:0:
160,320,96750,6,0,P|128:224|160:96,1,200,4|8,0:0|0:0,0:0:0:0:
288,192,97200,1,4,0:0:0:0:
128,288,97500,6,0,P|128:192|192:64,1,200,2|0,0:0|0:0,0:0:0:0:
256,192,98100,1,2,0:0:0:0:
384,224,98250,5,2,2:0:0:0:
387,199,98287,1,2,2:0:0:0:
386,174,98325,1,2,2:0:0:0:
381,149,98362,1,2,2:0:0:0:
372,126,98400,1,2,0:0:0:0:
192,192,98550,1,0,0:0:0:0:
96,288,98700,6,0,P|96:224|128:64,1,200,6|4,0:0|0:0,0:0:0:0:
320,96,99150,6,0,P|320:192|288:320,2,200,6|0|0,0:0|0:0|0:0,0:0:0:0:
256,192,99900,5,4,0:0:0:0:
256,192,99975,12,4,101100,0:0:0:0:
256,192,101700,5,4,0:0:0:0:
192,128,102000,1,8,0:0:0:0:
128,128,102075,1,0,0:0:0:0:
64,128,102150,1,8,0:0:0:0:
0,192,102300,6,0,L|32:112,1,75,2|0,0:0|0:0,0:0:0:0:
512,192,102450,6,0,L|480:272,1,75
0,192,102600,6,0,L|32:272,1,75,4|0,0:0|0:0,0:0:0:0:
512,192,102750,6,0,L|480:112,1,75
0,192,102900,6,0,L|32:112,1,75,2|0,0:0|0:0,0:0:0:0:
512,192,103050,6,0,L|480:272,1,75
0,192,103200,6,0,L|32:272,1,75,4|0,0:0|0:0,0:0:0:0:
512,192,103350,6,0,L|480:112,1,75
0,192,103500,6,0,L|32:112,1,75,2|0,0:0|0:0,0:0:0:0:
512,192,103650,6,0,L|480:272,1,75
0,192,103800,6,0,L|32:272,1,75,2|0,0:0|0:0,0:0:0:0:
512,192,103950,6,0,L|480:112,1,75
0,192,104100,6,0,L|32:112,1,75,2|0,0:0|0:0,0:0:0:0:
512,192,104250,6,0,L|480:272,1,75
0,192,104400,6,0,L|32:272,1,75,2|0,0:0|0:0,0:0:0:0:
512,192,104550,6,0,L|480:112,1,75
0,192,104700,6,0,L|32:128,1,50,2|0,0:0|0:0,0:0:0:0:
512,192,104850,6,0,L|480:256,1,50
0,192,105000,6,0,L|32:256,1,50,2|0,0:0|0:0,0:0:0:0:
512,192,105150,6,0,L|480:128,1,50
0,192,105300,6,2,L|32:128,1,50,2|0,0:0|0:0,0:0:0:0:
512,192,105450,6,2,L|480:256,1,50,2|0,0:0|0:0,0:0:0:0:
0,192,105600,6,2,L|32:256,1,50,2|0,0:0|0:0,0:0:0:0:
512,192,105750,6,2,L|480:128,1,50,2|0,0:0|0:0,0:0:0:0:
256,192,105900,5,4,0:0:0:0:
256,192,105975,12,4,106800,0:0:0:0:
256,192,106950,5,4,0:0:0:0:
96,352,107100,6,0,P|64:192|128:32,1,300
384,32,107700,2,0,P|416:192|384:352,1,300
256,192,108300,1,4,0:0:0:0:
256,192,108600,1,4,0:0:0:0:
192,128,108900,6,0,L|64:128,1,100,2|0,0:0|0:0,0:0:0:0:
64,96,109200,2,0,L|192:96,1,100,2|0,0:0|0:0,0:0:0:0:
0,192,109500,6,0,L|32:128,1,50,2|0,0:0|0:0,0:0:0:0:
512,192,109650,2,0,L|480:256,1,50
0,192,109800,2,0,L|32:256,1,50,2|0,0:0|0:0,0:0:0:0:
512,192,109950,2,0,L|480:128,1,50
0,192,110100,6,0,L|32:128,1,50,2|0,0:0|0:0,0:0:0:0:
512,192,110250,2,0,L|480:256,1,50
0,192,110400,2,0,L|32:256,1,50,2|0,0:0|0:0,0:0:0:0:
512,192,110550,2,0,L|480:128,1,50
0,192,110700,6,0,L|32:160,1,25,4|0,0:0|0:0,0:0:0:0:
512,192,110775,2,0,L|480:160,1,25
0,192,110850,2,0,L|32:224,1,25
512,192,110925,2,0,L|480:224,1,25
0,192,111000,6,0,L|32:160,1,25,4|0,0:0|0:0,0:0:0:0:
512,192,111075,2,0,L|480:160,1,25
0,192,111150,2,0,L|32:224,1,25
512,192,111225,2,0,L|480:224,1,25
0,192,111300,6,0,L|32:160,1,25
512,192,111375,2,0,L|480:160,1,25
0,192,111450,2,0,L|32:224,1,25
512,192,111525,2,0,L|480:224,1,25
0,192,111600,6,0,L|32:160,1,25
512,192,111675,2,0,L|480:160,1,25
0,192,111750,2,0,L|32:224,1,25
512,192,111825,2,0,L|480:224,1,25
0,192,111900,6,4,L|16:192,1,12.5
160,192,111937,6,0,L|176:192,1,12.5
336,192,111975,6,0,L|352:192,1,12.5
496,192,112012,6,0,L|512:192,1,12.5
512,240,112050,6,0,L|496:240,1,12.5
352,240,112087,6,0,L|336:240,1,12.5
176,240,112125,6,0,L|160:240,1,12.5
16,240,112162,6,0,L|0:240,1,12.5
3,240,112200,6,0,L|16:240,1,12.5
163,240,112237,6,0,L|176:240,1,12.5
339,240,112275,6,0,L|352:240,1,12.5
499,240,112312,6,0,L|512:240,1,12.5
508,192,112350,6,0,L|496:192,1,12.5
348,192,112387,6,0,L|336:192,1,12.5
172,192,112425,6,0,L|160:192,1,12.5
12,192,112462,6,4,L|0:192,1,12.5
0,96,112500,6,4,L|16:96,1,12.5
160,96,112537,6,0,L|176:96,1,12.5
336,96,112575,6,0,L|352:96,1,12.5
496,96,112612,6,0,L|512:96,1,12.5
512,144,112650,6,0,L|496:144,1,12.5
352,144,112687,6,0,L|336:144,1,12.5
176,144,112725,6,0,L|160:144,1,12.5
16,144,112762,6,0,L|0:144,1,12.5
3,144,112800,6,0,L|16:144,1,12.5
163,144,112837,6,0,L|176:144,1,12.5
339,144,112875,6,0,L|352:144,1,12.5
499,144,112912,6,0,L|512:144,1,12.5
508,96,112950,6,0,L|496:96,1,12.5
348,96,112987,6,0,L|336:96,1,12.5
172,96,113025,6,0,L|160:96,1,12.5
12,96,113062,6,4,L|0:96,1,12.5
0,192,113100,6,4,L|16:192,1,12.5
160,192,113137,6,0,L|176:192,1,12.5
336,192,113175,6,0,L|352:192,1,12.5
496,192,113212,6,0,L|512:192,1,12.5
512,240,113250,6,0,L|496:240,1,12.5
352,240,113287,6,0,L|336:240,1,12.5
176,240,113325,6,0,L|160:240,1,12.5
16,240,113362,6,0,L|0:240,1,12.5
3,240,113400,6,0,L|16:240,1,12.5
163,240,113437,6,0,L|176:240,1,12.5
339,240,113475,6,0,L|352:240,1,12.5
499,240,113512,6,0,L|512:240,1,12.5
508,192,113550,6,0,L|496:192,1,12.5
348,192,113587,6,0,L|336:192,1,12.5
172,192,113625,6,0,L|160:192,1,12.5
12,192,113662,6,4,L|0:192,1,12.5
0,96,113700,6,4,L|16:96,1,12.5
160,96,113737,6,0,L|176:96,1,12.5
336,96,113775,6,0,L|352:96,1,12.5
496,96,113812,6,0,L|512:96,1,12.5
512,144,113850,6,0,L|496:144,1,12.5
352,144,113887,6,0,L|336:144,1,12.5
176,144,113925,6,0,L|160:144,1,12.5
16,144,113962,6,0,L|0:144,1,12.5
3,144,114000,6,0,L|16:144,1,12.5
163,144,114037,6,0,L|176:144,1,12.5
339,144,114075,6,0,L|352:144,1,12.5
499,144,114112,6,0,L|512:144,1,12.5
508,96,114150,6,0,L|496:96,1,12.5
348,96,114187,6,0,L|336:96,1,12.5
172,96,114225,6,0,L|160:96,1,12.5
12,96,114262,6,4,L|0:96,1,12.5
0,192,114300,6,4,L|16:192,1,12.5
160,192,114337,6,0,L|176:192,1,12.5
336,192,114375,6,0,L|352:192,1,12.5
496,192,114412,6,0,L|512:192,1,12.5
512,240,114450,6,0,L|496:240,1,12.5
352,240,114487,6,0,L|336:240,1,12.5
176,240,114525,6,0,L|160:240,1,12.5
16,240,114562,6,0,L|0:240,1,12.5
3,240,114600,6,0,L|16:240,1,12.5
163,240,114637,6,0,L|176:240,1,12.5
339,240,114675,6,0,L|352:240,1,12.5
499,240,114712,6,0,L|512:240,1,12.5
508,192,114750,6,0,L|496:192,1,12.5
348,192,114787,6,0,L|336:192,1,12.5
172,192,114825,6,0,L|160:192,1,12.5
12,192,114862,6,4,L|0:192,1,12.5
0,96,114900,6,4,L|16:96,1,12.5
160,96,114937,6,0,L|176:96,1,12.5
336,96,114975,6,0,L|352:96,1,12.5
496,96,115012,6,0,L|512:96,1,12.5
512,144,115050,6,0,L|496:144,1,12.5
352,144,115087,6,0,L|336:144,1,12.5
176,144,115125,6,0,L|160:144,1,12.5
16,144,115162,6,0,L|0:144,1,12.5
3,144,115200,6,0,L|16:144,1,12.5
163,144,115237,6,0,L|176:144,1,12.5
339,144,115275,6,0,L|352:144,1,12.5
499,144,115312,6,0,L|512:144,1,12.5
508,96,115350,6,0,L|496:96,1,12.5
348,96,115387,6,0,L|336:96,1,12.5
172,96,115425,6,0,L|160:96,1,12.5
12,96,115462,6,4,L|0:96,1,12.5
0,192,115500,6,4,L|16:192,1,12.5
160,192,115537,6,0,L|176:192,1,12.5
336,192,115575,6,0,L|352:192,1,12.5
496,192,115612,6,0,L|512:192,1,12.5
512,240,115650,6,0,L|496:240,1,12.5
352,240,115687,6,0,L|336:240,1,12.5
176,240,115725,6,0,L|160:240,1,12.5
16,240,115762,6,0,L|0:240,1,12.5
3,240,115800,6,0,L|16:240,1,12.5
163,240,115837,6,0,L|176:240,1,12.5
339,240,115875,6,0,L|352:240,1,12.5
499,240,115912,6,0,L|512:240,1,12.5
508,192,115950,6,0,L|496:192,1,12.5
348,192,115987,6,0,L|336:192,1,12.5
172,192,116025,6,0,L|160:192,1,12.5
12,192,116062,6,4,L|0:192,1,12.5
0,96,116100,6,4,L|16:96,1,12.5
160,96,116137,6,0,L|176:96,1,12.5
336,96,116175,6,0,L|352:96,1,12.5
496,96,116212,6,0,L|512:96,1,12.5
512,144,116250,6,0,L|496:144,1,12.5
352,144,116287,6,0,L|336:144,1,12.5
176,144,116325,6,0,L|160:144,1,12.5
16,144,116362,6,0,L|0:144,1,12.5
3,144,116400,6,0,L|16:144,1,12.5
163,144,116437,6,0,L|176:144,1,12.5
339,144,116475,6,0,L|352:144,1,12.5
499,144,116512,6,0,L|512:144,1,12.5
508,96,116550,6,0,L|496:96,1,12.5
348,96,116587,6,0,L|336:96,1,12.5
172,96,116625,6,0,L|160:96,1,12.5
12,96,116662,6,4,L|0:96,1,12.5
0,192,116700,6,4,L|16:192,1,12.5
160,192,116737,6,0,L|176:192,1,12.5
336,192,116775,6,0,L|352:192,1,12.5
496,192,116812,6,0,L|512:192,1,12.5
512,240,116850,6,0,L|496:240,1,12.5
352,240,116887,6,0,L|336:240,1,12.5
176,240,116925,6,0,L|160:240,1,12.5
16,240,116962,6,0,L|0:240,1,12.5
3,240,117000,6,0,L|16:240,1,12.5
163,240,117037,6,0,L|176:240,1,12.5
339,240,117075,6,0,L|352:240,1,12.5
499,240,117112,6,0,L|512:240,1,12.5
508,192,117150,6,0,L|496:192,1,12.5
348,192,117187,6,0,L|336:192,1,12.5
172,192,117225,6,0,L|160:192,1,12.5
12,192,117262,6,4,L|0:192,1,12.5
0,96,117300,6,4,L|16:96,1,12.5
160,96,117337,6,0,L|176:96,1,12.5
336,96,117375,6,0,L|352:96,1,12.5
496,96,117412,6,0,L|512:96,1,12.5
512,144,117450,6,0,L|496:144,1,12.5
352,144,117487,6,0,L|336:144,1,12.5
176,144,117525,6,0,L|160:144,1,12.5
16,144,117562,6,0,L|0:144,1,12.5
3,144,117600,6,0,L|16:144,1,12.5
163,144,117637,6,0,L|176:144,1,12.5
339,144,117675,6,0,L|352:144,1,12.5
499,144,117712,6,0,L|512:144,1,12.5
508,96,117750,6,0,L|496:96,1,12.5
348,96,117787,6,0,L|336:96,1,12.5
172,96,117825,6,0,L|160:96,1,12.5
12,96,117862,6,4,L|0:96,1,12.5
0,192,117900,6,4,L|16:192,1,12.5
160,192,117937,6,0,L|176:192,1,12.5
336,192,117975,6,0,L|352:192,1,12.5
496,192,118012,6,0,L|512:192,1,12.5
512,240,118050,6,0,L|496:240,1,12.5
352,240,118087,6,0,L|336:240,1,12.5
176,240,118125,6,0,L|160:240,1,12.5
16,240,118162,6,0,L|0:240,1,12.5
3,240,118200,6,0,L|16:240,1,12.5
163,240,118237,6,0,L|176:240,1,12.5
339,240,118275,6,0,L|352:240,1,12.5
499,240,118312,6,0,L|512:240,1,12.5
508,192,118350,6,0,L|496:192,1,12.5
348,192,118387,6,0,L|336:192,1,12.5
172,192,118425,6,0,L|160:192,1,12.5
12,192,118462,6,4,L|0:192,1,12.5
0,96,118500,6,4,L|16:96,1,12.5
160,96,118537,6,0,L|176:96,1,12.5
336,96,118575,6,0,L|352:96,1,12.5
496,96,118612,6,0,L|512:96,1,12.5
512,144,118650,6,0,L|496:144,1,12.5
352,144,118687,6,0,L|336:144,1,12.5
176,144,118725,6,0,L|160:144,1,12.5
16,144,118762,6,0,L|0:144,1,12.5
3,144,118800,6,0,L|16:144,1,12.5
163,144,118837,6,0,L|176:144,1,12.5
339,144,118875,6,0,L|352:144,1,12.5
499,144,118912,6,0,L|512:144,1,12.5
508,96,118950,6,0,L|496:96,1,12.5
348,96,118987,6,0,L|336:96,1,12.5
172,96,119025,6,0,L|160:96,1,12.5
12,96,119062,6,4,L|0:96,1,12.5
0,192,119100,6,4,L|16:192,1,12.5
160,192,119137,6,0,L|176:192,1,12.5
336,192,119175,6,0,L|352:192,1,12.5
496,192,119212,6,0,L|512:192,1,12.5
512,240,119250,6,0,L|496:240,1,12.5
352,240,119287,6,0,L|336:240,1,12.5
176,240,119325,6,0,L|160:240,1,12.5
16,240,119362,6,0,L|0:240,1,12.5
3,240,119400,6,0,L|16:240,1,12.5
163,240,119437,6,0,L|176:240,1,12.5
339,240,119475,6,0,L|352:240,1,12.5
499,240,119512,6,0,L|512:240,1,12.5
508,192,119550,6,0,L|496:192,1,12.5
348,192,119587,6,0,L|336:192,1,12.5
172,192,119625,6,0,L|160:192,1,12.5
12,192,119662,6,4,L|0:192,1,12.5
0,96,119700,6,4,L|16:96,1,12.5
160,96,119737,6,0,L|176:96,1,12.5
336,96,119775,6,0,L|352:96,1,12.5
496,96,119812,6,0,L|512:96,1,12.5
512,144,119850,6,0,L|496:144,1,12.5
352,144,119887,6,0,L|336:144,1,12.5
176,144,119925,6,0,L|160:144,1,12.5
16,144,119962,6,0,L|0:144,1,12.5
3,144,120000,6,0,L|16:144,1,12.5
163,144,120037,6,0,L|176:144,1,12.5
339,144,120075,6,0,L|352:144,1,12.5
499,144,120112,6,0,L|512:144,1,12.5
508,96,120150,6,0,L|496:96,1,12.5
348,96,120187,6,0,L|336:96,1,12.5
172,96,120225,6,0,L|160:96,1,12.5
12,96,120262,6,4,L|0:96,1,12.5
0,192,120300,6,4,L|16:192,1,12.5
160,192,120337,6,0,L|176:192,1,12.5
336,192,120375,6,0,L|352:192,1,12.5
496,192,120412,6,0,L|512:192,1,12.5
512,240,120450,6,0,L|496:240,1,12.5
352,240,120487,6,0,L|336:240,1,12.5
176,240,120525,6,0,L|160:240,1,12.5
16,240,120562,6,0,L|0:240,1,12.5
3,240,120600,6,0,L|16:240,1,12.5
163,240,120637,6,0,L|176:240,1,12.5
339,240,120675,6,0,L|352:240,1,12.5
499,240,120712,6,0,L|512:240,1,12.5
508,192,120750,6,0,L|496:192,1,12.5
348,192,120787,6,0,L|336:192,1,12.5
172,192,120825,6,0,L|160:192,1,12.5
12,192,120862,6,4,L|0:192,1,12.5
0,96,120900,6,4,L|16:96,1,12.5
160,96,120937,6,0,L|176:96,1,12.5
336,96,120975,6,0,L|352:96,1,12.5
496,96,121012,6,0,L|512:96,1,12.5
512,144,121050,6,0,L|496:144,1,12.5
352,144,121087,6,0,L|336:144,1,12.5
176,144,121125,6,0,L|160:144,1,12.5
16,144,121162,6,0,L|0:144,1,12.5
3,144,121200,6,0,L|16:144,1,12.5
163,144,121237,6,0,L|176:144,1,12.5
339,144,121275,6,0,L|352:144,1,12.5
499,144,121312,6,0,L|512:144,1,12.5
508,96,121350,6,0,L|496:96,1,12.5
348,96,121387,6,0,L|336:96,1,12.5
172,96,121425,6,0,L|160:96,1,12.5
12,96,121462,6,4,L|0:96,1,12.5
0,192,121500,6,4,L|16:192,1,12.5
160,192,121537,6,0,L|176:192,1,12.5
336,192,121575,6,0,L|352:192,1,12.5
496,192,121612,6,0,L|512:192,1,12.5
512,240,121650,6,0,L|496:240,1,12.5
352,240,121687,6,0,L|336:240,1,12.5
176,240,121725,6,0,L|160:240,1,12.5
16,240,121762,6,0,L|0:240,1,12.5
3,240,121800,6,0,L|16:240,1,12.5
163,240,121837,6,0,L|176:240,1,12.5
339,240,121875,6,0,L|352:240,1,12.5
499,240,121912,6,0,L|512:240,1,12.5
508,192,121950,6,0,L|496:192,1,12.5
348,192,121987,6,0,L|336:192,1,12.5
172,192,122025,6,0,L|160:192,1,12.5
12,192,122062,6,4,L|0:192,1,12.5
0,96,122100,6,4,L|16:96,1,12.5
160,96,122137,6,0,L|176:96,1,12.5
336,96,122175,6,0,L|352:96,1,12.5
496,96,122212,6,0,L|512:96,1,12.5
512,144,122250,6,0,L|496:144,1,12.5
352,144,122287,6,0,L|336:144,1,12.5
176,144,122325,6,0,L|160:144,1,12.5
16,144,122362,6,0,L|0:144,1,12.5
3,144,122400,6,0,L|16:144,1,12.5
163,144,122437,6,0,L|176:144,1,12.5
339,144,122475,6,0,L|352:144,1,12.5
499,144,122512,6,0,L|512:144,1,12.5
508,96,122550,6,0,L|496:96,1,12.5
348,96,122587,6,0,L|336:96,1,12.5
172,96,122625,6,0,L|160:96,1,12.5
12,96,122662,6,4,L|0:96,1,12.5
0,192,122700,6,4,L|16:192,1,12.5
160,192,122737,6,0,L|176:192,1,12.5
336,192,122775,6,0,L|352:192,1,12.5
496,192,122812,6,0,L|512:192,1,12.5
512,240,122850,6,0,L|496:240,1,12.5
352,240,122887,6,0,L|336:240,1,12.5
176,240,122925,6,0,L|160:240,1,12.5
16,240,122962,6,0,L|0:240,1,12.5
3,240,123000,6,0,L|16:240,1,12.5
163,240,123037,6,0,L|176:240,1,12.5
339,240,123075,6,0,L|352:240,1,12.5
499,240,123112,6,0,L|512:240,1,12.5
508,192,123150,6,0,L|496:192,1,12.5
348,192,123187,6,0,L|336:192,1,12.5
172,192,123225,6,0,L|160:192,1,12.5
12,192,123262,6,4,L|0:192,1,12.5
0,96,123300,6,4,L|16:96,1,12.5
160,96,123337,6,0,L|176:96,1,12.5
336,96,123375,6,0,L|352:96,1,12.5
496,96,123412,6,0,L|512:96,1,12.5
512,144,123450,6,0,L|496:144,1,12.5
352,144,123487,6,0,L|336:144,1,12.5
176,144,123525,6,0,L|160:144,1,12.5
16,144,123562,6,0,L|0:144,1,12.5
3,144,123600,6,0,L|16:144,1,12.5
163,144,123637,6,0,L|176:144,1,12.5
339,144,123675,6,0,L|352:144,1,12.5
499,144,123712,6,0,L|512:144,1,12.5
508,96,123750,6,0,L|496:96,1,12.5
348,96,123787,6,0,L|336:96,1,12.5
172,96,123825,6,0,L|160:96,1,12.5
12,96,123862,6,4,L|0:96,1,12.5
0,192,123900,6,4,L|16:192,1,12.5
160,192,123937,6,0,L|176:192,1,12.5
336,192,123975,6,0,L|352:192,1,12.5
496,192,124012,6,0,L|512:192,1,12.5
512,240,124050,6,0,L|496:240,1,12.5
352,240,124087,6,0,L|336:240,1,12.5
176,240,124125,6,0,L|160:240,1,12.5
16,240,124162,6,0,L|0:240,1,12.5
3,240,124200,6,0,L|16:240,1,12.5
163,240,124237,6,0,L|176:240,1,12.5
339,240,124275,6,0,L|352:240,1,12.5
499,240,124312,6,0,L|512:240,1,12.5
508,192,124350,6,0,L|496:192,1,12.5
348,192,124387,6,0,L|336:192,1,12.5
172,192,124425,6,0,L|160:192,1,12.5
12,192,124462,6,4,L|0:192,1,12.5
0,96,124500,6,4,L|16:96,1,12.5
160,96,124537,6,0,L|176:96,1,12.5
336,96,124575,6,0,L|352:96,1,12.5
496,96,124612,6,0,L|512:96,1,12.5
512,144,124650,6,0,L|496:144,1,12.5
352,144,124687,6,0,L|336:144,1,12.5
176,144,124725,6,0,L|160:144,1,12.5
16,144,124762,6,0,L|0:144,1,12.5
3,144,124800,6,0,L|16:144,1,12.5
163,144,124837,6,0,L|176:144,1,12.5
339,144,124875,6,0,L|352:144,1,12.5
499,144,124912,6,0,L|512:144,1,12.5
508,96,124950,6,0,L|496:96,1,12.5
348,96,124987,6,0,L|336:96,1,12.5
172,96,125025,6,0,L|160:96,1,12.5
12,96,125062,6,4,L|0:96,1,12.5
0,192,125100,6,4,L|16:192,1,12.5
160,192,125137,6,0,L|176:192,1,12.5
336,192,125175,6,0,L|352:192,1,12.5
496,192,125212,6,0,L|512:192,1,12.5
512,240,125250,6,0,L|496:240,1,12.5
352,240,125287,6,0,L|336:240,1,12.5
176,240,125325,6,0,L|160:240,1,12.5
16,240,125362,6,0,L|0:240,1,12.5
3,240,125400,6,0,L|16:240,1,12.5
163,240,125437,6,0,L|176:240,1,12.5
339,240,125475,6,0,L|352:240,1,12.5
499,240,125512,6,0,L|512:240,1,12.5
508,192,125550,6,0,L|496:192,1,12.5
348,192,125587,6,0,L|336:192,1,12.5
172,192,125625,6,0,L|160:192,1,12.5
12,192,125662,6,4,L|0:192,1,12.5
0,96,125700,6,4,L|16:96,1,12.5
160,96,125737,6,0,L|176:96,1,12.5
336,96,125775,6,0,L|352:96,1,12.5
496,96,125812,6,0,L|512:96,1,12.5
512,144,125850,6,0,L|496:144,1,12.5
352,144,125887,6,0,L|336:144,1,12.5
176,144,125925,6,0,L|160:144,1,12.5
16,144,125962,6,0,L|0:144,1,12.5
3,144,126000,6,0,L|16:144,1,12.5
163,144,126037,6,0,L|176:144,1,12.5
339,144,126075,6,0,L|352:144,1,12.5
499,144,126112,6,0,L|512:144,1,12.5
508,96,126150,6,0,L|496:96,1,12.5
348,96,126187,6,0,L|336:96,1,12.5
172,96,126225,6,0,L|160:96,1,12.5
12,96,126262,6,4,L|0:96,1,12.5
0,192,126300,6,4,L|16:192,1,12.5
160,192,126337,6,0,L|176:192,1,12.5
336,192,126375,6,0,L|352:192,1,12.5
496,192,126412,6,0,L|512:192,1,12.5
512,240,126450,6,0,L|496:240,1,12.5
352,240,126487,6,0,L|336:240,1,12.5
176,240,126525,6,0,L|160:240,1,12.5
16,240,126562,6,0,L|0:240,1,12.5
3,240,126600,6,0,L|16:240,1,12.5
163,240,126637,6,0,L|176:240,1,12.5
339,240,126675,6,0,L|352:240,1,12.5
499,240,126712,6,0,L|512:240,1,12.5
508,192,126750,6,0,L|496:192,1,12.5
348,192,126787,6,0,L|336:192,1,12.5
172,192,126825,6,0,L|160:192,1,12.5
12,192,126862,6,4,L|0:192,1,12.5
0,96,126900,6,4,L|16:96,1,12.5
160,96,126937,6,0,L|176:96,1,12.5
336,96,126975,6,0,L|352:96,1,12.5
496,96,127012,6,0,L|512:96,1,12.5
512,144,127050,6,0,L|496:144,1,12.5
352,144,127087,6,0,L|336:144,1,12.5
176,144,127125,6,0,L|160:144,1,12.5
16,144,127162,6,0,L|0:144,1,12.5
3,144,127200,6,0,L|16:144,1,12.5
163,144,127237,6,0,L|176:144,1,12.5
339,144,127275,6,0,L|352:144,1,12.5
499,144,127312,6,0,L|512:144,1,12.5
508,96,127350,6,0,L|496:96,1,12.5
348,96,127387,6,0,L|336:96,1,12.5
172,96,127425,6,0,L|160:96,1,12.5
12,96,127462,6,4,L|0:96,1,12.5
0,192,127500,6,4,L|16:192,1,12.5
160,192,127537,6,0,L|176:192,1,12.5
336,192,127575,6,0,L|352:192,1,12.5
496,192,127612,6,0,L|512:192,1,12.5
512,240,127650,6,0,L|496:240,1,12.5
352,240,127687,6,0,L|336:240,1,12.5
176,240,127725,6,0,L|160:240,1,12.5
16,240,127762,6,0,L|0:240,1,12.5
3,240,127800,6,0,L|16:240,1,12.5
163,240,127837,6,0,L|176:240,1,12.5
339,240,127875,6,0,L|352:240,1,12.5
499,240,127912,6,0,L|512:240,1,12.5
508,192,127950,6,0,L|496:192,1,12.5
348,192,127987,6,0,L|336:192,1,12.5
172,192,128025,6,0,L|160:192,1,12.5
12,192,128062,6,4,L|0:192,1,12.5
0,96,128100,6,4,L|16:96,1,12.5
160,96,128137,6,0,L|176:96,1,12.5
336,96,128175,6,0,L|352:96,1,12.5
496,96,128212,6,0,L|512:96,1,12.5
512,144,128250,6,0,L|496:144,1,12.5
352,144,128287,6,0,L|336:144,1,12.5
176,144,128325,6,0,L|160:144,1,12.5
16,144,128362,6,0,L|0:144,1,12.5
3,144,128400,6,0,L|16:144,1,12.5
163,144,128437,6,0,L|176:144,1,12.5
339,144,128475,6,0,L|352:144,1,12.5
499,144,128512,6,0,L|512:144,1,12.5
508,96,128550,6,0,L|496:96,1,12.5
348,96,128587,6,0,L|336:96,1,12.5
172,96,128625,6,0,L|160:96,1,12.5
12,96,128662,6,4,L|0:96,1,12.5
0,192,128700,6,4,L|16:192,1,12.5
160,192,128737,6,0,L|176:192,1,12.5
336,192,128775,6,0,L|352:192,1,12.5
496,192,128812,6,0,L|512:192,1,12.5
512,240,128850,6,0,L|496:240,1,12.5
352,240,128887,6,0,L|336:240,1,12.5
176,240,128925,6,0,L|160:240,1,12.5
16,240,128962,6,0,L|0:240,1,12.5
3,240,129000,6,0,L|16:240,1,12.5
163,240,129037,6,0,L|176:240,1,12.5
339,240,129075,6,0,L|352:240,1,12.5
499,240,129112,6,0,L|512:240,1,12.5
508,192,129150,6,0,L|496:192,1,12.5
348,192,129187,6,0,L|336:192,1,12.5
172,192,129225,6,0,L|160:192,1,12.5
12,192,129262,6,4,L|0:192,1,12.5
0,96,129300,6,4,L|16:96,1,12.5
160,96,129337,6,0,L|176:96,1,12.5
336,96,129375,6,0,L|352:96,1,12.5
496,96,129412,6,0,L|512:96,1,12.5
512,144,129450,6,0,L|496:144,1,12.5
352,144,129487,6,0,L|336:144,1,12.5
176,144,129525,6,0,L|160:144,1,12.5
16,144,129562,6,0,L|0:144,1,12.5
3,144,129600,6,0,L|16:144,1,12.5
163,144,129637,6,0,L|176:144,1,12.5
339,144,129675,6,0,L|352:144,1,12.5
499,144,129712,6,0,L|512:144,1,12.5
508,96,129750,6,0,L|496:96,1,12.5
348,96,129787,6,0,L|336:96,1,12.5
172,96,129825,6,0,L|160:96,1,12.5
12,96,129862,6,4,L|0:96,1,12.5
0,192,129900,6,4,L|16:192,1,12.5
160,192,129937,6,0,L|176:192,1,12.5
336,192,129975,6,0,L|352:192,1,12.5
496,192,130012,6,0,L|512:192,1,12.5
512,240,130050,6,0,L|496:240,1,12.5
352,240,130087,6,0,L|336:240,1,12.5
176,240,130125,6,0,L|160:240,1,12.5
16,240,130162,6,0,L|0:240,1,12.5
3,240,130200,6,0,L|16:240,1,12.5
163,240,130237,6,0,L|176:240,1,12.5
339,240,130275,6,0,L|352:240,1,12.5
499,240,130312,6,0,L|512:240,1,12.5
508,192,130350,6,0,L|496:192,1,12.5
348,192,130387,6,0,L|336:192,1,12.5
172,192,130425,6,0,L|160:192,1,12.5
12,192,130462,6,4,L|0:192,1,12.5
0,96,130500,6,4,L|16:96,1,12.5
160,96,130537,6,0,L|176:96,1,12.5
336,96,130575,6,0,L|352:96,1,12.5
496,96,130612,6,0,L|512:96,1,12.5
512,144,130650,6,0,L|496:144,1,12.5
352,144,130687,6,0,L|336:144,1,12.5
176,144,130725,6,0,L|160:144,1,12.5
16,144,130762,6,0,L|0:144,1,12.5
3,144,130800,6,0,L|16:144,1,12.5
163,144,130837,6,0,L|176:144,1,12.5
339,144,130875,6,0,L|352:144,1,12.5
499,144,130912,6,0,L|512:144,1,12.5
508,96,130950,6,0,L|496:96,1,12.5
348,96,130987,6,0,L|336:96,1,12.5
172,96,131025,6,0,L|160:96,1,12.5
12,96,131062,6,4,L|0:96,1,12.5
0,32,131100,5,4,0:0:0:0:
