osu file format v14

[General]
AudioFilename: audio.mp3
AudioLeadIn: 0
PreviewTime: 141737
Countdown: 0
SampleSet: Soft
StackLeniency: 0.2
Mode: 0
LetterboxInBreaks: 0
WidescreenStoryboard: 1

[Editor]
Bookmarks: 102902,609278
DistanceSpacing: 1
BeatDivisor: 2
GridSize: 8
TimelineZoom: 2.1

[Metadata]
Title:Border of... Compilation
TitleUnicode:Border of... Compilation
Artist:ZUN & IOSYS
ArtistUnicode:ZUN & IOSYS
Creator:-Sylvari
Version:Demise Excess of Yuyuko
Source:東方妖々夢 ~ Perfect Cherry Blossom
Tags:th7 ボーダーオブライフ Border of Life Instrumental Rock J-Pop ARM, RoughSketch (Sapporo Hardcore Channel) 七条レタス miko 榎津まお ネクロファンタジア 惑いて来たれ、遊惰な神隠し ~ Border of Death Madoite Kitare, Yuuda na Kamikakushi ~ Border of Death 夕野ヨシミ 3L
BeatmapID:1926522
BeatmapSetID:922519

[Difficulty]
HPDrainRate:5
CircleSize:5
OverallDifficulty:8
ApproachRate:9
SliderMultiplier:2
SliderTickRate:1

[Events]
//Background and Video events
0,0,"BG.jpg",0,0
//Break Periods
2,159778,161332
//Storyboard Layer 0 (Background)
//Storyboard Layer 1 (Fail)
//Storyboard Layer 2 (Pass)
//Storyboard Layer 3 (Foreground)
//Storyboard Sound Samples

[TimingPoints]
1062,416.666666666667,4,2,0,45,1,0
15158,384.615384615385,4,2,0,75,1,0
26341,389.61038961039,4,2,0,75,1,0
27521,384.615384615385,4,1,1,85,1,1
27521,-50,4,1,1,85,0,1
39059,-100,4,1,1,85,0,1
39828,-57.1428571428571,4,1,1,85,0,1
51367,-100,4,1,1,85,0,1
52133,384.615384615385,4,3,0,60,1,0
90594,-66.6666666666667,4,2,0,80,0,1
115208,405.405405405405,4,2,0,65,1,0
128180,-100,4,1,0,65,0,0
141153,779.220779220779,4,1,0,35,1,0
141932,294.117647058824,4,2,0,75,1,0
354278,375,4,2,0,75,1,0

[Colours]
Combo1 : 128,0,255
Combo2 : 225,132,200
Combo3 : 106,173,255
Combo4 : 255,255,128
Combo5 : 128,128,128

[HitObjects]
168,248,1062,6,0,P|256:288|344:248,1,200,4|0,0:0|0:0,0:0:0:0:
256,192,1687,1,2,0:0:0:0:
256,40,2312,1,8,0:0:0:0:
160,40,2520,1,0,0:0:0:0:
64,40,2728,6,0,L|64:240,1,200,4|0,0:0|0:0,0:0:0:0:
64,344,3353,1,2,0:0:0:0:
168,344,3562,1,0,0:0:0:0:
264,344,3770,1,0,0:0:0:0:
264,248,3978,1,8,0:0:0:0:
104,192,4291,53,0,0:0:0:0:
104,192,4395,2,0,L|104:88,1,100,2|0,0:0|0:0,0:0:0:0:
184,32,4812,2,0,L|184:132,1,100
264,192,5228,2,0,L|264:92,1,100,2|0,0:0|0:0,0:0:0:0:
344,32,5645,2,0,L|344:132,1,100
344,232,6062,6,0,P|313:270|264:280,1,100,2|0,0:0|0:0,0:0:0:0:
168,280,6478,1,0,0:0:0:0:
72,280,6687,1,0,0:0:0:0:
72,376,6895,1,2,0:0:0:0:
168,376,7103,1,2,0:0:0:0:
72,376,7312,1,8,0:0:0:0:
256,280,7728,54,0,L|256:80,1,200,2|0,0:0|0:0,0:0:0:0:
160,40,8353,1,0,0:0:0:0:
256,0,8562,1,2,0:0:0:0:
352,40,8770,1,0,0:0:0:0:
256,80,8978,2,0,L|256:184,1,100,8|0,0:0|0:0,0:0:0:0:
176,232,9395,6,0,P|257:285|335:236,1,200,2|0,0:0|0:0,0:0:0:0:
336,136,10020,1,0,0:0:0:0:
432,136,10228,1,2,0:0:0:0:
432,240,10437,1,0,0:0:0:0:
432,336,10645,1,8,0:0:0:0:
432,240,10853,1,0,0:0:0:0:
432,136,11062,54,0,L|332:136,1,100,2|0,0:0|0:0,0:0:0:0:
232,136,11478,2,0,L|132:136,1,100
128,32,11895,2,0,L|228:32,1,100,2|0,0:0|0:0,0:0:0:0:
328,32,12312,2,0,L|428:32,1,100
432,136,12728,5,8,0:0:0:0:
432,240,12937,1,0,0:0:0:0:
336,240,13145,1,2,0:0:0:0:
336,336,13353,1,0,0:0:0:0:
432,336,13562,2,2,L|456:336,15,25
408,336,14395,1,8,0:0:0:0:
256,292,15158,53,6,0:0:0:0:
169,242,15350,1,0,0:0:0:0:
169,142,15542,1,2,0:0:0:0:
256,92,15734,1,0,0:0:0:0:
342,142,15927,1,2,0:0:0:0:
342,242,16119,1,2,0:0:0:0:
304,23,16504,6,2,P|255:13|206:24,1,100,6|2,0:0|0:0,0:0:0:0:
169,191,16888,1,0,0:0:0:0:
229,272,17081,1,2,0:0:0:0:
323,241,17273,1,0,0:0:0:0:
324,141,17465,1,10,0:0:0:0:
229,110,17658,1,0,0:0:0:0:
324,141,17850,1,10,0:0:0:0:
418,172,18042,1,0,0:0:0:0:
256,262,18234,53,2,0:0:0:0:
185,192,18427,1,0,0:0:0:0:
256,121,18619,1,2,0:0:0:0:
326,192,18811,1,0,0:0:0:0:
256,262,19004,1,2,0:0:0:0:
184,328,19196,1,10,0:0:0:0:
186,51,19581,6,2,L|186:151,1,100,6|2,0:0|0:0,0:0:0:0:
303,224,19965,1,0,0:0:0:0:
260,134,20158,1,2,0:0:0:0:
204,217,20350,1,0,0:0:0:0:
303,224,20542,1,10,0:0:0:0:
260,134,20734,1,0,0:0:0:0:
303,224,20927,1,10,0:0:0:0:
345,313,21119,54,2,L|246:313,1,100,6|2,0:0|0:0,0:0:0:0:
206,192,21504,1,0,0:0:0:0:
306,192,21696,1,2,0:0:0:0:
206,192,21888,1,0,0:0:0:0:
306,192,22081,1,2,0:0:0:0:
206,192,22273,1,0,0:0:0:0:
106,191,22465,1,10,0:0:0:0:
104,88,22658,6,0,L|208:88,1,100
256,192,23042,1,0,0:0:0:0:
256,192,23234,1,2,0:0:0:0:
256,192,23427,1,0,0:0:0:0:
256,192,23619,1,10,0:0:0:0:
256,192,23811,1,0,0:0:0:0:
256,192,24004,1,10,0:0:0:0:
256,288,24196,54,0,L|360:288,2,100
160,288,24773,1,2,0:0:0:0:
64,288,24965,1,0,0:0:0:0:
64,184,25158,1,2,0:0:0:0:
64,88,25350,1,0,0:0:0:0:
160,88,25542,2,2,L|184:88,7,25,10|2|2|2|2|2|2|2,3:2|3:2|3:2|3:2|3:2|3:2|3:2|3:2,3:2:0:0:
160,104,25927,6,0,L|160:208,1,100
160,320,26311,1,0,0:0:0:0:
256,320,26535,1,0,0:0:0:0:
360,320,26730,2,0,L|384:320,12,25,0|0|0|0|0|0|0|0|0|0|0|0|0,3:2|3:2|3:2|3:2|3:2|3:2|3:2|3:2|3:2|3:2|3:2|3:2|3:2,3:2:0:0:
456,288,27521,54,0,P|256:288|56:288,1,400,4|0,0:0|0:0,0:0:0:0:
56,192,28097,2,0,P|256:192|456:192,1,400,4|0,0:0|0:0,0:0:0:0:
360,96,28674,2,2,P|256:96|160:96,1,200,2|2,0:3|0:3,0:3:0:0:
56,192,29059,6,0,P|256:192|456:192,1,400,4|0,0:0|0:0,0:0:0:0:
456,288,29636,2,0,P|256:288|56:288,1,400,4|0,0:0|0:0,0:0:0:0:
160,384,30213,2,2,P|256:384|360:384,1,200,2|2,0:3|0:3,0:3:0:0:
360,288,30597,54,2,P|256:288|160:288,1,200,2|2,0:3|0:3,0:3:0:0:
160,192,30982,2,0,P|256:192|360:192,1,200
360,96,31367,2,2,P|256:96|160:96,1,200,2|2,0:3|0:3,0:3:0:0:
160,0,31751,2,0,P|264:0|360:0,1,200
448,3,32136,5,8,3:0:0:0:
457,23,32232,1,0,3:0:0:0:
464,45,32328,1,2,3:0:0:0:
468,68,32424,1,0,3:0:0:0:
467,91,32521,1,8,3:0:0:0:
463,114,32617,1,0,3:0:0:0:
456,137,32713,1,2,3:0:0:0:
448,159,32809,1,0,3:0:0:0:
438,180,32905,1,8,3:0:0:0:
429,200,33001,1,0,3:0:0:0:
423,223,33097,1,2,3:0:0:0:
420,247,33194,1,0,3:0:0:0:
422,269,33290,1,8,3:0:0:0:
427,292,33386,1,0,3:0:0:0:
436,314,33482,1,2,3:0:0:0:
456,384,33674,54,0,P|256:384|56:384,1,400,4|0,0:0|0:0,0:0:0:0:
56,288,34251,2,0,P|256:288|456:288,1,400,4|0,0:0|0:0,0:0:0:0:
360,192,34828,2,2,P|256:192|160:192,1,200,2|2,0:3|0:3,0:3:0:0:
56,288,35213,6,0,P|256:288|456:288,1,400,4|0,0:0|0:0,0:0:0:0:
456,192,35790,2,0,P|256:192|56:192,1,400,4|0,0:0|0:0,0:0:0:0:
160,96,36367,2,2,P|256:96|360:96,1,200,2|2,0:3|0:3,0:3:0:0:
360,0,36751,54,2,P|256:0|160:0,1,200,2|2,0:3|0:3,0:3:0:0:
160,96,37136,2,0,P|256:96|360:96,1,200
360,192,37521,2,2,P|256:192|160:192,1,200,2|2,0:3|0:3,0:3:0:0:
160,288,37905,2,0,P|256:288|360:288,1,200
456,288,38290,5,8,3:0:0:0:
472,264,38386,1,0,3:0:0:0:
484,238,38482,1,2,3:0:0:0:
490,211,38578,1,0,3:0:0:0:
490,182,38674,1,8,3:0:0:0:
484,154,38771,1,0,3:0:0:0:
472,128,38867,1,2,3:0:0:0:
455,105,38963,1,0,3:0:0:0:
439,89,39059,2,0,L|439:57,12,25,8|0|0|0|0|0|0|0|0|0|0|0|0,3:2|3:2|3:2|3:2|3:2|3:2|3:2|3:2|3:2|3:2|3:2|3:2|3:2,3:2:0:0:
376,16,39828,54,0,P|376:190|376:365,1,350.00000333786,4|0,0:0|0:0,0:0:0:0:
292,365,40405,2,0,P|292:191|292:14,1,350.00000333786,4|0,0:0|0:3,0:3:0:0:
208,99,40982,2,2,P|208:189|208:273,1,175.00000166893,2|2,0:3|0:3,0:3:0:0:
292,365,41367,6,0,P|292:191|292:15,1,350.00000333786,4|0,0:0|0:0,0:0:0:0:
376,16,41944,2,0,P|376:191|376:367,1,350.00000333786,4|0,0:0|0:3,0:3:0:0:
459,274,42520,2,2,P|459:190|459:99,1,175.00000166893,2|2,0:3|0:3,0:3:0:0:
376,99,42905,54,2,P|376:192|376:274,1,175.00000166893,2|2,0:3|0:3,0:3:0:0:
292,274,43290,2,0,P|292:192|292:99,1,175.00000166893
208,99,43674,2,2,P|208:191|208:273,1,175.00000166893,2|2,0:3|0:3,0:3:0:0:
124,273,44059,2,0,P|124:191|124:99,1,175.00000166893
40,99,44444,5,8,3:0:0:0:
40,111,44540,1,0,3:0:0:0:
40,124,44636,1,2,3:0:0:0:
40,136,44732,1,0,3:0:0:0:
40,149,44828,1,8,3:0:0:0:
40,161,44924,1,0,3:0:0:0:
40,174,45021,1,2,3:0:0:0:
40,186,45117,1,0,3:0:0:0:
40,199,45213,1,8,3:0:0:0:
40,211,45309,1,0,3:0:0:0:
40,224,45405,1,2,3:0:0:0:
40,236,45501,1,0,3:0:0:0:
40,249,45597,1,8,3:0:0:0:
40,261,45694,1,0,3:0:0:0:
40,274,45790,1,2,3:0:0:0:
124,366,45982,54,0,P|124:192|124:16,1,350.00000333786,4|0,0:0|0:0,0:0:0:0:
208,16,46559,2,0,P|208:192|208:366,1,350.00000333786,4|0,0:0|0:3,0:3:0:0:
292,274,47136,2,2,P|292:192|292:99,1,175.00000166893,2|2,0:3|0:3,0:3:0:0:
208,16,47521,6,0,P|208:192|208:366,1,350.00000333786,4|0,0:0|0:0,0:0:0:0:
124,366,48097,2,0,P|124:192|124:16,1,350.00000333786,4|0,0:0|0:3,0:3:0:0:
40,99,48674,2,2,P|40:192|40:274,1,175.00000166893,2|2,0:3|0:3,0:3:0:0:
124,273,49059,54,2,P|124:191|124:99,1,175.00000166893,2|2,0:3|0:3,0:3:0:0:
208,99,49444,2,0,P|208:191|208:273,1,175.00000166893
292,274,49828,2,2,P|292:192|292:99,1,175.00000166893,2|2,0:3|0:3,0:3:0:0:
376,99,50213,2,0,P|376:192|376:274,1,175.00000166893
472,274,50597,5,8,3:0:0:0:
472,248,50694,1,0,3:0:0:0:
472,224,50790,1,2,3:0:0:0:
472,198,50886,1,0,3:0:0:0:
472,174,50982,1,8,3:0:0:0:
472,148,51078,1,0,3:0:0:0:
472,124,51174,1,2,3:0:0:0:
472,98,51271,1,0,3:0:0:0:
472,74,51367,2,2,L|472:49,12,25,2|2|2|2|2|2|2|2|2|2|2|2|2,3:2|3:2|3:2|3:2|3:2|3:2|3:2|3:2|3:2|3:2|3:2|3:2|3:2,3:2:0:0:
373,72,52133,53,10,0:0:0:0:
309,119,52517,5,10,0:0:0:0:
318,198,52709,1,2,0:0:0:0:
391,230,53094,53,10,0:0:0:0:
318,198,53286,1,2,0:0:0:0:
253,245,53479,1,2,0:0:0:0:
262,325,53671,1,10,0:0:0:0:
253,245,54056,5,10,0:0:0:0:
179,212,54440,53,10,0:0:0:0:
113,259,54825,5,10,0:0:0:0:
179,212,55209,53,10,0:0:0:0:
171,131,55594,5,10,0:0:0:0:
97,98,55786,1,2,0:0:0:0:
171,131,56171,53,10,0:0:0:0:
237,84,56363,1,2,0:0:0:0:
230,4,56556,1,2,0:0:0:0:
256,192,56748,12,0,58094,0:0:0:0:
256,192,58286,5,10,0:0:0:0:
328,144,58671,53,10,0:0:0:0:
328,240,58863,1,2,0:0:0:0:
482,48,59248,5,10,0:0:0:0:
482,144,59440,1,2,0:0:0:0:
482,240,59633,1,2,0:0:0:0:
482,336,59825,1,10,0:0:0:0:
256,192,60209,53,10,0:0:0:0:
256,192,60594,5,10,0:0:0:0:
256,192,60979,53,10,0:0:0:0:
256,192,61363,5,10,0:0:0:0:
184,144,61748,53,10,0:0:0:0:
184,240,61940,1,2,0:0:0:0:
112,112,62325,5,10,0:0:0:0:
112,192,62517,1,2,0:0:0:0:
112,272,62709,2,2,L|112:296,3,25,2|2|2|2,0:2|0:2|0:2|0:2,0:2:0:0:
112,320,62902,1,10,0:0:0:0:
256,0,63671,54,2,L|280:0,2,25,2|2|2,0:2|0:2|0:2,0:2:0:0:
256,192,63959,2,2,L|280:192,2,25,2|2|2,0:2|0:2|0:2,0:2:0:0:
256,384,64248,2,2,L|280:384,2,25,2|2|2,0:2|0:2|0:2,0:2:0:0:
256,263,65402,5,2,2:3:0:0:
184,192,65594,1,2,2:3:0:0:
256,120,65786,1,2,2:3:0:0:
327,192,65979,53,4,3:2:0:0:
348,166,66075,1,0,3:2:0:0:
359,135,66171,1,2,3:2:0:0:
359,101,66267,1,0,3:2:0:0:
347,70,66363,1,10,3:2:0:0:
326,45,66459,1,0,3:2:0:0:
297,29,66556,1,2,3:2:0:0:
195,39,66748,1,0,0:0:0:0:
256,120,66940,5,2,2:3:0:0:
328,191,67133,1,2,2:3:0:0:
256,263,67325,1,2,2:3:0:0:
185,191,67517,53,4,3:2:0:0:
164,217,67613,1,0,3:2:0:0:
153,248,67709,1,2,3:2:0:0:
153,282,67806,1,0,3:2:0:0:
165,313,67902,1,10,3:2:0:0:
186,338,67998,1,0,3:2:0:0:
215,354,68094,1,2,3:2:0:0:
310,345,68286,1,0,0:0:0:0:
256,263,68479,5,2,2:3:0:0:
328,191,68671,1,2,2:3:0:0:
185,191,68863,1,2,2:3:0:0:
256,120,69056,53,6,0:0:0:0:
400,262,69248,1,2,2:3:0:0:
349,84,69440,1,10,0:0:0:0:
307,298,69633,1,2,2:3:0:0:
421,155,69825,1,6,0:0:0:0:
235,227,70017,1,2,2:3:0:0:
503,228,70209,1,10,0:0:0:0:
177,167,70402,5,6,0:0:0:0:
160,167,70498,1,0,0:0:0:0:
143,167,70594,1,8,0:0:0:0:
127,167,70690,1,0,0:0:0:0:
110,167,70786,1,2,0:0:0:0:
93,167,70883,1,0,0:0:0:0:
75,166,70979,2,0,L|75:111,3,50
75,76,71363,1,0,0:0:0:0:
176,21,71556,53,2,2:3:0:0:
256,142,71748,1,2,2:3:0:0:
336,21,71940,1,2,2:3:0:0:
256,142,72133,1,4,0:0:0:0:
256,167,72229,1,0,0:0:0:0:
256,192,72325,1,0,0:0:0:0:
256,217,72421,1,0,0:0:0:0:
256,242,72517,1,0,0:0:0:0:
256,267,72613,1,0,0:0:0:0:
256,292,72709,1,0,0:0:0:0:
256,317,72806,1,0,0:0:0:0:
256,342,72902,1,0,0:0:0:0:
427,272,73093,5,2,2:3:0:0:
427,112,73286,1,2,2:3:0:0:
306,192,73479,1,4,0:0:0:0:
281,192,73575,1,0,0:0:0:0:
256,192,73671,1,0,0:0:0:0:
231,192,73767,1,0,0:0:0:0:
206,192,73863,1,0,0:0:0:0:
181,192,73959,1,0,0:0:0:0:
156,192,74056,2,0,L|106:192,1,50,8|0,0:0|0:0,0:0:0:0:
153,144,74248,2,0,L|103:144,1,50,8|0,0:0|0:0,0:0:0:0:
153,97,74440,1,0,0:0:0:0:
255,27,74633,53,0,0:0:0:0:
256,192,74825,1,2,0:0:0:0:
255,357,75017,1,0,0:0:0:0:
256,192,75209,1,12,0:0:0:0:
488,208,75402,1,0,0:0:0:0:
371,128,75594,1,2,0:0:0:0:
360,268,75786,1,0,0:0:0:0:
152,268,75979,1,12,0:0:0:0:
24,208,76171,1,0,0:0:0:0:
141,128,76363,1,0,0:0:0:0:
256,192,76556,5,0,0:0:0:0:
256,175,76652,1,0,0:0:0:0:
256,158,76748,1,0,0:0:0:0:
256,142,76844,1,0,0:0:0:0:
256,125,76940,1,0,0:0:0:0:
256,108,77036,1,0,0:0:0:0:
256,90,77133,2,0,L|256:56,4,25
358,192,77517,2,0,L|392:192,4,25
256,294,77902,2,0,L|256:328,6,25
256,256,78286,53,12,0:0:0:0:
146,226,78479,1,0,0:0:0:0:
47,291,78671,1,2,0:0:0:0:
180,249,78863,1,2,0:0:0:0:
180,108,79056,1,2,0:0:0:0:
47,64,79248,5,8,0:0:0:0:
91,152,79440,1,8,0:0:0:0:
135,19,79633,1,8,0:0:0:0:
180,108,79825,53,4,0:0:0:0:
260,182,80017,1,0,0:0:0:0:
364,148,80209,1,2,0:0:0:0:
234,160,80402,1,2,0:0:0:0:
171,273,80594,1,2,0:0:0:0:
262,362,80786,5,8,0:0:0:0:
260,182,80979,1,8,0:0:0:0:
351,271,81171,1,8,0:0:0:0:
171,273,81363,53,12,0:0:0:0:
260,182,81556,1,0,0:0:0:0:
351,271,81748,1,2,0:0:0:0:
262,362,81940,1,0,0:0:0:0:
183,196,82133,5,12,0:0:0:0:
336,194,82325,1,0,0:0:0:0:
338,347,82517,1,2,0:0:0:0:
185,349,82709,1,0,0:0:0:0:
260,182,82902,54,2,L|260:133,2,50,6|2|2,0:2|0:2|0:2,0:2:0:0:
351,271,83286,2,2,L|400:271,1,50,10|2,0:2|0:2,0:2:0:0:
262,362,83479,1,0,0:0:0:0:
171,273,83671,1,0,0:0:0:0:
336,194,83863,5,10,0:0:0:0:
338,347,84056,1,10,0:0:0:0:
185,349,84248,1,10,0:0:0:0:
183,196,84440,54,0,L|183:96,1,100,4|0,0:1|0:1,0:1:0:0:
248,5,84825,1,8,0:0:0:0:
276,14,84921,1,0,0:0:0:0:
276,44,85017,1,2,0:0:0:0:
248,53,85113,1,0,0:0:0:0:
230,29,85209,1,8,0:0:0:0:
347,31,85402,2,0,L|347:88,1,50,2|0,0:0|0:0,0:0:0:0:
257,170,85594,2,0,L|306:141,1,50,8|0,0:0|0:0,0:0:0:0:
422,178,85786,5,2,0:0:0:0:
455,188,85883,1,0,0:0:0:0:
455,223,85979,1,8,0:0:0:0:
422,234,86075,1,0,0:0:0:0:
401,206,86171,1,2,0:0:0:0:
459,290,86363,54,0,L|474:342,1,50,8|0,0:0|0:0,0:0:0:0:
358,258,86556,2,0,L|313:288,1,50,2|0,0:0|0:0,0:0:0:0:
357,152,86748,2,0,L|314:118,1,50,8|0,0:0|0:0,0:0:0:0:
457,118,86940,5,2,3:2:0:0:
459,290,87133,1,2,3:2:0:0:
457,118,87325,1,2,3:2:0:0:
280,207,87517,53,4,0:1:0:0:
189,48,87709,1,0,0:0:0:0:
210,145,87902,1,0,0:0:0:0:
115,115,88094,1,0,0:0:0:0:
280,207,88286,5,4,0:1:0:0:
189,366,88479,1,0,0:0:0:0:
210,269,88671,1,0,0:0:0:0:
115,299,88863,1,0,0:0:0:0:
280,207,89056,53,4,0:1:0:0:
39,207,89440,2,2,L|15:207,8,25,2|2|2|2|2|2|2|2|2,3:2|3:2|3:2|3:2|3:2|3:2|3:2|3:2|3:2,3:2:0:0:
99,117,90017,1,0,0:0:0:0:
107,157,90113,1,0,0:0:0:0:
116,198,90209,1,0,0:0:0:0:
125,239,90306,1,0,0:0:0:0:
134,279,90402,1,0,0:0:0:0:
143,320,90498,1,0,0:0:0:0:
153,361,90594,6,0,L|453:361,1,300.000011444092,4|0,0:1|0:0,0:0:0:0:
453,226,91171,1,0,0:0:0:0:
381,295,91363,2,0,L|231:295,1,150.000005722046,8|0,0:2|0:2,0:2:0:0:
384,154,91748,1,2,0:2:0:0:
312,223,91940,1,0,0:0:0:0:
456,85,92133,54,0,L|156:85,1,300.000011444092,4|0,0:0|0:0,0:0:0:0:
64,238,92709,1,0,0:0:0:0:
64,110,92902,1,8,0:0:0:0:
0,174,93094,1,0,0:0:0:0:
127,174,93286,2,0,L|277:174,1,150.000005722046,2|0,0:2|0:0,0:0:0:0:
187,0,93671,6,0,L|487:0,1,300.000011444092,4|0,0:0|0:0,0:0:0:0:
379,86,94248,1,0,0:0:0:0:
229,85,94440,2,0,L|379:85,1,150.000005722046,4|0,0:0|0:0,0:0:0:0:
300,174,94825,1,0,0:0:0:0:
150,173,95017,1,0,0:0:0:0:
300,174,95209,54,0,L|450:174,1,150.000005722046,4|0,0:0|0:0,0:0:0:0:
300,324,95594,2,0,L|150:324,1,150.000005722046,4|0,0:0|0:0,0:0:0:0:
0,173,95979,2,0,L|150:173,1,150.000005722046,4|0,0:0|0:0,0:0:0:0:
301,24,96363,1,2,0:0:0:0:
151,23,96556,1,0,0:0:0:0:
300,174,96748,6,0,L|300:324,1,150.000005722046,4|0,0:0|0:0,0:0:0:0:
150,324,97133,1,0,0:0:0:0:
150,173,97325,1,0,0:0:0:0:
300,174,97517,2,0,L|450:174,1,150.000005722046
150,173,97902,2,0,L|0:173,1,150.000005722046
151,23,98286,53,2,0:0:0:0:
150,173,98479,1,0,0:0:0:0:
300,174,98671,1,2,0:0:0:0:
301,24,98863,1,0,0:0:0:0:
451,25,99056,1,2,0:0:0:0:
450,175,99248,1,0,0:0:0:0:
449,325,99440,1,2,0:0:0:0:
450,175,99633,1,0,0:0:0:0:
449,325,99825,6,0,L|149:325,1,300.000011444092,4|0,0:0|0:0,0:0:0:0:
43,325,100402,1,0,0:0:0:0:
44,175,100594,2,0,L|194:175,1,150.000005722046,4|0,0:0|0:0,0:0:0:0:
450,174,100979,2,0,L|300:174,1,150.000005722046,4|0,0:0|0:0,0:0:0:0:
451,25,101363,54,0,L|301:25,1,150.000005722046
194,25,101748,2,0,L|150:25,14,37.5000014305115
193,62,102517,1,0,0:0:0:0:
222,222,102709,1,0,0:0:0:0:
335,344,102902,5,4,0:0:0:0:
335,325,102998,1,0,0:0:0:0:
335,306,103094,1,2,0:0:0:0:
335,287,103190,1,0,0:0:0:0:
335,267,103286,2,0,L|335:190,1,75.0000028610231,8|0,0:0|0:0,0:0:0:0:
394,223,103479,2,0,L|394:146,1,75.0000028610231,2|0,0:0|0:0,0:0:0:0:
453,179,103671,2,0,L|453:102,1,75.0000028610231,8|0,0:0|0:0,0:0:0:0:
512,135,103863,2,0,L|512:58,1,75.0000028610231,2|0,0:0|0:0,0:0:0:0:
450,9,104056,53,0,0:0:0:0:
273,44,104248,1,0,0:0:0:0:
138,163,104440,5,4,0:0:0:0:
138,185,104536,1,0,0:0:0:0:
138,207,104633,1,2,0:0:0:0:
138,229,104729,1,0,0:0:0:0:
138,251,104825,2,0,L|213:251,1,75.0000028610231,8|0,0:0|0:0,0:0:0:0:
214,324,105017,2,0,L|289:324,1,75.0000028610231,2|0,0:0|0:0,0:0:0:0:
370,251,105209,2,0,L|295:251,1,75.0000028610231,8|0,0:0|0:0,0:0:0:0:
448,181,105402,2,0,L|373:181,1,75.0000028610231,2|0,0:0|0:0,0:0:0:0:
448,99,105594,53,0,0:0:0:0:
256,62,105786,1,0,0:0:0:0:
64,99,105979,5,4,0:0:0:0:
64,128,106075,1,0,0:0:0:0:
64,157,106171,1,2,0:0:0:0:
64,186,106267,1,0,0:0:0:0:
64,215,106363,53,8,0:0:0:0:
190,283,106556,1,0,0:0:0:0:
317,203,106748,5,4,0:0:0:0:
317,174,106844,1,0,0:0:0:0:
317,144,106940,2,0,L|317:61,1,75.0000028610231,2|0,0:0|0:0,0:0:0:0:
385,69,107133,2,0,L|385:144,1,75.0000028610231,8|0,0:0|0:0,0:0:0:0:
453,144,107325,2,0,L|453:69,1,75.0000028610231,2|0,0:0|0:0,0:0:0:0:
459,224,107517,54,0,L|309:224,1,150.000005722046,8|0,0:0|0:0,0:0:0:0:
51,144,107902,2,0,L|201:144,1,150.000005722046,8|0,0:0|0:0,0:0:0:0:
384,64,108286,6,0,L|309:64,1,75.0000028610231,2|0,0:0|0:0,0:0:0:0:
201,144,108479,2,0,L|126:144,1,75.0000028610231,2|0,0:0|0:0,0:0:0:0:
309,224,108671,2,0,L|384:224,1,75.0000028610231,2|0,0:0|0:0,0:0:0:0:
201,304,108863,2,0,L|126:304,1,75.0000028610231,2|0,0:0|0:0,0:0:0:0:
309,384,109056,54,0,L|459:384,1,150.000005722046,4|0,0:0|0:0,0:0:0:0:
459,224,109440,1,2,0:0:0:0:
309,224,109633,1,2,0:0:0:0:
271,224,109729,1,0,0:0:0:0:
233,224,109825,1,2,0:0:0:0:
83,224,110017,1,0,0:0:0:0:
83,74,110209,1,2,0:0:0:0:
233,74,110402,1,0,0:0:0:0:
383,74,110593,6,0,L|383:227,1,150.000005722046,8|0,0:0|0:0,0:0:0:0:
233,224,110979,1,2,0:0:0:0:
233,74,111171,1,0,0:0:0:0:
83,74,111363,1,2,0:0:0:0:
83,224,111556,1,0,0:0:0:0:
83,374,111748,2,0,L|164:374,1,75.0000028610231,4|0,0:0|0:0,0:0:0:0:
83,224,111940,2,0,L|164:224,1,75.0000028610231,2|0,0:0|0:0,0:0:0:0:
83,74,112133,54,0,L|233:74,1,150.000005722046,4|0,0:0|0:0,0:0:0:0:
367,74,112517,2,0,L|286:74,1,75.0000028610231,4|0,0:0|0:0,0:0:0:0:
367,224,112709,2,0,L|286:224,1,75.0000028610231,2|0,0:0|0:0,0:0:0:0:
367,374,112902,6,0,L|217:374,1,150.000005722046,4|0,0:0|0:0,0:0:0:0:
83,374,113286,1,2,0:0:0:0:
217,374,113479,1,2,0:0:0:0:
83,374,113671,54,0,L|83:218,1,150.000005722046,4|0,0:0|0:0,0:0:0:0:
83,88,114056,2,2,L|83:42,22,37.5000014305115,2|2|2|2|2|2|2|2|2|2|2|2|2|2|2|2|2|2|2|2|2|2|2,3:2|3:2|3:2|3:2|3:2|3:2|3:2|3:2|3:2|3:2|3:2|3:2|3:2|3:2|3:2|3:2|3:2|3:2|3:2|3:2|3:2|3:2|3:2,3:2:0:0:
106,123,115208,5,2,0:0:0:0:
180,94,115410,1,0,0:0:0:0:
209,168,115613,1,2,0:0:0:0:
283,139,115816,1,0,0:0:0:0:
312,213,116018,1,2,0:0:0:0:
238,242,116221,1,0,0:0:0:0:
164,271,116424,1,2,0:0:0:0:
193,345,116626,1,0,0:0:0:0:
286,381,116829,53,2,0:0:0:0:
286,381,117032,1,0,0:0:0:0:
357,344,117235,1,2,0:0:0:0:
428,307,117437,1,0,0:0:0:0:
378,231,117640,1,2,0:3:0:0:
465,173,117843,1,2,0:3:0:0:
408,85,118045,1,2,0:3:0:0:
319,142,118248,1,2,0:3:0:0:
230,199,118451,5,2,0:0:0:0:
141,256,118653,1,0,0:0:0:0:
198,345,118856,1,2,0:0:0:0:
230,199,119262,1,2,0:0:0:0:
173,110,119464,1,0,0:0:0:0:
116,21,119667,1,2,0:0:0:0:
27,78,119870,1,0,0:0:0:0:
84,167,120072,53,2,0:0:0:0:
173,110,120275,1,0,0:0:0:0:
262,53,120478,1,2,0:0:0:0:
319,142,120680,1,2,0:3:0:0:
348,187,120782,1,2,0:3:0:0:
376,231,120883,1,2,0:3:0:0:
433,320,121086,1,2,0:3:0:0:
376,231,121289,1,2,0:0:0:0:
465,174,121491,1,0,0:0:0:0:
376,231,121694,5,2,0:0:0:0:
319,142,121897,1,0,0:0:0:0:
408,85,122099,1,2,0:0:0:0:
465,174,122302,1,0,0:0:0:0:
376,231,122505,1,2,0:0:0:0:
287,288,122708,1,0,0:0:0:0:
230,199,122910,1,2,0:0:0:0:
319,142,123113,1,0,0:0:0:0:
319,142,123316,53,2,0:0:0:0:
230,199,123518,1,0,0:0:0:0:
141,256,123721,1,2,0:0:0:0:
52,313,123924,1,0,0:0:0:0:
84,167,124126,1,2,0:3:0:0:
230,199,124329,1,2,0:3:0:0:
84,167,124532,1,2,0:3:0:0:
230,199,124735,1,2,0:3:0:0:
376,231,124937,5,2,0:0:0:0:
408,85,125140,1,0,0:0:0:0:
262,53,125343,1,2,0:0:0:0:
230,199,125545,1,0,0:0:0:0:
198,345,125748,1,2,0:0:0:0:
344,377,125951,1,0,0:0:0:0:
376,231,126153,1,2,0:0:0:0:
230,199,126356,1,0,0:0:0:0:
84,167,126559,54,0,L|56:162,26,25
130,177,127978,1,2,0:0:0:0:
180,188,128079,1,2,0:0:0:0:
230,199,128180,6,0,L|444:199,1,200,4|0,0:0|0:0,0:0:0:0:
430,127,128789,2,0,L|230:127,1,200,4|0,0:0|0:0,0:0:0:0:
282,55,129397,2,2,L|382:55,1,100,2|2,0:3|0:3,0:3:0:0:
430,127,129802,54,0,L|230:127,1,200,4|0,0:0|0:0,0:0:0:0:
230,199,130411,2,0,L|430:199,1,200,4|0,0:0|0:0,0:0:0:0:
382,271,131019,2,2,L|282:271,1,100,2|2,0:3|0:3,0:3:0:0:
282,199,131424,6,2,L|382:199,1,100,2|2,0:3|0:3,0:0:0:0:
382,127,131829,2,0,L|282:127,1,100
182,127,132235,2,2,L|282:127,1,100,2|2,0:3|0:3,0:3:0:0:
282,55,132640,2,0,L|182:55,1,100
91,55,133045,54,0,L|91:265,1,200,4|0,0:0|0:0,0:0:0:0:
230,301,133653,1,0,0:0:0:0:
177,228,133856,1,2,0:3:0:0:
91,255,134058,1,0,0:0:0:0:
91,345,134262,1,2,0:3:0:0:
177,373,134465,1,0,0:0:0:0:
230,301,134667,6,0,L|440:301,1,200,4|0,0:1|0:0,0:0:0:0:
430,229,135275,2,0,L|230:229,1,200,4|0,0:1|0:0,0:0:0:0:
282,157,135883,2,2,L|382:157,1,100,2|2,0:3|0:3,0:3:0:0:
430,229,136289,54,0,L|230:229,1,200,4|0,0:1|0:0,0:0:0:0:
231,157,136897,2,0,L|431:157,1,200,4|0,0:1|0:0,0:0:0:0:
382,85,137505,2,2,L|282:85,1,100,2|2,0:3|0:3,0:3:0:0:
282,157,137910,6,2,L|382:157,1,100,2|2,0:3|0:3,0:3:0:0:
382,229,138316,2,0,L|282:229,1,100
282,301,138721,2,2,L|382:301,1,100,2|2,0:3|0:3,0:3:0:0:
382,373,139126,2,0,L|282:373,1,100
182,373,139532,2,2,L|154:373,30,25,2|2|2|2|2|2|2|2|2|2|2|2|2|2|2|2|2|2|2|2|2|2|2|2|2|2|2|2|2|2|2,2:0|2:0|2:0|2:0|2:0|2:0|2:0|2:0|2:0|2:0|2:0|2:0|2:0|2:0|2:0|2:0|2:0|2:0|2:0|2:0|2:0|2:0|2:0|2:0|2:0|2:0|2:0|2:0|2:0|2:0|2:0,2:0:0:0:
205,373,141153,53,14,1:3:0:0:
244,117,142814,5,0,0:0:0:0:
278,215,142961,1,0,0:0:0:0:
243,310,143108,1,0,0:0:0:0:
186,232,143255,5,0,0:0:0:0:
350,294,143402,2,0,P|381:254|385:205,1,100
251,58,143696,2,0,P|269:103|309:132,1,100
505,90,143990,1,0,0:0:0:0:
469,161,144137,21,0,0:0:0:0:
430,20,144284,2,0,P|384:0|334:0,1,100
251,206,144579,2,0,P|296:225|346:226,1,100
185,30,144873,1,0,0:0:0:0:
182,173,145020,5,0,0:0:0:0:
185,30,145167,2,0,P|250:11|295:34,1,100
44,113,145461,2,0,P|30:65|46:19,1,100
263,124,145755,2,0,P|277:172|261:218,1,100
27,140,146049,5,0,0:0:0:0:
192,79,146196,1,0,0:0:0:0:
21,230,146343,1,0,0:0:0:0:
120,31,146490,1,0,0:0:0:0:
85,291,146637,6,0,P|136:324|194:325,1,100
345,192,146932,1,0,0:0:0:0:
167,192,147079,1,0,0:0:0:0:
427,291,147226,2,0,P|376:324|318:325,1,100
192,115,147520,21,0,0:0:0:0:
197,87,147593,1,0,0:0:0:0:
211,62,147667,1,0,0:0:0:0:
230,43,147740,1,0,0:0:0:0:
256,26,147814,5,0,0:0:0:0:
291,124,147961,1,0,0:0:0:0:
141,21,148108,1,0,0:0:0:0:
342,56,148255,1,0,0:0:0:0:
120,122,148402,1,0,0:0:0:0:
223,251,148549,1,0,0:0:0:0:
208,121,148696,1,0,0:0:0:0:
149,275,148843,1,0,0:0:0:0:
295,141,148990,6,0,P|346:135|401:160,1,100
191,359,149284,2,0,P|140:365|85:340,1,100
331,236,149579,1,0,0:0:0:0:
167,194,149726,5,0,0:0:0:0:
462,202,149873,2,0,P|479:153|456:96,1,100
256,44,150167,1,0,0:0:0:0:
236,44,150240,1,0,0:0:0:0:
216,46,150314,1,0,0:0:0:0:
197,53,150387,1,0,0:0:0:0:
179,63,150461,1,0,0:0:0:0:
138,174,150608,1,0,0:0:0:0:
251,143,150755,21,0,0:0:0:0:
256,167,150829,1,0,0:0:0:0:
256,191,150902,1,0,0:0:0:0:
249,215,150976,1,0,0:0:0:0:
235,235,151049,1,0,0:0:0:0:
138,174,151196,1,0,0:0:0:0:
131,297,151343,5,0,0:0:0:0:
146,322,151417,1,0,0:0:0:0:
170,338,151490,1,0,0:0:0:0:
256,304,151637,1,0,0:0:0:0:
291,307,151711,1,0,0:0:0:0:
322,322,151784,1,0,0:0:0:0:
398,373,151932,1,0,0:0:0:0:
425,343,152005,1,0,0:0:0:0:
432,303,152079,1,0,0:0:0:0:
426,263,152152,1,0,0:0:0:0:
412,225,152226,1,0,0:0:0:0:
402,186,152299,1,0,0:0:0:0:
402,145,152373,1,0,0:0:0:0:
412,106,152446,1,0,0:0:0:0:
430,69,152520,6,0,P|392:101|343:111,1,100
256,28,152814,1,0,0:0:0:0:
342,179,152961,2,0,P|315:220|268:233,1,100
104,141,153255,1,0,0:0:0:0:
178,82,153402,1,0,0:0:0:0:
119,235,153549,1,0,0:0:0:0:
15,106,153696,5,0,0:0:0:0:
178,82,153843,1,0,0:0:0:0:
118,235,153990,2,0,P|109:283|120:332,1,100
214,382,154284,1,0,0:0:0:0:
197,174,154432,1,0,0:0:0:0:
287,273,154579,2,0,L|326:286,6,25
275,228,154873,22,0,P|288:180|280:131,1,100
261,347,155167,2,0,P|307:362|356:354,1,100
171,278,155461,1,0,0:0:0:0:
318,185,155608,1,0,0:0:0:0:
479,271,155755,1,0,0:0:0:0:
479,238,155829,1,0,0:0:0:0:
479,205,155902,1,0,0:0:0:0:
479,172,155976,1,0,0:0:0:0:
478,143,156049,6,0,P|442:108|396:87,1,100
300,276,156343,2,0,P|349:267|393:242,1,100
304,68,156637,1,0,0:0:0:0:
259,46,156710,1,0,0:0:0:0:
210,37,156784,1,0,0:0:0:0:
160,42,156857,1,0,0:0:0:0:
113,59,156931,1,0,0:0:0:0:
73,89,157004,1,0,0:0:0:0:
43,129,157078,1,0,0:0:0:0:
29,177,157152,1,0,0:0:0:0:
32,227,157226,6,0,L|43:259,8,25
139,231,157667,6,0,L|148:258,6,16.6666666666667
192,156,157961,2,0,L|183:129,9,16.6666666666667
224,174,158255,1,0,0:0:0:0:
256,192,158402,22,0,L|299:146,1,50
276,276,158696,1,0,0:0:0:0:
381,159,158843,1,0,0:0:0:0:
296,360,159137,1,0,0:0:0:0:
471,161,159284,6,0,P|425:78|330:79,1,200
207,134,161932,5,0,0:0:0:0:
269,204,162079,1,0,0:0:0:0:
149,206,162226,1,0,0:0:0:0:
284,127,162373,1,0,0:0:0:0:
213,276,162520,1,0,0:0:0:0:
341,179,162667,1,0,0:0:0:0:
306,288,162814,1,0,0:0:0:0:
353,105,162961,1,0,0:0:0:0:
401,302,163108,5,0,0:0:0:0:
341,179,163255,1,0,0:0:0:0:
207,134,163402,1,0,0:0:0:0:
498,202,163549,21,0,0:0:0:0:
341,179,163696,1,0,0:0:0:0:
213,276,163843,1,0,0:0:0:0:
55,252,163990,2,0,P|45:204|56:155,1,100
274,86,164284,6,0,P|284:134|273:183,1,100
140,90,164579,1,0,0:0:0:0:
351,107,164726,1,0,0:0:0:0:
