osu file format v14

[General]
AudioFilename: audio.mp3
AudioLeadIn: 0
PreviewTime: 85417
Countdown: 0
SampleSet: Normal
StackLeniency: 0.2
Mode: 1
LetterboxInBreaks: 0
WidescreenStoryboard: 0

[Editor]
DistanceSpacing: 1
BeatDivisor: 4
GridSize: 32
TimelineZoom: 2.999999

[Metadata]
Title:Verse IV
TitleUnicode:Verse IV
Artist:ZOGRAPHOS (Yu_Asahina+Yamajet)
ArtistUnicode:ZOGRAPHOS (Yu_Asahina+Yamajet)
Creator:Vulkin
Version:Lose Your Rhythm
Source:SOUND VOLTEX II -infinite infection-
Tags:KAC2013オリジナル楽曲コンテスト Original Song Contest Bemani Konami 4 Four BMS Ultimate Tracks -Legend of KAC-
BeatmapID:1805734
BeatmapSetID:863289

[Difficulty]
HPDrainRate:6
CircleSize:7
OverallDifficulty:7.5
ApproachRate:10
SliderMultiplier:1.4
SliderTickRate:1

[Events]
//Background and Video events
0,0,"e5e7cfa540cbf6882412dc23abd3796b.jpg",0,0
//Break Periods
//Storyboard Layer 0 (Background)
//Storyboard Layer 1 (Fail)
//Storyboard Layer 2 (Pass)
//Storyboard Layer 3 (Foreground)
//Storyboard Sound Samples

[TimingPoints]
804,283.018867924528,6,1,0,70,1,0
804,-88.8888888888889,6,1,0,70,0,0
945,-66.6666666666667,6,1,0,70,0,0
2502,-100,6,1,0,70,0,0
4058,283.018867924528,6,1,0,70,1,0
7029,283.018867924528,6,1,0,70,1,0
7524,283.018867924528,6,1,0,70,1,0
7877,283.018867924528,5,1,0,70,1,0
9292,283.018867924528,6,1,0,70,1,0
12405,-66.6666666666667,6,1,0,70,0,0
12546,283.018867924528,6,1,0,70,1,0
12546,-57.1428571428571,6,1,0,70,0,0
13253,283.018867924528,6,1,0,70,1,0
13253,-66.6666666666667,6,1,0,70,0,0
13323,-100,6,1,0,70,0,0
14668,283.018867924528,7,1,0,70,1,0
16649,283.018867924528,5,1,0,70,1,0
18064,283.018867924528,7,1,0,70,1,0
20045,283.018867924528,5,1,0,70,1,0
21460,283.018867924528,6,1,0,70,1,0
24856,283.018867924528,7,1,0,70,1,0
26837,283.018867924528,6,1,0,70,1,0
39926,-95.2380952380952,6,1,0,70,0,0
39997,-90.9090909090909,6,1,0,70,0,0
40068,-86.9565217391304,6,1,0,70,0,0
40138,-83.3333333333333,6,1,0,70,0,0
40209,-80,6,1,0,70,0,0
40280,-76.9230769230769,6,1,0,70,0,0
40351,-74.0740740740741,6,1,0,70,0,0
40421,-71.4285714285714,6,1,0,70,0,0
40492,-100,6,1,0,70,0,0
44950,283.018867924528,3,1,0,70,1,0
45799,283.018867924528,6,1,0,70,1,0
50327,283.018867924528,3,1,0,70,1,0
51034,-90.9090909090909,3,1,0,70,0,0
51176,283.018867924528,6,1,0,70,1,0
51176,-83.3333333333333,6,1,0,70,0,1
55704,283.018867924528,3,1,0,70,1,1
55704,-83.3333333333333,3,1,0,70,0,1
55987,-83.3333333333333,3,1,0,70,0,0
56199,-86.9565217391304,3,1,0,70,0,0
56411,-89.2857142857143,3,1,0,70,0,0
56482,-90.0900900900901,3,1,0,70,0,0
56553,283.018867924528,6,1,0,70,1,0
56553,-90.9090909090909,6,1,0,70,0,0
60939,-89.2857142857143,6,1,0,70,0,0
61010,-87.719298245614,6,1,0,70,0,0
61081,283.018867924528,3,1,0,70,1,0
61081,-86.2068965517241,3,1,0,70,0,0
61151,-84.7457627118644,3,1,0,70,0,0
61222,-83.3333333333333,3,1,0,70,0,0
61293,-81.9672131147541,3,1,0,70,0,0
61364,-80.6451612903226,3,1,0,70,0,0
61434,-79.3650793650794,3,1,0,70,0,0
61505,-78.125,3,1,0,70,0,0
61576,-76.9230769230769,3,1,0,70,0,0
61647,-75.7575757575758,3,1,0,70,0,0
61717,-74.6268656716418,3,1,0,70,0,0
61788,-73.5294117647059,3,1,0,70,0,0
61859,-72.463768115942,3,1,0,70,0,0
61930,283.018867924528,6,1,0,70,1,0
61930,-71.4285714285714,6,1,0,70,0,0
62213,-84.7457627118644,6,1,0,70,0,0
62354,-87.719298245614,6,1,0,70,0,0
62425,-89.2857142857143,6,1,0,70,0,0
62496,-90.9090909090909,6,1,0,70,0,0
62637,-94.3396226415094,6,1,0,70,0,0
62779,-98.0392156862745,6,1,0,70,0,0
62920,-100,6,1,0,70,0,0
68156,283.018867924528,6,1,0,70,1,0
71269,283.018867924528,6,1,0,70,1,0
76221,283.018867924528,6,1,0,70,1,0
77777,283.018867924528,6,1,0,70,1,0
79333,283.018867924528,6,1,0,70,1,0
80889,283.018867924528,6,1,0,70,1,0
85417,283.018867924528,4,1,0,70,1,0
86266,283.018867924528,6,1,0,70,1,1
87964,283.018867924528,4,1,0,70,1,1
90228,283.018867924528,6,1,0,70,1,1
91926,283.018867924528,4,1,0,70,1,1
94190,283.018867924528,5,1,0,70,1,1
95605,283.018867924528,4,1,0,70,1,1
97869,283.018867924528,7,1,0,70,1,1
101548,283.018867924528,7,1,0,70,1,1
109472,283.018867924528,3,1,0,70,1,0
112726,283.018867924528,4,1,0,70,1,0
117254,283.018867924528,7,1,0,70,1,0

[HitObjects]
256,192,733,5,0,0:0:0:0:
256,192,804,1,12,0:0:0:0:
256,192,945,12,0,2360,0:0:0:0:
256,192,2502,5,0,0:0:0:0:
256,192,2572,1,8,0:0:0:0:
256,192,2643,1,8,0:0:0:0:
256,192,2714,1,0,0:0:0:0:
256,192,2785,1,8,0:0:0:0:
256,192,2855,1,8,0:0:0:0:
256,192,2926,1,0,0:0:0:0:
256,192,2997,1,0,0:0:0:0:
256,192,3068,1,8,0:0:0:0:
256,192,3138,1,0,0:0:0:0:
256,192,3209,1,8,0:0:0:0:
256,192,3280,1,8,0:0:0:0:
256,192,3421,1,0,0:0:0:0:
256,192,3492,1,0,0:0:0:0:
256,192,3563,1,0,0:0:0:0:
256,192,3634,1,8,0:0:0:0:
256,192,3704,1,0,0:0:0:0:
256,192,3775,1,0,0:0:0:0:
256,192,3846,1,0,0:0:0:0:
256,192,3917,1,0,0:0:0:0:
256,192,3987,1,0,0:0:0:0:
256,192,4058,1,8,0:0:0:0:
256,192,4128,1,8,0:0:0:0:
256,192,4199,1,0,0:0:0:0:
256,192,4270,1,8,0:0:0:0:
256,192,4341,1,0,0:0:0:0:
256,192,4411,1,0,0:0:0:0:
256,192,4482,1,8,0:0:0:0:
256,192,4553,1,0,0:0:0:0:
256,192,4624,1,0,0:0:0:0:
256,192,4694,1,8,0:0:0:0:
256,192,4765,1,8,0:0:0:0:
256,192,4836,1,0,0:0:0:0:
256,192,4907,1,8,0:0:0:0:
256,192,4977,1,8,0:0:0:0:
256,192,5083,1,0,0:0:0:0:
256,192,5190,1,8,0:0:0:0:
256,192,5260,1,0,0:0:0:0:
256,192,5331,1,0,0:0:0:0:
256,192,5402,1,0,0:0:0:0:
256,192,5473,1,0,0:0:0:0:
256,192,5543,1,0,0:0:0:0:
256,192,5614,1,0,0:0:0:0:
256,192,5685,1,0,0:0:0:0:
256,192,5756,1,8,0:0:0:0:
256,192,5826,1,8,0:0:0:0:
256,192,5897,1,8,0:0:0:0:
256,192,5968,1,0,0:0:0:0:
256,192,6039,1,8,0:0:0:0:
256,192,6109,1,8,0:0:0:0:
256,192,6180,1,0,0:0:0:0:
256,192,6251,1,0,0:0:0:0:
256,192,6322,1,8,0:0:0:0:
256,192,6392,1,0,0:0:0:0:
256,192,6463,1,8,0:0:0:0:
256,192,6534,1,8,0:0:0:0:
256,192,6605,1,0,0:0:0:0:
256,192,6675,1,0,0:0:0:0:
256,192,6746,1,8,0:0:0:0:
256,192,6817,1,0,0:0:0:0:
256,192,6888,1,0,0:0:0:0:
256,192,6958,1,0,0:0:0:0:
256,192,7029,1,8,0:0:0:0:
256,192,7099,1,8,0:0:0:0:
256,192,7170,1,0,0:0:0:0:
256,192,7241,1,8,0:0:0:0:
256,192,7312,1,0,0:0:0:0:
256,192,7382,1,8,0:0:0:0:
256,192,7524,1,4,0:0:0:0:
256,192,7877,1,0,0:0:0:0:
256,192,8018,1,0,0:0:0:0:
256,192,8160,1,8,0:0:0:0:
256,192,8443,1,0,0:0:0:0:
256,192,8584,1,8,0:0:0:0:
256,192,8655,1,8,0:0:0:0:
256,192,8726,1,0,0:0:0:0:
256,192,8867,1,8,0:0:0:0:
256,192,9009,1,0,0:0:0:0:
256,192,9079,1,0,0:0:0:0:
256,192,9150,1,8,0:0:0:0:
256,192,9221,1,0,0:0:0:0:
256,192,9292,1,8,0:0:0:0:
256,192,9386,1,8,0:0:0:0:
256,192,9480,1,0,0:0:0:0:
256,192,9527,1,0,0:0:0:0:
256,192,9575,1,8,0:0:0:0:
256,192,9669,1,0,0:0:0:0:
256,192,9763,1,0,0:0:0:0:
256,192,9858,1,8,0:0:0:0:
256,192,9905,1,8,0:0:0:0:
256,192,9952,1,0,0:0:0:0:
256,192,10046,1,8,0:0:0:0:
256,192,10141,1,0,0:0:0:0:
256,192,10235,1,0,0:0:0:0:
256,192,10329,1,8,0:0:0:0:
256,192,10376,1,0,0:0:0:0:
256,192,10424,1,8,0:0:0:0:
256,192,10471,1,8,0:0:0:0:
256,192,10518,1,0,0:0:0:0:
256,192,10612,1,0,0:0:0:0:
256,192,10659,1,0,0:0:0:0:
256,192,10707,1,8,0:0:0:0:
256,192,10754,1,8,0:0:0:0:
256,192,10801,1,0,0:0:0:0:
256,192,10895,1,8,0:0:0:0:
256,192,10990,1,4,0:0:0:0:
256,192,12405,1,0,0:0:0:0:
256,192,12546,1,12,0:0:0:0:
256,192,13253,1,12,0:0:0:0:
256,192,13394,1,0,0:0:0:0:
256,192,13465,1,0,0:0:0:0:
256,192,13536,1,8,0:0:0:0:
256,192,13677,1,0,0:0:0:0:
256,192,13748,1,8,0:0:0:0:
256,192,13889,1,8,0:0:0:0:
256,192,13960,1,0,0:0:0:0:
256,192,14102,1,8,0:0:0:0:
256,192,14172,1,8,0:0:0:0:
256,192,14243,1,0,0:0:0:0:
256,192,14385,1,8,0:0:0:0:
256,192,14526,1,0,0:0:0:0:
256,192,14668,1,0,0:0:0:0:
256,192,14738,1,8,0:0:0:0:
256,192,14880,1,8,0:0:0:0:
256,192,14951,1,8,0:0:0:0:
256,192,15092,1,0,0:0:0:0:
256,192,15163,1,8,0:0:0:0:
256,192,15304,1,8,0:0:0:0:
256,192,15375,1,0,0:0:0:0:
256,192,15517,1,8,0:0:0:0:
256,192,15658,1,0,0:0:0:0:
256,192,15800,1,8,0:0:0:0:
256,192,15870,1,0,0:0:0:0:
256,192,15941,1,8,0:0:0:0:
256,192,16083,1,8,0:0:0:0:
256,192,16224,1,8,0:0:0:0:
256,192,16295,1,0,0:0:0:0:
256,192,16366,1,0,0:0:0:0:
256,192,16436,1,8,0:0:0:0:
256,192,16507,1,0,0:0:0:0:
256,192,16578,1,0,0:0:0:0:
256,192,16649,1,8,0:0:0:0:
256,192,16790,1,0,0:0:0:0:
256,192,16861,1,8,0:0:0:0:
256,192,16932,1,8,0:0:0:0:
256,192,17002,1,0,0:0:0:0:
256,192,17073,1,8,0:0:0:0:
256,192,17215,1,8,0:0:0:0:
256,192,17285,1,8,0:0:0:0:
256,192,17356,1,0,0:0:0:0:
256,192,17498,1,8,0:0:0:0:
256,192,17639,1,0,0:0:0:0:
256,192,17710,1,0,0:0:0:0:
256,192,17781,1,8,0:0:0:0:
256,192,17851,1,0,0:0:0:0:
256,192,17922,1,8,0:0:0:0:
256,192,18064,1,0,0:0:0:0:
256,192,18134,1,8,0:0:0:0:
256,192,18276,1,8,0:0:0:0:
256,192,18347,1,8,0:0:0:0:
256,192,18488,1,0,0:0:0:0:
256,192,18559,1,8,0:0:0:0:
256,192,18630,1,0,0:0:0:0:
256,192,18700,1,0,0:0:0:0:
256,192,18771,1,8,0:0:0:0:
256,192,18842,1,8,0:0:0:0:
256,192,18913,1,0,0:0:0:0:
256,192,19054,1,0,0:0:0:0:
256,192,19125,1,8,0:0:0:0:
256,192,19196,1,8,0:0:0:0:
256,192,19266,1,0,0:0:0:0:
256,192,19337,1,8,0:0:0:0:
256,192,19408,1,0,0:0:0:0:
256,192,19479,1,8,0:0:0:0:
256,192,19549,1,8,0:0:0:0:
256,192,19620,1,0,0:0:0:0:
256,192,19691,1,8,0:0:0:0:
256,192,19762,1,0,0:0:0:0:
256,192,19832,1,0,0:0:0:0:
256,192,19903,1,8,0:0:0:0:
256,192,19974,1,8,0:0:0:0:
256,192,20045,1,0,0:0:0:0:
256,192,20115,1,8,0:0:0:0:
256,192,20257,1,8,0:0:0:0:
256,192,20328,1,8,0:0:0:0:
256,192,20469,1,8,0:0:0:0:
256,192,20540,1,0,0:0:0:0:
256,192,20681,1,8,0:0:0:0:
256,192,20752,1,0,0:0:0:0:
256,192,20894,1,8,0:0:0:0:
256,192,21035,1,0,0:0:0:0:
256,192,21106,1,0,0:0:0:0:
256,192,21177,1,8,0:0:0:0:
256,192,21247,1,0,0:0:0:0:
256,192,21318,1,8,0:0:0:0:
256,192,21460,1,0,0:0:0:0:
256,192,21530,1,8,0:0:0:0:
256,192,21672,1,8,0:0:0:0:
256,192,21743,1,0,0:0:0:0:
256,192,21884,1,8,0:0:0:0:
256,192,21955,1,0,0:0:0:0:
256,192,22096,1,8,0:0:0:0:
256,192,22167,1,0,0:0:0:0:
256,192,22309,1,8,0:0:0:0:
256,192,22379,1,8,0:0:0:0:
256,192,22450,1,0,0:0:0:0:
256,192,22592,1,8,0:0:0:0:
256,192,22662,1,0,0:0:0:0:
256,192,22733,1,8,0:0:0:0:
256,192,22875,1,0,0:0:0:0:
256,192,23016,1,8,0:0:0:0:
256,192,23158,1,0,0:0:0:0:
256,192,23228,1,8,0:0:0:0:
256,192,23370,1,8,0:0:0:0:
256,192,23441,1,8,0:0:0:0:
256,192,23582,1,0,0:0:0:0:
256,192,23653,1,8,0:0:0:0:
256,192,23794,1,8,0:0:0:0:
256,192,23865,1,0,0:0:0:0:
256,192,24007,1,8,0:0:0:0:
256,192,24148,1,0,0:0:0:0:
256,192,24290,1,8,0:0:0:0:
256,192,24360,1,0,0:0:0:0:
256,192,24431,1,8,0:0:0:0:
256,192,24573,1,0,0:0:0:0:
256,192,24714,1,8,0:0:0:0:
256,192,24856,1,0,0:0:0:0:
256,192,24926,1,8,0:0:0:0:
256,192,24997,1,0,0:0:0:0:
256,192,25068,1,8,0:0:0:0:
256,192,25139,1,8,0:0:0:0:
256,192,25280,1,0,0:0:0:0:
256,192,25351,1,8,0:0:0:0:
256,192,25492,1,8,0:0:0:0:
256,192,25563,1,0,0:0:0:0:
256,192,25634,1,8,0:0:0:0:
256,192,25775,1,0,0:0:0:0:
256,192,25846,1,8,0:0:0:0:
256,192,25917,1,0,0:0:0:0:
256,192,25988,1,8,0:0:0:0:
256,192,26058,1,8,0:0:0:0:
256,192,26129,1,0,0:0:0:0:
256,192,26200,1,0,0:0:0:0:
256,192,26271,1,8,0:0:0:0:
256,192,26341,1,8,0:0:0:0:
256,192,26412,1,0,0:0:0:0:
256,192,26483,1,8,0:0:0:0:
256,192,26554,1,0,0:0:0:0:
256,192,26624,1,0,0:0:0:0:
256,192,26695,1,8,0:0:0:0:
256,192,26766,1,8,0:0:0:0:
256,192,26837,1,4,0:0:0:0:
256,192,27120,1,0,0:0:0:0:
256,192,27403,1,0,0:0:0:0:
256,192,27686,1,0,0:0:0:0:
256,192,27969,1,0,0:0:0:0:
256,192,28252,1,8,0:0:0:0:
256,192,28393,1,8,0:0:0:0:
256,192,28464,1,8,0:0:0:0:
256,192,28535,1,0,0:0:0:0:
256,192,28818,1,0,0:0:0:0:
256,192,28959,1,0,0:0:0:0:
256,192,29101,1,8,0:0:0:0:
256,192,29242,1,0,0:0:0:0:
256,192,29384,1,8,0:0:0:0:
256,192,29667,1,0,0:0:0:0:
256,192,29808,1,0,0:0:0:0:
256,192,29950,1,0,0:0:0:0:
256,192,30091,1,8,0:0:0:0:
256,192,30162,1,0,0:0:0:0:
256,192,30233,1,8,0:0:0:0:
256,192,30303,1,8,0:0:0:0:
256,192,30374,1,0,0:0:0:0:
256,192,30516,1,0,0:0:0:0:
256,192,30799,1,0,0:0:0:0:
256,192,31082,1,8,0:0:0:0:
256,192,31223,1,0,0:0:0:0:
256,192,31365,1,8,0:0:0:0:
256,192,31506,1,8,0:0:0:0:
256,192,31648,1,0,0:0:0:0:
256,192,31789,1,0,0:0:0:0:
256,192,31931,1,0,0:0:0:0:
256,192,32072,1,12,0:0:0:0:
256,192,32355,1,0,0:0:0:0:
256,192,32497,1,12,0:0:0:0:
256,192,32780,1,0,0:0:0:0:
256,192,32921,1,12,0:0:0:0:
256,192,33204,1,8,0:0:0:0:
256,192,33346,1,12,0:0:0:0:
256,192,33487,1,0,0:0:0:0:
256,192,33558,1,0,0:0:0:0:
256,192,33629,1,8,0:0:0:0:
256,192,33700,1,8,0:0:0:0:
256,192,33841,1,0,0:0:0:0:
256,192,33912,1,8,0:0:0:0:
256,192,34053,1,8,0:0:0:0:
256,192,34124,1,0,0:0:0:0:
256,192,34195,1,0,0:0:0:0:
256,192,34266,1,8,0:0:0:0:
256,192,34336,1,0,0:0:0:0:
256,192,34478,1,8,0:0:0:0:
256,192,34620,1,0,0:0:0:0:
256,192,34761,1,8,0:0:0:0:
256,192,34832,1,0,0:0:0:0:
256,192,34903,1,8,0:0:0:0:
256,192,34973,1,8,0:0:0:0:
256,192,35044,1,0,0:0:0:0:
256,192,35115,1,8,0:0:0:0:
256,192,35256,1,8,0:0:0:0:
256,192,35327,1,8,0:0:0:0:
256,192,35469,1,0,0:0:0:0:
256,192,35539,1,8,0:0:0:0:
256,192,35681,1,8,0:0:0:0:
256,192,35752,1,0,0:0:0:0:
256,192,35893,1,8,0:0:0:0:
256,192,35964,1,8,0:0:0:0:
256,192,36105,1,8,0:0:0:0:
256,192,36247,1,0,0:0:0:0:
256,192,36318,1,0,0:0:0:0:
256,192,36388,1,8,0:0:0:0:
256,192,36459,1,8,0:0:0:0:
256,192,36530,1,8,0:0:0:0:
256,192,36601,1,0,0:0:0:0:
256,192,36671,1,0,0:0:0:0:
256,192,36742,1,8,0:0:0:0:
256,192,36813,1,8,0:0:0:0:
256,192,36884,1,0,0:0:0:0:
256,192,36954,1,0,0:0:0:0:
256,192,37025,1,12,0:0:0:0:
256,192,37167,1,8,0:0:0:0:
256,192,37237,1,0,0:0:0:0:
256,192,37308,1,0,0:0:0:0:
256,192,37379,1,8,0:0:0:0:
256,192,37450,1,8,0:0:0:0:
256,192,37520,1,0,0:0:0:0:
256,192,37591,1,8,0:0:0:0:
256,192,37662,1,0,0:0:0:0:
256,192,37733,1,8,0:0:0:0:
256,192,37803,1,0,0:0:0:0:
256,192,37874,1,8,0:0:0:0:
256,192,37945,1,8,0:0:0:0:
256,192,38016,1,8,0:0:0:0:
256,192,38086,1,0,0:0:0:0:
256,192,38157,1,8,0:0:0:0:
256,192,38228,1,0,0:0:0:0:
256,192,38299,1,8,0:0:0:0:
256,192,38370,1,8,0:0:0:0:
256,192,38440,1,0,0:0:0:0:
256,192,38511,1,0,0:0:0:0:
256,192,38582,1,8,0:0:0:0:
256,192,38653,1,0,0:0:0:0:
256,192,38723,1,8,0:0:0:0:
256,192,38794,1,0,0:0:0:0:
256,192,38865,1,8,0:0:0:0:
256,192,39006,1,0,0:0:0:0:
256,192,39112,1,8,0:0:0:0:
256,192,39219,1,0,0:0:0:0:
256,192,39289,1,8,0:0:0:0:
256,192,39431,1,0,0:0:0:0:
256,192,39502,1,8,0:0:0:0:
256,192,39714,1,0,0:0:0:0:
256,192,39855,1,8,0:0:0:0:
256,192,39926,1,0,0:0:0:0:
256,192,39997,1,8,0:0:0:0:
256,192,40068,1,8,0:0:0:0:
256,192,40138,1,8,0:0:0:0:
256,192,40209,1,8,0:0:0:0:
256,192,40280,1,8,0:0:0:0:
256,192,40351,1,8,0:0:0:0:
256,192,40421,1,4,0:0:0:0:
256,192,40563,1,8,0:0:0:0:
256,192,40987,1,8,0:0:0:0:
256,192,41129,1,0,0:0:0:0:
256,192,41200,1,0,0:0:0:0:
256,192,41270,1,8,0:0:0:0:
256,192,41412,1,0,0:0:0:0:
256,192,41695,1,8,0:0:0:0:
256,192,41766,1,8,0:0:0:0:
256,192,41837,1,0,0:0:0:0:
256,192,41978,1,8,0:0:0:0:
256,192,42120,1,0,0:0:0:0:
256,192,42261,1,8,0:0:0:0:
256,192,42544,1,0,0:0:0:0:
256,192,42686,1,8,0:0:0:0:
256,192,42827,1,8,0:0:0:0:
256,192,42898,1,8,0:0:0:0:
256,192,42969,1,0,0:0:0:0:
256,192,43110,1,8,0:0:0:0:
256,192,43252,1,0,0:0:0:0:
256,192,43393,1,8,0:0:0:0:
256,192,43464,1,0,0:0:0:0:
256,192,43535,1,8,0:0:0:0:
256,192,43676,1,8,0:0:0:0:
256,192,43747,1,0,0:0:0:0:
256,192,43818,1,8,0:0:0:0:
256,192,43888,1,8,0:0:0:0:
256,192,43959,1,0,0:0:0:0:
256,192,44030,1,0,0:0:0:0:
256,192,44101,1,8,0:0:0:0:
256,192,44171,1,8,0:0:0:0:
256,192,44242,1,8,0:0:0:0:
256,192,44384,1,8,0:0:0:0:
256,192,44454,1,0,0:0:0:0:
256,192,44525,1,8,0:0:0:0:
256,192,44596,1,8,0:0:0:0:
256,192,44667,1,0,0:0:0:0:
256,192,44737,1,8,0:0:0:0:
256,192,44808,1,0,0:0:0:0:
256,192,44879,1,0,0:0:0:0:
256,192,44950,1,8,0:0:0:0:
256,192,45233,1,0,0:0:0:0:
256,192,45374,1,8,0:0:0:0:
256,192,45445,1,0,0:0:0:0:
256,192,45516,1,8,0:0:0:0:
256,192,45586,1,8,0:0:0:0:
256,192,45657,1,0,0:0:0:0:
256,192,45728,1,8,0:0:0:0:
256,192,45799,1,4,0:0:0:0:
256,192,45940,1,8,0:0:0:0:
256,192,46011,1,8,0:0:0:0:
256,192,46082,1,0,0:0:0:0:
256,192,46223,1,8,0:0:0:0:
256,192,46365,1,0,0:0:0:0:
256,192,46648,1,0,0:0:0:0:
256,192,46789,1,8,0:0:0:0:
256,192,46860,1,8,0:0:0:0:
256,192,46931,1,0,0:0:0:0:
256,192,47072,1,0,0:0:0:0:
256,192,47143,1,0,0:0:0:0:
256,192,47214,1,8,0:0:0:0:
256,192,47284,1,0,0:0:0:0:
256,192,47355,1,8,0:0:0:0:
256,192,47426,1,8,0:0:0:0:
256,192,47497,1,0,0:0:0:0:
256,192,47638,1,0,0:0:0:0:
256,192,47709,1,0,0:0:0:0:
256,192,47780,1,8,0:0:0:0:
256,192,47921,1,0,0:0:0:0:
256,192,48063,1,8,0:0:0:0:
256,192,48204,1,8,0:0:0:0:
256,192,48346,1,0,0:0:0:0:
256,192,48487,1,0,0:0:0:0:
256,192,48558,1,0,0:0:0:0:
256,192,48629,1,8,0:0:0:0:
256,192,48912,1,0,0:0:0:0:
256,192,49053,1,8,0:0:0:0:
256,192,49124,1,8,0:0:0:0:
256,192,49195,1,8,0:0:0:0:
256,192,49336,1,8,0:0:0:0:
256,192,49407,1,8,0:0:0:0:
256,192,49478,1,0,0:0:0:0:
256,192,49549,1,0,0:0:0:0:
256,192,49619,1,8,0:0:0:0:
256,192,49690,1,0,0:0:0:0:
256,192,49761,1,8,0:0:0:0:
256,192,49832,1,8,0:0:0:0:
256,192,49902,1,0,0:0:0:0:
256,192,49973,1,0,0:0:0:0:
256,192,50044,1,8,0:0:0:0:
256,192,50327,1,8,0:0:0:0:
256,192,50421,1,8,0:0:0:0:
256,192,50515,1,0,0:0:0:0:
256,192,50610,1,8,0:0:0:0:
256,192,50751,1,0,0:0:0:0:
256,192,50822,1,0,0:0:0:0:
256,192,50893,1,0,0:0:0:0:
256,192,51034,1,0,0:0:0:0:
256,192,51176,1,12,0:0:0:0:
256,192,51317,1,8,0:0:0:0:
256,192,51364,1,0,0:0:0:0:
256,192,51411,1,0,0:0:0:0:
256,192,51459,1,8,0:0:0:0:
256,192,51529,1,8,0:0:0:0:
256,192,51600,1,0,0:0:0:0:
256,192,51671,1,0,0:0:0:0:
256,192,51742,1,8,0:0:0:0:
256,192,51813,1,0,0:0:0:0:
256,192,51884,1,8,0:0:0:0:
256,192,51931,1,0,0:0:0:0:
256,192,51978,1,0,0:0:0:0:
256,192,52025,1,8,0:0:0:0:
256,192,52095,1,8,0:0:0:0:
256,192,52166,1,0,0:0:0:0:
256,192,52237,1,0,0:0:0:0:
256,192,52308,1,8,0:0:0:0:
256,192,52378,1,0,0:0:0:0:
256,192,52449,1,8,0:0:0:0:
256,192,52496,1,0,0:0:0:0:
256,192,52543,1,0,0:0:0:0:
256,192,52591,1,8,0:0:0:0:
256,192,52661,1,8,0:0:0:0:
256,192,52732,1,0,0:0:0:0:
256,192,52803,1,0,0:0:0:0:
256,192,52874,1,8,0:0:0:0:
256,192,52921,1,8,0:0:0:0:
256,192,52968,1,8,0:0:0:0:
256,192,53015,1,0,0:0:0:0:
256,192,53086,1,0,0:0:0:0:
256,192,53157,1,8,0:0:0:0:
256,192,53227,1,8,0:0:0:0:
256,192,53298,1,0,0:0:0:0:
256,192,53369,1,0,0:0:0:0:
256,192,53440,1,8,0:0:0:0:
256,192,53487,1,0,0:0:0:0:
256,192,53534,1,0,0:0:0:0:
256,192,53581,1,8,0:0:0:0:
256,192,53652,1,0,0:0:0:0:
256,192,53723,1,8,0:0:0:0:
256,192,53793,1,8,0:0:0:0:
256,192,53864,1,0,0:0:0:0:
256,192,53935,1,0,0:0:0:0:
256,192,54006,1,8,0:0:0:0:
256,192,54053,1,0,0:0:0:0:
256,192,54100,1,0,0:0:0:0:
256,192,54147,1,8,0:0:0:0:
256,192,54218,1,0,0:0:0:0:
256,192,54289,1,8,0:0:0:0:
256,192,54359,1,8,0:0:0:0:
256,192,54430,1,0,0:0:0:0:
256,192,54501,1,0,0:0:0:0:
256,192,54572,1,8,0:0:0:0:
256,192,54619,1,8,0:0:0:0:
256,192,54666,1,8,0:0:0:0:
256,192,54713,1,0,0:0:0:0:
256,192,54784,1,8,0:0:0:0:
256,192,54855,1,0,0:0:0:0:
256,192,54926,1,0,0:0:0:0:
256,192,54996,1,8,0:0:0:0:
256,192,55067,1,0,0:0:0:0:
256,192,55138,1,8,0:0:0:0:
256,192,55185,1,8,0:0:0:0:
256,192,55232,1,8,0:0:0:0:
256,192,55279,1,0,0:0:0:0:
256,192,55350,1,8,0:0:0:0:
256,192,55421,1,0,0:0:0:0:
256,192,55492,1,0,0:0:0:0:
256,192,55562,1,8,0:0:0:0:
256,192,55633,1,0,0:0:0:0:
256,192,55704,1,8,0:0:0:0:
256,192,55751,1,8,0:0:0:0:
256,192,55798,1,8,0:0:0:0:
256,192,55845,1,0,0:0:0:0:
256,192,55892,1,0,0:0:0:0:
256,192,55939,1,0,0:0:0:0:
256,192,55987,1,12,0:0:0:0:
256,192,56199,1,12,0:0:0:0:
256,192,56411,1,0,0:0:0:0:
256,192,56482,1,0,0:0:0:0:
256,192,56553,1,12,0:0:0:0:
256,192,56694,1,8,0:0:0:0:
256,192,56765,1,0,0:0:0:0:
256,192,56836,1,0,0:0:0:0:
256,192,56906,1,0,0:0:0:0:
256,192,56977,1,8,0:0:0:0:
256,192,57119,1,0,0:0:0:0:
256,192,57260,1,8,0:0:0:0:
256,192,57331,1,8,0:0:0:0:
256,192,57402,1,0,0:0:0:0:
256,192,57472,1,0,0:0:0:0:
256,192,57543,1,8,0:0:0:0:
256,192,57685,1,0,0:0:0:0:
256,192,57826,1,8,0:0:0:0:
256,192,57897,1,0,0:0:0:0:
256,192,57968,1,0,0:0:0:0:
256,192,58038,1,0,0:0:0:0:
256,192,58109,1,8,0:0:0:0:
256,192,58251,1,0,0:0:0:0:
256,192,58392,1,8,0:0:0:0:
256,192,58463,1,8,0:0:0:0:
256,192,58534,1,0,0:0:0:0:
256,192,58604,1,0,0:0:0:0:
256,192,58675,1,8,0:0:0:0:
256,192,58817,1,0,0:0:0:0:
256,192,58958,1,8,0:0:0:0:
256,192,59029,1,0,0:0:0:0:
256,192,59100,1,0,0:0:0:0:
256,192,59170,1,0,0:0:0:0:
256,192,59241,1,8,0:0:0:0:
256,192,59312,1,0,0:0:0:0:
256,192,59383,1,0,0:0:0:0:
256,192,59524,1,8,0:0:0:0:
256,192,59595,1,8,0:0:0:0:
256,192,59666,1,0,0:0:0:0:
256,192,59736,1,0,0:0:0:0:
256,192,59807,1,8,0:0:0:0:
256,192,59878,1,0,0:0:0:0:
256,192,59949,1,0,0:0:0:0:
256,192,60090,1,8,0:0:0:0:
256,192,60161,1,0,0:0:0:0:
256,192,60232,1,0,0:0:0:0:
256,192,60303,1,0,0:0:0:0:
256,192,60373,1,8,0:0:0:0:
256,192,60444,1,8,0:0:0:0:
256,192,60515,1,0,0:0:0:0:
256,192,60586,1,0,0:0:0:0:
256,192,60656,1,8,0:0:0:0:
256,192,60727,1,0,0:0:0:0:
256,192,60798,1,8,0:0:0:0:
256,192,60869,1,0,0:0:0:0:
256,192,60939,1,8,0:0:0:0:
256,192,61010,1,8,0:0:0:0:
256,192,61081,1,0,0:0:0:0:
256,192,61151,1,0,0:0:0:0:
256,192,61222,1,8,0:0:0:0:
256,192,61293,1,8,0:0:0:0:
256,192,61364,1,0,0:0:0:0:
256,192,61434,1,8,0:0:0:0:
256,192,61505,1,0,0:0:0:0:
256,192,61576,1,0,0:0:0:0:
256,192,61647,1,8,0:0:0:0:
256,192,61717,1,0,0:0:0:0:
256,192,61788,1,8,0:0:0:0:
256,192,61859,1,8,0:0:0:0:
256,192,61930,1,4,0:0:0:0:
256,192,62213,1,8,0:0:0:0:
256,192,62354,1,8,0:0:0:0:
256,192,62425,1,8,0:0:0:0:
256,192,62496,1,0,0:0:0:0:
256,192,62637,1,8,0:0:0:0:
256,192,62779,1,0,0:0:0:0:
256,192,62920,1,0,0:0:0:0:
256,192,62991,1,8,0:0:0:0:
256,192,63062,1,8,0:0:0:0:
256,192,63203,1,8,0:0:0:0:
256,192,63345,1,0,0:0:0:0:
256,192,63486,1,0,0:0:0:0:
256,192,63628,1,8,0:0:0:0:
256,192,63911,1,0,0:0:0:0:
256,192,64052,1,8,0:0:0:0:
256,192,64194,1,0,0:0:0:0:
256,192,64335,1,8,0:0:0:0:
256,192,64371,1,8,0:0:0:0:
256,192,64477,1,8,0:0:0:0:
256,192,64618,1,0,0:0:0:0:
256,192,64760,1,8,0:0:0:0:
256,192,64854,1,8,0:0:0:0:
256,192,64948,1,8,0:0:0:0:
256,192,65043,1,0,0:0:0:0:
256,192,65137,1,0,0:0:0:0:
256,192,65231,1,0,0:0:0:0:
256,192,65326,1,12,0:0:0:0:
256,192,65609,1,0,0:0:0:0:
256,192,65750,1,0,0:0:0:0:
256,192,66033,1,8,0:0:0:0:
256,192,66175,1,0,0:0:0:0:
256,192,66316,1,0,0:0:0:0:
256,192,66458,1,8,0:0:0:0:
256,192,66599,1,0,0:0:0:0:
256,192,66741,1,8,0:0:0:0:
256,192,66882,1,8,0:0:0:0:
256,192,67024,1,0,0:0:0:0:
256,192,67165,1,8,0:0:0:0:
256,192,67236,1,0,0:0:0:0:
256,192,67307,1,8,0:0:0:0:
256,192,67401,1,8,0:0:0:0:
256,192,67496,1,8,0:0:0:0:
256,192,67590,1,0,0:0:0:0:
256,192,67684,1,0,0:0:0:0:
256,192,67779,1,8,0:0:0:0:
256,192,67873,1,0,0:0:0:0:
256,192,67944,1,8,0:0:0:0:
256,192,68014,1,0,0:0:0:0:
256,192,68085,1,0,0:0:0:0:
256,192,68156,1,12,0:0:0:0:
256,192,68297,1,8,0:0:0:0:
256,192,68439,1,8,0:0:0:0:
256,192,68509,1,8,0:0:0:0:
256,192,68580,1,0,0:0:0:0:
256,192,68722,1,0,0:0:0:0:
256,192,68863,1,8,0:0:0:0:
256,192,69005,1,0,0:0:0:0:
256,192,69146,1,8,0:0:0:0:
256,192,69217,1,0,0:0:0:0:
256,192,69288,1,8,0:0:0:0:
256,192,69429,1,0,0:0:0:0:
256,192,69571,1,8,0:0:0:0:
256,192,69712,1,8,0:0:0:0:
256,192,69854,1,4,0:0:0:0:
256,192,69995,1,8,0:0:0:0:
256,192,70137,1,0,0:0:0:0:
256,192,70207,1,0,0:0:0:0:
256,192,70278,1,8,0:0:0:0:
256,192,70349,1,8,0:0:0:0:
256,192,70420,1,0,0:0:0:0:
256,192,70490,1,0,0:0:0:0:
256,192,70561,1,8,0:0:0:0:
256,192,70632,1,0,0:0:0:0:
256,192,70703,1,12,0:0:0:0:
256,192,70915,1,8,0:0:0:0:
256,192,71127,1,0,0:0:0:0:
256,192,71198,1,0,0:0:0:0:
256,192,71269,1,12,0:0:0:0:
256,192,71552,1,8,0:0:0:0:
256,192,71622,1,0,0:0:0:0:
256,192,71693,1,8,0:0:0:0:
256,192,71764,1,8,0:0:0:0:
256,192,71835,1,0,0:0:0:0:
256,192,71905,1,0,0:0:0:0:
256,192,71976,1,8,0:0:0:0:
256,192,72047,1,0,0:0:0:0:
256,192,72118,1,8,0:0:0:0:
256,192,72188,1,8,0:0:0:0:
256,192,72259,1,0,0:0:0:0:
256,192,72330,1,8,0:0:0:0:
256,192,72401,1,8,0:0:0:0:
256,192,72471,1,8,0:0:0:0:
256,192,72542,1,0,0:0:0:0:
256,192,72613,1,0,0:0:0:0:
256,192,72684,1,8,0:0:0:0:
256,192,72754,1,0,0:0:0:0:
256,192,72825,1,8,0:0:0:0:
256,192,72896,1,8,0:0:0:0:
256,192,72967,1,0,0:0:0:0:
256,192,73037,1,8,0:0:0:0:
256,192,73108,1,8,0:0:0:0:
256,192,73179,1,0,0:0:0:0:
256,192,73250,1,0,0:0:0:0:
256,192,73320,1,8,0:0:0:0:
256,192,73391,1,0,0:0:0:0:
256,192,73462,1,0,0:0:0:0:
256,192,73533,1,8,0:0:0:0:
256,192,73580,1,0,0:0:0:0:
256,192,73627,1,0,0:0:0:0:
256,192,73674,1,8,0:0:0:0:
256,192,73745,1,8,0:0:0:0:
256,192,73816,1,0,0:0:0:0:
256,192,73886,1,0,0:0:0:0:
256,192,73957,1,8,0:0:0:0:
256,192,74004,1,8,0:0:0:0:
256,192,74052,1,0,0:0:0:0:
256,192,74099,1,8,0:0:0:0:
256,192,74193,1,0,0:0:0:0:
256,192,74287,1,8,0:0:0:0:
256,192,74382,1,0,0:0:0:0:
256,192,74476,1,8,0:0:0:0:
256,192,74570,1,0,0:0:0:0:
256,192,74665,1,12,0:0:0:0:
256,192,74806,1,0,0:0:0:0:
256,192,74877,1,0,0:0:0:0:
256,192,74948,1,8,0:0:0:0:
256,192,75019,1,8,0:0:0:0:
256,192,75089,1,0,0:0:0:0:
256,192,75160,1,0,0:0:0:0:
256,192,75231,1,8,0:0:0:0:
256,192,75302,1,8,0:0:0:0:
256,192,75372,1,0,0:0:0:0:
256,192,75443,1,0,0:0:0:0:
256,192,75514,1,8,0:0:0:0:
256,192,75585,1,0,0:0:0:0:
256,192,75655,1,8,0:0:0:0:
256,192,75726,1,0,0:0:0:0:
256,192,75797,1,8,0:0:0:0:
256,192,75868,1,8,0:0:0:0:
256,192,75938,1,0,0:0:0:0:
256,192,76009,1,8,0:0:0:0:
256,192,76080,1,0,0:0:0:0:
256,192,76151,1,0,0:0:0:0:
256,192,76221,1,8,0:0:0:0:
256,192,76291,1,8,0:0:0:0:
256,192,76362,1,0,0:0:0:0:
256,192,76433,1,0,0:0:0:0:
256,192,76504,1,8,0:0:0:0:
256,192,76574,1,0,0:0:0:0:
256,192,76645,1,0,0:0:0:0:
256,192,76716,1,0,0:0:0:0:
256,192,76787,1,8,0:0:0:0:
256,192,76857,1,8,0:0:0:0:
256,192,76928,1,0,0:0:0:0:
256,192,76999,1,0,0:0:0:0:
256,192,77070,1,8,0:0:0:0:
256,192,77140,1,0,0:0:0:0:
256,192,77211,1,8,0:0:0:0:
256,192,77282,1,8,0:0:0:0:
256,192,77353,1,0,0:0:0:0:
256,192,77423,1,8,0:0:0:0:
256,192,77494,1,8,0:0:0:0:
256,192,77565,1,8,0:0:0:0:
256,192,77636,1,0,0:0:0:0:
256,192,77706,1,0,0:0:0:0:
256,192,77777,1,8,0:0:0:0:
256,192,77847,1,0,0:0:0:0:
256,192,77918,1,0,0:0:0:0:
256,192,77989,1,0,0:0:0:0:
256,192,78060,1,8,0:0:0:0:
256,192,78130,1,0,0:0:0:0:
256,192,78201,1,0,0:0:0:0:
256,192,78272,1,0,0:0:0:0:
256,192,78343,1,8,0:0:0:0:
256,192,78413,1,0,0:0:0:0:
256,192,78484,1,8,0:0:0:0:
256,192,78555,1,8,0:0:0:0:
256,192,78626,1,0,0:0:0:0:
256,192,78696,1,8,0:0:0:0:
256,192,78767,1,8,0:0:0:0:
256,192,78838,1,8,0:0:0:0:
256,192,78909,1,0,0:0:0:0:
256,192,78979,1,8,0:0:0:0:
256,192,79050,1,0,0:0:0:0:
256,192,79121,1,8,0:0:0:0:
256,192,79192,1,0,0:0:0:0:
256,192,79262,1,0,0:0:0:0:
256,192,79333,1,8,0:0:0:0:
256,192,79403,1,8,0:0:0:0:
256,192,79474,1,0,0:0:0:0:
256,192,79545,1,0,0:0:0:0:
256,192,79616,1,8,0:0:0:0:
256,192,79686,1,8,0:0:0:0:
256,192,79757,1,0,0:0:0:0:
256,192,79828,1,0,0:0:0:0:
256,192,79899,1,8,0:0:0:0:
256,192,79969,1,0,0:0:0:0:
256,192,80040,1,8,0:0:0:0:
256,192,80111,1,0,0:0:0:0:
256,192,80182,1,8,0:0:0:0:
256,192,80252,1,8,0:0:0:0:
256,192,80323,1,8,0:0:0:0:
256,192,80394,1,8,0:0:0:0:
256,192,80465,1,0,0:0:0:0:
256,192,80535,1,0,0:0:0:0:
256,192,80606,1,8,0:0:0:0:
256,192,80677,1,0,0:0:0:0:
256,192,80748,1,8,0:0:0:0:
256,192,80818,1,8,0:0:0:0:
256,192,80889,1,4,0:0:0:0:
256,192,82587,1,0,0:0:0:0:
256,192,82657,1,0,0:0:0:0:
256,192,82728,1,0,0:0:0:0:
256,192,82799,1,0,0:0:0:0:
256,192,82870,1,0,0:0:0:0:
256,192,82940,1,0,0:0:0:0:
256,192,83011,1,0,0:0:0:0:
256,192,83082,1,0,0:0:0:0:
256,192,83153,1,0,0:0:0:0:
256,192,83223,1,0,0:0:0:0:
256,192,83294,1,0,0:0:0:0:
256,192,83365,1,0,0:0:0:0:
256,192,83436,1,0,0:0:0:0:
256,192,83506,1,0,0:0:0:0:
256,192,83577,1,0,0:0:0:0:
256,192,83648,1,0,0:0:0:0:
256,192,83719,1,0,0:0:0:0:
256,192,83789,1,0,0:0:0:0:
256,192,83860,1,0,0:0:0:0:
256,192,83931,1,0,0:0:0:0:
256,192,84002,1,0,0:0:0:0:
256,192,84072,1,0,0:0:0:0:
256,192,84143,1,0,0:0:0:0:
256,192,84214,1,0,0:0:0:0:
256,192,84285,1,0,0:0:0:0:
256,192,84355,1,0,0:0:0:0:
256,192,84426,1,0,0:0:0:0:
256,192,84497,1,0,0:0:0:0:
256,192,84568,1,0,0:0:0:0:
256,192,84639,1,0,0:0:0:0:
256,192,84709,1,0,0:0:0:0:
256,192,84780,1,0,0:0:0:0:
256,192,84851,1,0,0:0:0:0:
256,192,84922,1,0,0:0:0:0:
256,192,84992,1,0,0:0:0:0:
256,192,85063,1,0,0:0:0:0:
256,192,85134,1,0,0:0:0:0:
256,192,85205,1,0,0:0:0:0:
256,192,85275,1,0,0:0:0:0:
256,192,85346,1,0,0:0:0:0:
256,192,85417,1,8,0:0:0:0:
256,192,85983,1,0,0:0:0:0:
256,192,86053,1,8,0:0:0:0:
256,192,86124,1,0,0:0:0:0:
256,192,86195,1,0,0:0:0:0:
256,192,86266,1,12,0:0:0:0:
256,192,86549,1,0,0:0:0:0:
256,192,86690,1,0,0:0:0:0:
256,192,86973,1,0,0:0:0:0:
256,192,87115,1,0,0:0:0:0:
256,192,87398,1,0,0:0:0:0:
256,192,87539,1,8,0:0:0:0:
256,192,87610,1,8,0:0:0:0:
256,192,87681,1,0,0:0:0:0:
256,192,87751,1,0,0:0:0:0:
256,192,87822,1,8,0:0:0:0:
256,192,87893,1,0,0:0:0:0:
256,192,87964,1,8,0:0:0:0:
256,192,88105,1,0,0:0:0:0:
256,192,88176,1,0,0:0:0:0:
256,192,88247,1,8,0:0:0:0:
256,192,88388,1,0,0:0:0:0:
256,192,88530,1,8,0:0:0:0:
256,192,88671,1,0,0:0:0:0:
256,192,88954,1,8,0:0:0:0:
256,192,89096,1,0,0:0:0:0:
256,192,89237,1,0,0:0:0:0:
256,192,89308,1,0,0:0:0:0:
256,192,89379,1,8,0:0:0:0:
256,192,89520,1,0,0:0:0:0:
256,192,89662,1,8,0:0:0:0:
256,192,89803,1,0,0:0:0:0:
256,192,89874,1,8,0:0:0:0:
256,192,90015,1,8,0:0:0:0:
256,192,90086,1,0,0:0:0:0:
256,192,90157,1,0,0:0:0:0:
256,192,90228,1,8,0:0:0:0:
256,192,90511,1,8,0:0:0:0:
256,192,90581,1,8,0:0:0:0:
256,192,90652,1,0,0:0:0:0:
256,192,90723,1,0,0:0:0:0:
256,192,90794,1,8,0:0:0:0:
256,192,90864,1,8,0:0:0:0:
256,192,90935,1,0,0:0:0:0:
256,192,91006,1,0,0:0:0:0:
256,192,91077,1,8,0:0:0:0:
256,192,91147,1,8,0:0:0:0:
256,192,91218,1,0,0:0:0:0:
256,192,91289,1,0,0:0:0:0:
256,192,91360,1,8,0:0:0:0:
256,192,91430,1,0,0:0:0:0:
256,192,91501,1,8,0:0:0:0:
256,192,91572,1,8,0:0:0:0:
256,192,91643,1,0,0:0:0:0:
256,192,91713,1,0,0:0:0:0:
256,192,91784,1,8,0:0:0:0:
256,192,91926,1,0,0:0:0:0:
256,192,92067,1,0,0:0:0:0:
256,192,92138,1,0,0:0:0:0:
256,192,92209,1,0,0:0:0:0:
256,192,92492,1,0,0:0:0:0:
256,192,92633,1,0,0:0:0:0:
256,192,92775,1,8,0:0:0:0:
256,192,92845,1,0,0:0:0:0:
256,192,92916,1,0,0:0:0:0:
256,192,92987,1,8,0:0:0:0:
256,192,93058,1,8,0:0:0:0:
256,192,93128,1,0,0:0:0:0:
256,192,93199,1,0,0:0:0:0:
256,192,93270,1,8,0:0:0:0:
256,192,93341,1,8,0:0:0:0:
256,192,93411,1,0,0:0:0:0:
256,192,93482,1,8,0:0:0:0:
256,192,93553,1,8,0:0:0:0:
256,192,93624,1,8,0:0:0:0:
256,192,93694,1,0,0:0:0:0:
256,192,93765,1,0,0:0:0:0:
256,192,93836,1,0,0:0:0:0:
256,192,93907,1,8,0:0:0:0:
256,192,93977,1,0,0:0:0:0:
256,192,94048,1,8,0:0:0:0:
256,192,94119,1,8,0:0:0:0:
256,192,94190,1,4,0:0:0:0:
256,192,94473,1,8,0:0:0:0:
256,192,94614,1,0,0:0:0:0:
256,192,94685,1,0,0:0:0:0:
256,192,94756,1,8,0:0:0:0:
256,192,94897,1,8,0:0:0:0:
256,192,95039,1,0,0:0:0:0:
256,192,95180,1,8,0:0:0:0:
256,192,95251,1,8,0:0:0:0:
256,192,95322,1,0,0:0:0:0:
256,192,95463,1,0,0:0:0:0:
256,192,95605,1,8,0:0:0:0:
256,192,95675,1,0,0:0:0:0:
256,192,95746,1,8,0:0:0:0:
256,192,95817,1,8,0:0:0:0:
256,192,95888,1,0,0:0:0:0:
256,192,96029,1,0,0:0:0:0:
256,192,96171,1,8,0:0:0:0:
256,192,96241,1,0,0:0:0:0:
256,192,96312,1,8,0:0:0:0:
256,192,96454,1,0,0:0:0:0:
256,192,96595,1,0,0:0:0:0:
256,192,96737,1,8,0:0:0:0:
256,192,96807,1,8,0:0:0:0:
256,192,96878,1,0,0:0:0:0:
256,192,96949,1,8,0:0:0:0:
256,192,97020,1,0,0:0:0:0:
256,192,97090,1,0,0:0:0:0:
256,192,97161,1,8,0:0:0:0:
256,192,97232,1,8,0:0:0:0:
256,192,97303,1,0,0:0:0:0:
256,192,97373,1,0,0:0:0:0:
256,192,97444,1,8,0:0:0:0:
256,192,97515,1,0,0:0:0:0:
256,192,97586,1,8,0:0:0:0:
256,192,97656,1,8,0:0:0:0:
256,192,97727,1,0,0:0:0:0:
256,192,97798,1,0,0:0:0:0:
256,192,97869,1,8,0:0:0:0:
256,192,98010,1,0,0:0:0:0:
256,192,98152,1,8,0:0:0:0:
256,192,98222,1,8,0:0:0:0:
256,192,98293,1,0,0:0:0:0:
256,192,98364,1,8,0:0:0:0:
256,192,98435,1,0,0:0:0:0:
256,192,98505,1,0,0:0:0:0:
256,192,98576,1,8,0:0:0:0:
256,192,98647,1,8,0:0:0:0:
256,192,98718,1,0,0:0:0:0:
256,192,98788,1,0,0:0:0:0:
256,192,98859,1,8,0:0:0:0:
256,192,98930,1,8,0:0:0:0:
256,192,99001,1,8,0:0:0:0:
256,192,99071,1,0,0:0:0:0:
256,192,99142,1,0,0:0:0:0:
256,192,99213,1,8,0:0:0:0:
256,192,99284,1,8,0:0:0:0:
256,192,99354,1,0,0:0:0:0:
256,192,99425,1,0,0:0:0:0:
256,192,99496,1,0,0:0:0:0:
256,192,99567,1,8,0:0:0:0:
256,192,99637,1,0,0:0:0:0:
256,192,99708,1,8,0:0:0:0:
256,192,99779,1,0,0:0:0:0:
256,192,99850,1,8,0:0:0:0:
256,192,99920,1,8,0:0:0:0:
256,192,99991,1,0,0:0:0:0:
256,192,100062,1,0,0:0:0:0:
256,192,100133,1,8,0:0:0:0:
256,192,100203,1,0,0:0:0:0:
256,192,100274,1,8,0:0:0:0:
256,192,100345,1,8,0:0:0:0:
256,192,100416,1,0,0:0:0:0:
256,192,100486,1,0,0:0:0:0:
256,192,100557,1,8,0:0:0:0:
256,192,100628,1,0,0:0:0:0:
256,192,100699,1,8,0:0:0:0:
256,192,100769,1,8,0:0:0:0:
256,192,100840,1,0,0:0:0:0:
256,192,100911,1,0,0:0:0:0:
256,192,100982,1,8,0:0:0:0:
256,192,101052,1,0,0:0:0:0:
256,192,101123,1,0,0:0:0:0:
256,192,101194,1,0,0:0:0:0:
256,192,101265,1,8,0:0:0:0:
256,192,101335,1,8,0:0:0:0:
256,192,101406,1,0,0:0:0:0:
256,192,101477,1,0,0:0:0:0:
256,192,101548,1,12,0:0:0:0:
256,192,101689,1,0,0:0:0:0:
256,192,101831,1,0,0:0:0:0:
256,192,101972,1,0,0:0:0:0:
256,192,102114,1,0,0:0:0:0:
256,192,102255,1,0,0:0:0:0:
256,192,102397,1,0,0:0:0:0:
256,192,102538,1,8,0:0:0:0:
256,192,102609,1,8,0:0:0:0:
256,192,102680,1,0,0:0:0:0:
256,192,102750,1,0,0:0:0:0:
256,192,102821,1,8,0:0:0:0:
256,192,102892,1,0,0:0:0:0:
256,192,102963,1,8,0:0:0:0:
256,192,103033,1,8,0:0:0:0:
256,192,103104,1,0,0:0:0:0:
256,192,103175,1,0,0:0:0:0:
256,192,103246,1,8,0:0:0:0:
256,192,103316,1,8,0:0:0:0:
256,192,103387,1,0,0:0:0:0:
256,192,103458,1,0,0:0:0:0:
256,192,103529,1,12,0:0:0:0:
256,192,103670,1,0,0:0:0:0:
256,192,103812,1,0,0:0:0:0:
256,192,103953,1,0,0:0:0:0:
256,192,104095,1,0,0:0:0:0:
256,192,104236,1,0,0:0:0:0:
256,192,104378,1,8,0:0:0:0:
256,192,104448,1,8,0:0:0:0:
256,192,104519,1,0,0:0:0:0:
256,192,104590,1,8,0:0:0:0:
256,192,104661,1,8,0:0:0:0:
256,192,104731,1,8,0:0:0:0:
256,192,104802,1,0,0:0:0:0:
256,192,104873,1,8,0:0:0:0:
256,192,104944,1,8,0:0:0:0:
256,192,105014,1,0,0:0:0:0:
256,192,105085,1,8,0:0:0:0:
256,192,105156,1,0,0:0:0:0:
256,192,105227,1,8,0:0:0:0:
256,192,105298,1,8,0:0:0:0:
256,192,105368,1,8,0:0:0:0:
256,192,105439,1,0,0:0:0:0:
256,192,105510,1,12,0:0:0:0:
256,192,105651,1,0,0:0:0:0:
256,192,105793,1,8,0:0:0:0:
256,192,105864,1,0,0:0:0:0:
256,192,105934,1,8,0:0:0:0:
256,192,106005,1,8,0:0:0:0:
256,192,106076,1,0,0:0:0:0:
256,192,106147,1,0,0:0:0:0:
256,192,106217,1,8,0:0:0:0:
256,192,106288,1,8,0:0:0:0:
256,192,106359,1,0,0:0:0:0:
256,192,106430,1,8,0:0:0:0:
256,192,106500,1,8,0:0:0:0:
256,192,106571,1,8,0:0:0:0:
256,192,106642,1,0,0:0:0:0:
256,192,106713,1,8,0:0:0:0:
256,192,106783,1,0,0:0:0:0:
256,192,106925,1,0,0:0:0:0:
256,192,107066,1,8,0:0:0:0:
256,192,107208,1,0,0:0:0:0:
256,192,107349,1,0,0:0:0:0:
256,192,107491,1,12,0:0:0:0:
256,192,107632,1,8,0:0:0:0:
256,192,107703,1,0,0:0:0:0:
256,192,107774,1,8,0:0:0:0:
256,192,107845,1,8,0:0:0:0:
256,192,107915,1,0,0:0:0:0:
256,192,107986,1,8,0:0:0:0:
256,192,108057,1,0,0:0:0:0:
256,192,108128,1,0,0:0:0:0:
256,192,108198,1,8,0:0:0:0:
256,192,108269,1,8,0:0:0:0:
256,192,108340,1,0,0:0:0:0:
256,192,108434,1,0,0:0:0:0:
256,192,108529,1,8,0:0:0:0:
256,192,108623,1,0,0:0:0:0:
256,192,108717,1,8,0:0:0:0:
256,192,108812,1,0,0:0:0:0:
256,192,108906,1,8,0:0:0:0:
256,192,108977,1,8,0:0:0:0:
256,192,109048,1,0,0:0:0:0:
256,192,109118,1,8,0:0:0:0:
256,192,109189,1,0,0:0:0:0:
256,192,109260,1,0,0:0:0:0:
256,192,109331,1,8,0:0:0:0:
256,192,109401,1,0,0:0:0:0:
256,192,109472,1,12,0:0:0:0:
256,192,109613,1,8,0:0:0:0:
256,192,109755,1,8,0:0:0:0:
256,192,109896,1,4,0:0:0:0:
256,192,110038,1,0,0:0:0:0:
256,192,110179,1,0,0:0:0:0:
256,192,110321,1,12,0:0:0:0:
256,192,110462,1,8,0:0:0:0:
256,192,110604,1,8,0:0:0:0:
256,192,110745,1,4,0:0:0:0:
256,192,110887,1,0,0:0:0:0:
256,192,111028,1,0,0:0:0:0:
256,192,111170,1,12,0:0:0:0:
256,192,111311,1,0,0:0:0:0:
256,192,111453,1,8,0:0:0:0:
256,192,111594,1,4,0:0:0:0:
256,192,111736,1,8,0:0:0:0:
256,192,111877,1,0,0:0:0:0:
256,192,112019,1,12,0:0:0:0:
256,192,112160,1,8,0:0:0:0:
256,192,112302,1,0,0:0:0:0:
256,192,112443,1,12,0:0:0:0:
256,192,112585,1,0,0:0:0:0:
256,192,112726,1,12,0:0:0:0:
256,192,113009,1,0,0:0:0:0:
256,192,113079,1,0,0:0:0:0:
256,192,113150,1,8,0:0:0:0:
256,192,113221,1,0,0:0:0:0:
256,192,113292,1,8,0:0:0:0:
256,192,113362,1,8,0:0:0:0:
256,192,113433,1,0,0:0:0:0:
256,192,113504,1,8,0:0:0:0:
256,192,113575,1,8,0:0:0:0:
256,192,113645,1,0,0:0:0:0:
256,192,113716,1,8,0:0:0:0:
256,192,113787,1,8,0:0:0:0:
256,192,113858,1,8,0:0:0:0:
256,192,113999,1,8,0:0:0:0:
256,192,114141,1,8,0:0:0:0:
256,192,114211,1,0,0:0:0:0:
256,192,114282,1,8,0:0:0:0:
256,192,114353,1,8,0:0:0:0:
256,192,114424,1,0,0:0:0:0:
256,192,114494,1,8,0:0:0:0:
256,192,114565,1,0,0:0:0:0:
256,192,114612,1,0,0:0:0:0:
256,192,114659,1,0,0:0:0:0:
256,192,114707,1,8,0:0:0:0:
256,192,114754,1,0,0:0:0:0:
256,192,114801,1,0,0:0:0:0:
256,192,114848,1,8,0:0:0:0:
256,192,114895,1,8,0:0:0:0:
256,192,114942,1,0,0:0:0:0:
256,192,114990,1,8,0:0:0:0:
256,192,115060,1,8,0:0:0:0:
256,192,115131,1,0,0:0:0:0:
256,192,115202,1,8,0:0:0:0:
256,192,115273,1,0,0:0:0:0:
256,192,115343,1,0,0:0:0:0:
256,192,115414,1,8,0:0:0:0:
256,192,115485,1,0,0:0:0:0:
256,192,115556,1,8,0:0:0:0:
256,192,115626,1,8,0:0:0:0:
256,192,115697,1,0,0:0:0:0:
256,192,115768,1,8,0:0:0:0:
256,192,115839,1,0,0:0:0:0:
256,192,115909,1,0,0:0:0:0:
256,192,115980,1,8,0:0:0:0:
256,192,116051,1,0,0:0:0:0:
256,192,116122,1,8,0:0:0:0:
256,192,116192,1,8,0:0:0:0:
256,192,116263,1,0,0:0:0:0:
256,192,116334,1,0,0:0:0:0:
256,192,116405,1,8,0:0:0:0:
256,192,116476,1,8,0:0:0:0:
256,192,116546,1,0,0:0:0:0:
256,192,116617,1,8,0:0:0:0:
256,192,116688,1,0,0:0:0:0:
256,192,116735,1,8,0:0:0:0:
256,192,116782,1,0,0:0:0:0:
256,192,116829,1,0,0:0:0:0:
256,192,116876,1,8,0:0:0:0:
256,192,116924,1,8,0:0:0:0:
256,192,116971,1,0,0:0:0:0:
256,192,117018,1,8,0:0:0:0:
256,192,117065,1,0,0:0:0:0:
256,192,117112,1,0,0:0:0:0:
256,192,117159,1,8,0:0:0:0:
256,192,117207,1,8,0:0:0:0:
256,192,117254,1,4,0:0:0:0:
256,192,117537,1,8,0:0:0:0:
256,192,117607,1,8,0:0:0:0:
256,192,117678,1,0,0:0:0:0:
256,192,117749,1,8,0:0:0:0:
256,192,117820,1,0,0:0:0:0:
256,192,117890,1,0,0:0:0:0:
256,192,117961,1,8,0:0:0:0:
256,192,118032,1,0,0:0:0:0:
256,192,118103,1,8,0:0:0:0:
256,192,118173,1,8,0:0:0:0:
256,192,118244,1,0,0:0:0:0:
256,192,118315,1,0,0:0:0:0:
256,192,118386,1,8,0:0:0:0:
256,192,118456,1,8,0:0:0:0:
256,192,118527,1,8,0:0:0:0:
256,192,118598,1,0,0:0:0:0:
256,192,118669,1,8,0:0:0:0:
256,192,118739,1,0,0:0:0:0:
256,192,119235,1,12,0:0:0:0:
256,192,119376,12,0,120154,0:0:0:0:
