osu file format v14

[General]
AudioFilename: audio.mp3
AudioLeadIn: 0
PreviewTime: -1
Countdown: 1
SampleSet: Normal
StackLeniency: 0.7
Mode: 3
LetterboxInBreaks: 0
CountdownOffset: 3
SpecialStyle: 1
WidescreenStoryboard: 0

[Editor]
DistanceSpacing: 0.8
BeatDivisor: 8
GridSize: 16
TimelineZoom: 2.3

[Metadata]
Title:Faded.
TitleUnicode:Faded.
Artist:ZHU
ArtistUnicode:ZHU
Creator:yoelhaokipIII
Version:Normal
Source:
Tags:Electro
BeatmapID:1611749
BeatmapSetID:766716

[Difficulty]
HPDrainRate:5
CircleSize:4
OverallDifficulty:5
ApproachRate:5
SliderMultiplier:1.4
SliderTickRate:1

[Events]
//Background and Video events
0,0,"Sanity is fading away.jpg",0,0
//Break Periods
//Storyboard Layer 0 (Background)
//Storyboard Layer 1 (Fail)
//Storyboard Layer 2 (Pass)
//Storyboard Layer 3 (Foreground)
//Storyboard Layer 4 (Overlay)
//Storyboard Sound Samples

[TimingPoints]
120,480,4,1,0,100,1,0
120,-100,4,1,0,100,0,0
15000,-500,4,1,0,100,0,0
15060,-666.666666666667,4,1,0,100,0,0
15120,-2000,4,1,0,100,0,0
15180,-25,4,1,0,100,0,0
15240,-400,4,1,0,100,0,0
15300,-222.222222222222,4,1,0,100,0,0
15360,-133.333333333333,4,1,0,100,0,0
15450,-100,4,1,0,100,0,0

[HitObjects]
64,192,120,5,0,0:0:0:0:
448,192,120,1,0,0:0:0:0:
320,192,360,1,0,0:0:0:0:
192,192,600,1,0,0:0:0:0:
64,192,600,1,0,0:0:0:0:
320,192,840,1,0,0:0:0:0:
192,192,840,128,0,1080:0:0:0:0:
64,192,2040,128,0,2280:0:0:0:0:
320,192,2040,1,0,0:0:0:0:
448,192,2040,1,0,0:0:0:0:
320,192,2760,128,0,3000:0:0:0:0:
192,192,2760,1,0,0:0:0:0:
448,192,3720,1,0,0:0:0:0:
64,192,3960,128,0,4200:0:0:0:0:
192,192,3960,1,0,0:0:0:0:
320,192,4200,1,0,0:0:0:0:
448,192,4200,128,0,4440:0:0:0:0:
192,192,4440,128,0,4680:0:0:0:0:
64,192,4440,1,0,0:0:0:0:
448,192,4680,128,0,4920:0:0:0:0:
64,192,4680,128,0,4920:0:0:0:0:
320,192,4680,1,0,0:0:0:0:
64,192,5880,128,0,6120:0:0:0:0:
448,192,5880,1,0,0:0:0:0:
192,192,5880,1,0,0:0:0:0:
64,192,6600,1,0,0:0:0:0:
192,192,6600,1,0,0:0:0:0:
448,192,6600,128,0,6840:0:0:0:0:
192,192,7320,128,0,7560:0:0:0:0:
64,192,7320,1,0,0:0:0:0:
320,192,7800,1,0,0:0:0:0:
448,192,7800,128,0,8040:0:0:0:0:
192,192,8040,1,0,0:0:0:0:
64,192,8040,128,0,8280:0:0:0:0:
320,192,8280,128,0,8520:0:0:0:0:
192,192,8520,128,0,8760:0:0:0:0:
448,192,8520,128,0,8760:0:0:0:0:
448,192,9720,128,0,9960:0:0:0:0:
320,192,9720,1,0,0:0:0:0:
448,192,10440,128,0,10680:0:0:0:0:
320,192,10440,128,0,10680:0:0:0:0:
192,192,10440,1,0,0:0:0:0:
64,192,10440,128,0,10680:0:0:0:0:
320,192,11400,1,0,0:0:0:0:
192,192,11640,1,0,0:0:0:0:
448,192,11640,1,0,0:0:0:0:
64,192,11640,128,0,11880:0:0:0:0:
192,192,11880,128,0,12120:0:0:0:0:
448,192,11880,1,0,0:0:0:0:
320,192,12120,1,0,0:0:0:0:
64,192,12120,128,0,12360:0:0:0:0:
448,192,12120,128,0,12360:0:0:0:0:
192,192,12360,1,0,0:0:0:0:
320,192,12360,128,0,12600:0:0:0:0:
192,192,13560,128,0,13800:0:0:0:0:
320,192,13560,1,0,0:0:0:0:
448,192,13560,128,0,13800:0:0:0:0:
64,192,13560,1,0,0:0:0:0:
320,192,14280,128,0,14520:0:0:0:0:
64,192,14280,128,0,14520:0:0:0:0:
192,192,14280,1,0,0:0:0:0:
448,192,14280,1,0,0:0:0:0:
448,192,15480,1,0,0:0:0:0:
64,192,15480,1,0,0:0:0:0:
192,192,15480,1,0,0:0:0:0:
320,192,15720,1,0,0:0:0:0:
192,192,15720,1,0,0:0:0:0:
192,192,15960,1,0,0:0:0:0:
64,192,15960,1,0,0:0:0:0:
320,192,15960,1,0,0:0:0:0:
448,192,16200,1,0,0:0:0:0:
64,192,16200,1,0,0:0:0:0:
320,192,16440,1,0,0:0:0:0:
192,192,16440,1,0,0:0:0:0:
448,192,16920,1,0,0:0:0:0:
192,192,16920,1,0,0:0:0:0:
320,192,16920,1,0,0:0:0:0:
64,192,16920,1,0,0:0:0:0:
