osu file format v14

[General]
AudioFilename: audio.mp3
AudioLeadIn: 0
PreviewTime: 3164
Countdown: 0
SampleSet: Drum
StackLeniency: 0.4
Mode: 0
LetterboxInBreaks: 0
WidescreenStoryboard: 1

[Editor]
DistanceSpacing: 1.8
BeatDivisor: 4
GridSize: 4
TimelineZoom: 1

[Metadata]
Title:Dreams
TitleUnicode:Dreams
Artist:ZHU & NERO
ArtistUnicode:ZHU & NERO
Creator:Nesquack
Version:MURDER MYSTERY.
Source:
Tags:BladeN gabe veus piroshki saten daycore l3nny dance electronic mind of a genius stardustexhalemarrakechdreams
BeatmapID:1984519
BeatmapSetID:950241

[Difficulty]
HPDrainRate:5.7
CircleSize:4
OverallDifficulty:8.5
ApproachRate:9
SliderMultiplier:1.4
SliderTickRate:2

[Events]
//Background and Video events
0,0,"klegss.jpg",0,0
//Break Periods
//Storyboard Layer 0 (Background)
//Storyboard Layer 1 (Fail)
//Storyboard Layer 2 (Pass)
//Storyboard Layer 3 (Foreground)
//Storyboard Layer 4 (Overlay)
//Storyboard Sound Samples

[TimingPoints]
5805,660.06600660066,4,3,1,60,1,0
5806,-76.9230769230769,4,3,1,60,0,0
8117,-76.9230769230769,4,3,1,50,0,0
8120,-76.9230769230769,4,3,1,50,0,0
8447,-76.9230769230769,4,3,1,70,0,0
8450,-76.9230769230769,4,3,1,70,0,0
10425,-76.9230769230769,4,3,1,70,0,0
10590,-76.9230769230769,4,3,1,45,0,0
10593,-76.9230769230769,4,3,1,45,0,0
11084,-76.9230769230769,4,3,1,70,0,0
11087,-76.9230769230769,4,3,1,70,0,0
13392,-76.9230769230769,4,3,1,50,0,0
13395,-76.9230769230769,4,3,1,50,0,0
13722,-76.9230769230769,4,3,1,60,0,0
13725,-76.9230769230769,4,3,1,60,0,0
15700,-76.9230769230769,4,3,1,30,0,0
15703,-76.9230769230769,4,3,1,30,0,0
15705,-76.9230769230769,4,3,1,30,0,0
16359,-76.9230769230769,4,3,1,63,0,0
16362,-76.9230769230769,4,3,1,63,0,0
18667,-76.9230769230769,4,3,1,50,0,0
18670,-76.9230769230769,4,3,1,50,0,0
18676,-76.9230769230769,4,3,1,50,0,0
18997,-76.9230769230769,4,3,1,63,0,0
19000,-76.9230769230769,4,3,1,63,0,0
19006,-76.9230769230769,4,3,1,63,0,0
21140,-76.9230769230769,4,3,1,50,0,0
21143,-76.9230769230769,4,3,1,50,0,0
21151,-76.9230769230769,4,3,1,50,0,0
21621,-76.9230769230769,4,3,1,63,0,0
21624,-76.9230769230769,4,3,1,63,0,0
21646,-76.9230769230769,4,3,1,63,0,0
23942,-76.9230769230769,4,3,1,50,0,0
23945,-76.9230769230769,4,3,1,50,0,0
23956,-76.9230769230769,4,3,1,50,0,0
24272,-76.9230769230769,4,3,1,63,0,0
24275,-76.9230769230769,4,3,1,63,0,0
24286,-76.9230769230769,4,3,1,63,0,0
26927,-76.9230769230769,4,3,1,75,0,1
29217,-76.9230769230769,4,3,1,35,0,1
29220,-76.9230769230769,4,3,1,35,0,1
29237,-76.9230769230769,4,3,1,35,0,1
29547,-76.9230769230769,4,3,1,75,0,1
29550,-76.9230769230769,4,3,1,75,0,1
29567,-76.9230769230769,4,3,1,75,0,1
31690,-76.9230769230769,4,3,1,35,0,1
31712,-76.9230769230769,4,3,1,35,0,1
32184,-76.9230769230769,4,3,1,75,0,1
32187,-76.9230769230769,4,3,1,75,0,1
34492,-76.9230769230769,4,3,1,35,0,1
34495,-76.9230769230769,4,3,1,35,0,1
34517,-76.9230769230769,4,3,1,35,0,1
34822,-76.9230769230769,4,3,1,75,0,1
34825,-76.9230769230769,4,3,1,75,0,1
34847,-76.9230769230769,4,3,1,75,0,1
36828,-76.9230769230769,4,3,1,75,0,1
36965,-76.9230769230769,4,3,1,35,0,1
37459,-76.9230769230769,4,3,1,75,0,1
37462,-76.9230769230769,4,3,1,75,0,1
39767,-76.9230769230769,4,3,1,35,0,1
39770,-76.9230769230769,4,3,1,35,0,1
39798,-76.9230769230769,4,3,1,35,0,1
40097,-76.9230769230769,4,3,1,75,0,1
40100,-76.9230769230769,4,3,1,75,0,1
40128,-76.9230769230769,4,3,1,75,0,1
42108,-76.9230769230769,4,3,1,75,0,1
42240,-76.9230769230769,4,3,1,35,0,1
42243,-76.9230769230769,4,3,1,35,0,1
42273,-76.9230769230769,4,3,1,35,0,1
42734,-76.9230769230769,4,3,1,75,0,1
42737,-76.9230769230769,4,3,1,75,0,1
42768,-76.9230769230769,4,3,1,75,0,1
45042,-76.9230769230769,4,3,1,35,0,1
45045,-76.9230769230769,4,3,1,35,0,1
45078,-76.9230769230769,4,3,1,35,0,1
45372,-76.9230769230769,4,3,1,75,0,1
45375,-76.9230769230769,4,3,1,75,0,1
45408,-76.9230769230769,4,3,1,75,0,1
47389,-133.333333333333,4,3,1,75,0,1
47515,-133.333333333333,4,3,1,5,0,1
47518,-133.333333333333,4,3,1,5,0,1
47554,-133.333333333333,4,3,1,5,0,1
47966,-133.333333333333,4,3,1,5,0,1
48049,-76.9230769230769,4,3,1,20,0,0
49985,-76.9230769230769,4,3,1,5,0,0
49988,-76.9230769230769,4,3,1,5,0,0
50029,-76.9230769230769,4,3,1,5,0,0

[Colours]
Combo1 : 0,55,111
Combo2 : 58,58,58

[HitObjects]
256,192,524,12,0,1844,0:0:0:0:
73,57,5805,6,0,L|124:47,1,35,4|0,0:0|0:0,0:0:0:0:
265,159,6135,2,0,L|188:144,1,45.4999979171754
54,86,6465,2,0,L|116:73,1,45.4999979171754,8|0,0:0|0:0,0:0:0:0:
278,192,6795,2,0,L|212:177,1,45.4999979171754
35,129,7125,5,4,0:0:0:0:
169,266,7290,1,0,0:0:0:0:
156,115,7455,1,0,0:0:0:0:
26,244,7620,1,0,0:0:0:0:
235,186,7785,5,8,0:0:0:0:
235,186,8115,5,2,0:0:0:0:
235,186,8445,6,0,P|281:199|297:196,1,45.4999979171754,4|0,0:0|0:0,0:0:0:0:
449,254,8775,2,0,P|403:267|387:264,1,45.4999979171754,0|0,0:0|0:0,0:0:0:0:
216,211,9105,2,0,P|262:224|278:221,1,45.4999979171754,8|0,0:0|0:0,0:0:0:0:
476,282,9435,2,0,P|430:295|414:292,1,45.4999979171754,0|0,0:0|0:0,0:0:0:0:
189,245,9765,5,4,0:0:0:0:
72,203,9930,1,0,0:0:0:0:
26,89,10095,1,0,0:0:0:0:
140,39,10260,1,0,0:0:0:0:
286,125,10425,5,8,0:0:0:0:
337,223,10590,1,0,0:0:0:0:
375,61,10755,2,0,L|375:30,2,22.7499989585877,0|0|0,0:0|0:0|0:0,0:0:0:0:
426,266,11085,6,0,L|496:268,1,45.4999979171754,4|0,0:0|0:0,0:0:0:0:
267,215,11415,2,0,L|197:213,1,45.4999979171754,0|0,0:0|0:0,0:0:0:0:
446,300,11745,2,0,L|516:302,1,45.4999979171754,8|0,0:0|0:0,0:0:0:0:
248,244,12075,2,0,L|178:242,1,45.4999979171754,0|0,0:0|0:0,0:0:0:0:
472,340,12405,5,4,0:0:0:0:
331,336,12570,1,0,0:0:0:0:
217,358,12735,1,0,0:0:0:0:
91,328,12900,1,0,0:0:0:0:
58,189,13065,5,8,0:0:0:0:
58,189,13395,5,2,0:0:0:0:
58,189,13725,6,0,L|-7:182,1,45.4999979171754,4|0,0:0|0:0,0:0:0:0:
204,241,14055,2,0,L|269:234,1,45.4999979171754,0|0,0:0|0:0,0:0:0:0:
45,220,14385,2,0,L|-20:213,1,45.4999979171754,8|0,0:0|0:0,0:0:0:0:
221,268,14715,2,0,L|286:261,1,45.4999979171754,0|0,0:0|0:0,0:0:0:0:
23,258,15045,5,4,0:0:0:0:
74,68,15210,1,0,0:0:0:0:
138,267,15375,1,0,0:0:0:0:
192,73,15540,1,0,0:0:0:0:
301,288,15705,6,0,P|284:242|317:149,1,136.499993751526
309,140,16366,6,0,P|264:138|239:148,1,45.4999979171754,4|0,0:0|0:0,0:0:0:0:
93,191,16696,2,0,P|138:193|163:183,1,45.4999979171754,0|0,0:0|0:0,0:0:0:0:
330,173,17026,2,0,P|285:171|260:181,1,45.4999979171754,8|0,0:0|0:0,0:0:0:0:
75,226,17356,2,0,P|120:228|145:218,1,45.4999979171754,0|0,0:0|0:0,0:0:0:0:
350,218,17686,5,4,0:0:0:0:
183,273,17851,1,0,0:0:0:0:
351,333,18016,1,0,0:0:0:0:
264,138,18181,1,0,0:0:0:0:
395,86,18346,5,8,0:0:0:0:
395,86,18676,5,2,0:0:0:0:
395,86,19006,6,0,L|321:94,1,45.4999979171754,4|0,0:0|0:0,0:0:0:0:
147,97,19336,2,0,L|221:105,1,45.4999979171754,0|0,0:0|0:0,0:0:0:0:
419,116,19666,2,0,L|345:124,1,45.4999979171754,8|0,0:0|0:0,0:0:0:0:
126,124,19996,2,0,L|200:132,1,45.4999979171754,0|0,0:0|0:0,0:0:0:0:
450,152,20326,5,4,0:0:0:0:
276,227,20491,1,0,0:0:0:0:
362,121,20656,1,0,0:0:0:0:
377,281,20821,1,0,0:0:0:0:
251,134,20986,5,8,0:0:0:0:
184,291,21151,1,0,0:0:0:0:
136,81,21316,2,0,L|136:43,2,22.7499989585877,2|0|0,0:0|0:0|0:0,0:0:0:0:
49,220,21646,6,0,L|-18:232,1,45.4999979171754,4|0,0:0|0:0,0:0:0:0:
184,291,21976,2,0,L|251:303,1,45.4999979171754,0|0,0:0|0:0,0:0:0:0:
45,248,22306,2,0,L|-22:260,1,45.4999979171754,8|0,0:0|0:0,0:0:0:0:
191,318,22636,2,0,L|258:330,1,45.4999979171754,0|0,0:0|0:0,0:0:0:0:
32,293,22966,5,4,0:0:0:0:
201,223,23131,1,0,0:0:0:0:
55,152,23296,1,0,0:0:0:0:
201,74,23461,1,0,0:0:0:0:
379,138,23626,5,8,0:0:0:0:
379,138,23956,5,2,0:0:0:0:
379,138,24286,6,0,P|429:136|451:142,1,45.4999979171754,4|0,0:0|0:0,0:0:0:0:
246,225,24616,2,0,P|196:223|174:229,1,45.4999979171754,0|0,0:0|0:0,0:0:0:0:
416,158,24946,2,0,P|466:156|488:162,1,45.4999979171754,8|0,0:0|0:0,0:0:0:0:
219,248,25276,2,0,P|169:246|147:252,1,45.4999979171754,0|0,0:0|0:0,0:0:0:0:
30,297,25771,5,0,0:0:0:0:
0,143,25937,1,0,0:0:0:0:
135,3,26102,1,0,0:0:0:0:
392,52,26927,6,0,L|398:111,1,45.4999979171754,6|0,0:0|0:0,0:0:0:0:
367,297,27257,1,0,0:0:0:0:
287,96,27422,1,0,0:0:0:0:
467,194,27587,1,8,0:0:0:0:
245,217,27752,1,0,0:0:0:0:
396,97,27917,2,0,L|389:46,1,45.4999979171754,0|0,0:0|0:0,0:0:0:0:
367,297,28247,5,4,0:0:0:0:
215,359,28412,1,0,0:0:0:0:
53,265,28577,1,0,0:0:0:0:
79,63,28742,1,0,0:0:0:0:
318,36,28907,5,8,0:0:0:0:
318,36,29237,5,2,0:0:0:0:
318,36,29567,6,0,L|334:114,1,45.4999979171754,6|0,0:0|0:0,0:0:0:0:
382,289,29897,1,2,0:0:0:0:
492,176,30062,1,0,0:0:0:0:
235,169,30227,1,8,0:0:0:0:
264,334,30392,1,0,0:0:0:0:
327,80,30557,2,0,L|318:36,1,45.4999979171754,0|0,0:0|0:0,0:0:0:0:
264,334,30887,5,4,0:0:0:0:
451,73,31052,1,0,0:0:0:0:
439,318,31217,1,0,0:0:0:0:
241,108,31382,1,0,0:0:0:0:
73,196,31547,5,8,0:0:0:0:
112,21,31712,1,0,0:0:0:0:
137,291,31877,2,0,L|137:330,2,22.7499989585877,0|0|0,0:0|0:0|0:0,0:0:0:0:
249,63,32207,6,0,L|237:115,1,45.4999979171754,6|0,0:0|0:0,0:0:0:0:
220,296,32537,1,2,0:0:0:0:
344,64,32702,1,0,0:0:0:0:
100,151,32867,1,8,0:0:0:0:
374,308,33032,1,0,0:0:0:0:
238,107,33197,2,0,L|250:51,1,45.4999979171754,0|0,0:0|0:0,0:0:0:0:
261,334,33527,5,4,0:0:0:0:
504,269,33692,1,0,0:0:0:0:
344,64,33857,1,0,0:0:0:0:
438,333,34022,1,0,0:0:0:0:
192,164,34187,5,8,0:0:0:0:
192,164,34517,5,2,0:0:0:0:
192,164,34847,6,0,L|260:192,1,45.4999979171754,6|2,0:0|0:0,0:0:0:0:
465,270,35177,1,0,0:0:0:0:
284,40,35342,1,0,0:0:0:0:
240,314,35507,1,8,0:0:0:0:
455,121,35672,1,0,0:0:0:0:
234,181,35838,2,0,L|185:158,1,45.4999979171754,0|0,0:0|0:0,0:0:0:0:
17,25,36168,5,4,0:0:0:0:
66,309,36333,1,0,0:0:0:0:
202,21,36498,1,0,0:0:0:0:
320,323,36663,1,0,0:0:0:0:
405,27,36828,6,0,P|460:42|450:124,1,136.499993751526,8|0,0:0|0:0,0:0:0:0:
403,162,37488,6,0,L|338:162,1,45.4999979171754,6|0,0:0|0:0,0:0:0:0:
120,104,37818,1,2,0:0:0:0:
197,335,37983,1,0,0:0:0:0:
285,48,38148,1,8,0:0:0:0:
59,213,38313,1,0,0:0:0:0:
357,162,38478,2,0,L|432:162,1,45.4999979171754,0|0,0:0|0:0,0:0:0:0:
53,108,38808,5,4,0:0:0:0:
419,227,38973,1,0,0:0:0:0:
2,167,39138,1,0,0:0:0:0:
427,321,39303,1,0,0:0:0:0:
224,30,39468,5,8,0:0:0:0:
224,30,39798,5,2,0:0:0:0:
224,30,40128,6,0,L|224:98,1,45.4999979171754,6|2,0:0|0:0,0:0:0:0:
172,315,40458,1,0,0:0:0:0:
430,215,40623,1,0,0:0:0:0:
136,89,40788,1,8,0:0:0:0:
321,333,40953,1,0,0:0:0:0:
224,75,41118,2,0,L|224:12,1,45.4999979171754,0|0,0:0|0:0,0:0:0:0:
51,311,41448,5,4,0:0:0:0:
52,30,41613,1,0,0:0:0:0:
159,311,41778,1,0,0:0:0:0:
303,65,41943,1,0,0:0:0:0:
512,307,42108,5,8,0:0:0:0:
416,89,42273,1,0,0:0:0:0:
376,334,42438,2,0,L|378:376,2,22.7499989585877,0|0|0,0:0|0:0|0:0,0:0:0:0:
303,65,42768,6,0,L|310:130,1,45.4999979171754,6|0,0:0|0:0,0:0:0:0:
270,348,43098,1,2,0:0:0:0:
477,149,43263,1,0,0:0:0:0:
114,114,43428,1,8,0:0:0:0:
456,347,43593,1,0,0:0:0:0:
309,109,43758,2,0,L|301:58,1,45.4999979171754,0|0,0:0|0:0,0:0:0:0:
230,349,44088,5,4,0:0:0:0:
23,211,44253,1,0,0:0:0:0:
173,40,44418,1,0,0:0:0:0:
363,178,44583,1,0,0:0:0:0:
71,342,44748,5,8,0:0:0:0:
71,342,45078,5,2,0:0:0:0:
71,342,45408,6,0,L|71:277,1,45.4999979171754,6|2,0:0|0:0,0:0:0:0:
149,33,45738,1,0,0:0:0:0:
152,344,45904,1,0,0:0:0:0:
49,30,46069,1,8,0:0:0:0:
305,198,46234,1,0,0:0:0:0:
71,296,46399,2,0,L|71:348,1,45.4999979171754,0|0,0:0|0:0,0:0:0:0:
246,17,46729,5,4,0:0:0:0:
254,359,46894,1,0,0:0:0:0:
460,70,47059,1,0,0:0:0:0:
33,151,47224,1,0,0:0:0:0:
426,307,47389,5,8,0:0:0:0:
256,192,48049,12,0,50029,0:0:0:0:
