osu file format v14

[General]
AudioFilename: audio.mp3
AudioLeadIn: 0
PreviewTime: 77480
Countdown: 0
SampleSet: Soft
StackLeniency: 0.7
Mode: 3
LetterboxInBreaks: 0
SpecialStyle: 0
WidescreenStoryboard: 1

[Editor]
Bookmarks: 8753,17480,26207,34935,43662,52389,61116,69844,74207,78571,96026,104753,113480
DistanceSpacing: 0.3
BeatDivisor: 4
GridSize: 4
TimelineZoom: 0.8999999

[Metadata]
Title:tp na ame
TitleUnicode:тп на аме
Artist:ZERATch
ArtistUnicode:ZERATch
Creator:keksikosu
Version:flade's normal
Source:
Tags:serache serega pirat серега пират electronic hardcore remix russian русский anti-mage anti mage антимаг анти маг dota2 dota 2 дота2 дота 2 video game videogame vgm valve chordjack chordjacks chord chords jack jacks cj rice male vocal vocalist Flade
BeatmapID:4197065
BeatmapSetID:2004998

[Difficulty]
HPDrainRate:6.5
CircleSize:4
OverallDifficulty:6.5
ApproachRate:5
SliderMultiplier:1.4
SliderTickRate:1

[Events]
//Background and Video events
0,0,"bestgirl.jpg",0,0
//Break Periods
//Storyboard Layer 0 (Background)
//Storyboard Layer 1 (Fail)
//Storyboard Layer 2 (Pass)
//Storyboard Layer 3 (Foreground)
//Storyboard Layer 4 (Overlay)
//Storyboard Sound Samples

[TimingPoints]
26,272.727272727273,4,2,1,35,1,0
34935,-100,4,2,1,35,0,1
52389,-100,4,2,1,35,0,0
78571,-100,4,2,1,35,0,1
96026,-100,4,2,1,35,0,0
113480,-100,4,2,1,35,0,1
122207,-100,4,2,1,35,0,0

[HitObjects]
192,192,8753,5,0,0:0:0:0:
64,192,8753,1,0,0:0:0:0:
320,192,9026,1,0,0:0:0:0:
448,192,9298,1,0,0:0:0:0:
192,192,9571,1,0,0:0:0:0:
64,192,9844,1,0,0:0:0:0:
320,192,10116,1,0,0:0:0:0:
192,192,10389,1,0,0:0:0:0:
448,192,10526,1,0,0:0:0:0:
64,192,10662,1,0,0:0:0:0:
320,192,10935,1,0,0:0:0:0:
448,192,11207,1,0,0:0:0:0:
192,192,11480,1,0,0:0:0:0:
320,192,11753,1,0,0:0:0:0:
64,192,12026,1,0,0:0:0:0:
192,192,12298,1,0,0:0:0:0:
448,192,12571,1,0,0:0:0:0:
64,192,12707,1,0,0:0:0:0:
320,192,12844,1,0,0:0:0:0:
192,192,13116,1,0,0:0:0:0:
448,192,13389,1,0,0:0:0:0:
64,192,13662,1,0,0:0:0:0:
320,192,13935,1,0,0:0:0:0:
192,192,14207,1,0,0:0:0:0:
64,192,14480,1,0,0:0:0:0:
320,192,14753,1,0,0:0:0:0:
448,192,14889,1,0,0:0:0:0:
192,192,15026,1,0,0:0:0:0:
64,192,15298,1,0,0:0:0:0:
448,192,15571,1,0,0:0:0:0:
192,192,15844,1,0,0:0:0:0:
320,192,16116,1,0,0:0:0:0:
64,192,16662,1,0,0:0:0:0:
448,192,17071,1,0,0:0:0:0:
320,192,17480,1,0,0:0:0:0:
192,192,17480,1,0,0:0:0:0:
320,192,17753,1,0,0:0:0:0:
64,192,18026,1,0,0:0:0:0:
64,192,18298,1,0,0:0:0:0:
448,192,18571,1,0,0:0:0:0:
448,192,18844,1,0,0:0:0:0:
192,192,19116,1,0,0:0:0:0:
192,192,19389,1,0,0:0:0:0:
320,192,19526,1,0,0:0:0:0:
448,192,19662,1,0,0:0:0:0:
448,192,19935,1,0,0:0:0:0:
64,192,20207,1,0,0:0:0:0:
64,192,20480,1,0,0:0:0:0:
320,192,20753,1,0,0:0:0:0:
320,192,21026,1,0,0:0:0:0:
192,192,21298,1,0,0:0:0:0:
192,192,21571,1,0,0:0:0:0:
320,192,21707,1,0,0:0:0:0:
64,192,21844,1,0,0:0:0:0:
64,192,22116,1,0,0:0:0:0:
320,192,22389,1,0,0:0:0:0:
320,192,22662,1,0,0:0:0:0:
192,192,22935,1,0,0:0:0:0:
192,192,23207,1,0,0:0:0:0:
448,192,23480,1,0,0:0:0:0:
448,192,23753,1,0,0:0:0:0:
64,192,23889,1,0,0:0:0:0:
320,192,24026,1,0,0:0:0:0:
320,192,24298,1,0,0:0:0:0:
192,192,24571,1,0,0:0:0:0:
192,192,24844,1,0,0:0:0:0:
448,192,25116,1,0,0:0:0:0:
448,192,25389,1,0,0:0:0:0:
64,192,25662,1,0,0:0:0:0:
64,192,25935,1,0,0:0:0:0:
192,192,26071,1,0,0:0:0:0:
320,192,26207,1,0,0:0:0:0:
448,192,26207,1,0,0:0:0:0:
320,192,26480,1,0,0:0:0:0:
64,192,26753,1,0,0:0:0:0:
192,192,26753,1,0,0:0:0:0:
64,192,27026,1,0,0:0:0:0:
320,192,27298,1,0,0:0:0:0:
192,192,27298,1,0,0:0:0:0:
320,192,27571,1,0,0:0:0:0:
448,192,27844,1,0,0:0:0:0:
64,192,27844,1,0,0:0:0:0:
448,192,28116,1,0,0:0:0:0:
320,192,28253,1,0,0:0:0:0:
192,192,28389,1,0,0:0:0:0:
64,192,28389,1,0,0:0:0:0:
192,192,28662,1,0,0:0:0:0:
448,192,28935,1,0,0:0:0:0:
64,192,28935,1,0,0:0:0:0:
64,192,29207,1,0,0:0:0:0:
320,192,29480,1,0,0:0:0:0:
192,192,29480,1,0,0:0:0:0:
320,192,29753,1,0,0:0:0:0:
64,192,30026,1,0,0:0:0:0:
448,192,30026,1,0,0:0:0:0:
448,192,30298,1,0,0:0:0:0:
64,192,30435,1,0,0:0:0:0:
192,192,30571,1,0,0:0:0:0:
320,192,30571,1,0,0:0:0:0:
192,192,30844,1,0,0:0:0:0:
320,192,31116,1,0,0:0:0:0:
64,192,31116,1,0,0:0:0:0:
320,192,31389,1,0,0:0:0:0:
64,192,31662,1,0,0:0:0:0:
448,192,31662,1,0,0:0:0:0:
64,192,31935,1,0,0:0:0:0:
192,192,32207,1,0,0:0:0:0:
320,192,32207,1,0,0:0:0:0:
192,192,32480,1,0,0:0:0:0:
320,192,32616,1,0,0:0:0:0:
64,192,32753,1,0,0:0:0:0:
448,192,32753,1,0,0:0:0:0:
64,192,33026,1,0,0:0:0:0:
448,192,33298,1,0,0:0:0:0:
320,192,33298,1,0,0:0:0:0:
320,192,33571,1,0,0:0:0:0:
192,192,34116,1,0,0:0:0:0:
448,192,34389,1,0,0:0:0:0:
192,192,34935,1,0,0:0:0:0:
64,192,34935,1,0,0:0:0:0:
192,192,35207,1,0,0:0:0:0:
64,192,35207,1,0,0:0:0:0:
448,192,35480,1,0,0:0:0:0:
320,192,35480,1,0,0:0:0:0:
448,192,35753,1,0,0:0:0:0:
320,192,35753,1,0,0:0:0:0:
320,192,36026,1,0,0:0:0:0:
64,192,36026,1,0,0:0:0:0:
320,192,36298,1,0,0:0:0:0:
64,192,36298,1,0,0:0:0:0:
192,192,36571,1,0,0:0:0:0:
448,192,36571,1,0,0:0:0:0:
192,192,36844,1,0,0:0:0:0:
320,192,36980,1,0,0:0:0:0:
448,192,37116,1,0,0:0:0:0:
64,192,37116,1,0,0:0:0:0:
64,192,37389,1,0,0:0:0:0:
448,192,37389,1,0,0:0:0:0:
320,192,37662,1,0,0:0:0:0:
192,192,37662,1,0,0:0:0:0:
320,192,37935,1,0,0:0:0:0:
192,192,37935,1,0,0:0:0:0:
192,192,38207,1,0,0:0:0:0:
448,192,38207,1,0,0:0:0:0:
192,192,38480,1,0,0:0:0:0:
448,192,38480,1,0,0:0:0:0:
320,192,38753,1,0,0:0:0:0:
64,192,38753,1,0,0:0:0:0:
320,192,39026,1,0,0:0:0:0:
192,192,39162,1,0,0:0:0:0:
448,192,39298,1,0,0:0:0:0:
64,192,39298,1,0,0:0:0:0:
448,192,39571,1,0,0:0:0:0:
64,192,39571,1,0,0:0:0:0:
192,192,39844,1,0,0:0:0:0:
320,192,39844,1,0,0:0:0:0:
320,192,40116,1,0,0:0:0:0:
192,192,40116,1,0,0:0:0:0:
320,192,40389,1,0,0:0:0:0:
64,192,40389,1,0,0:0:0:0:
320,192,40662,1,0,0:0:0:0:
64,192,40662,1,0,0:0:0:0:
448,192,40935,1,0,0:0:0:0:
192,192,40935,1,0,0:0:0:0:
192,192,41207,1,0,0:0:0:0:
448,192,41344,1,0,0:0:0:0:
64,192,41480,1,0,0:0:0:0:
320,192,41480,1,0,0:0:0:0:
64,192,41753,1,0,0:0:0:0:
320,192,41753,1,0,0:0:0:0:
448,192,42026,1,0,0:0:0:0:
192,192,42026,1,0,0:0:0:0:
192,192,42298,1,0,0:0:0:0:
448,192,42298,1,0,0:0:0:0:
320,192,42571,1,0,0:0:0:0:
64,192,42844,1,0,0:0:0:0:
448,192,43116,1,0,0:0:0:0:
192,192,43389,1,0,0:0:0:0:
448,192,43662,1,0,0:0:0:0:
64,192,43662,1,0,0:0:0:0:
448,192,43935,1,0,0:0:0:0:
64,192,43935,1,0,0:0:0:0:
320,192,44207,1,0,0:0:0:0:
192,192,44207,1,0,0:0:0:0:
320,192,44480,1,0,0:0:0:0:
192,192,44480,1,0,0:0:0:0:
192,192,44753,1,0,0:0:0:0:
64,192,44753,1,0,0:0:0:0:
192,192,45026,1,0,0:0:0:0:
64,192,45026,1,0,0:0:0:0:
448,192,45298,1,0,0:0:0:0:
320,192,45298,1,0,0:0:0:0:
320,192,45571,1,0,0:0:0:0:
192,192,45707,1,0,0:0:0:0:
448,192,45844,1,0,0:0:0:0:
64,192,45844,1,0,0:0:0:0:
448,192,46116,1,0,0:0:0:0:
64,192,46116,1,0,0:0:0:0:
320,192,46389,1,0,0:0:0:0:
192,192,46389,1,0,0:0:0:0:
320,192,46662,1,0,0:0:0:0:
192,192,46662,1,0,0:0:0:0:
320,192,46935,1,0,0:0:0:0:
448,192,46935,1,0,0:0:0:0:
448,192,47207,1,0,0:0:0:0:
320,192,47207,1,0,0:0:0:0:
192,192,47480,1,0,0:0:0:0:
64,192,47480,1,0,0:0:0:0:
64,192,47753,1,0,0:0:0:0:
320,192,47889,1,0,0:0:0:0:
192,192,48026,1,0,0:0:0:0:
448,192,48026,1,0,0:0:0:0:
448,192,48298,1,0,0:0:0:0:
192,192,48298,1,0,0:0:0:0:
64,192,48571,1,0,0:0:0:0:
320,192,48571,1,0,0:0:0:0:
320,192,48844,1,0,0:0:0:0:
64,192,48844,1,0,0:0:0:0:
448,192,49116,1,0,0:0:0:0:
64,192,49116,1,0,0:0:0:0:
448,192,49389,1,0,0:0:0:0:
64,192,49389,1,0,0:0:0:0:
192,192,49662,1,0,0:0:0:0:
320,192,49662,1,0,0:0:0:0:
192,192,49935,1,0,0:0:0:0:
448,192,50071,1,0,0:0:0:0:
64,192,50207,1,0,0:0:0:0:
320,192,50207,1,0,0:0:0:0:
64,192,50480,1,0,0:0:0:0:
320,192,50480,1,0,0:0:0:0:
448,192,50753,1,0,0:0:0:0:
192,192,50753,1,0,0:0:0:0:
448,192,51026,1,0,0:0:0:0:
192,192,51026,1,0,0:0:0:0:
64,192,51298,1,0,0:0:0:0:
192,192,51298,1,0,0:0:0:0:
64,192,51571,1,0,0:0:0:0:
192,192,51571,1,0,0:0:0:0:
320,192,51844,1,0,0:0:0:0:
448,192,51844,1,0,0:0:0:0:
320,192,52116,1,0,0:0:0:0:
192,192,52253,1,0,0:0:0:0:
64,192,52389,1,0,0:0:0:0:
448,192,52389,1,0,0:0:0:0:
320,192,52662,1,0,0:0:0:0:
192,192,52935,1,0,0:0:0:0:
448,192,53207,1,0,0:0:0:0:
64,192,53480,1,0,0:0:0:0:
192,192,53753,1,0,0:0:0:0:
320,192,53889,1,0,0:0:0:0:
448,192,54026,1,0,0:0:0:0:
192,192,54298,1,0,0:0:0:0:
320,192,54571,1,0,0:0:0:0:
64,192,54844,1,0,0:0:0:0:
448,192,55116,1,0,0:0:0:0:
192,192,55389,1,0,0:0:0:0:
320,192,55662,1,0,0:0:0:0:
64,192,55935,1,0,0:0:0:0:
192,192,56071,1,0,0:0:0:0:
448,192,56207,1,0,0:0:0:0:
320,192,56344,1,0,0:0:0:0:
64,192,56480,1,0,0:0:0:0:
192,192,56753,1,0,0:0:0:0:
320,192,57026,1,0,0:0:0:0:
64,192,57298,1,0,0:0:0:0:
448,192,57571,1,0,0:0:0:0:
192,192,57844,1,0,0:0:0:0:
64,192,58116,1,0,0:0:0:0:
448,192,58253,1,0,0:0:0:0:
320,192,58389,1,0,0:0:0:0:
192,192,58662,1,0,0:0:0:0:
448,192,58935,1,0,0:0:0:0:
64,192,59207,1,0,0:0:0:0:
320,192,59480,1,0,0:0:0:0:
192,192,59753,1,0,0:0:0:0:
448,192,60026,1,0,0:0:0:0:
64,192,60298,1,0,0:0:0:0:
192,192,60435,1,0,0:0:0:0:
448,192,60571,1,0,0:0:0:0:
320,192,60707,1,0,0:0:0:0:
64,192,60844,1,0,0:0:0:0:
448,192,61116,1,0,0:0:0:0:
192,192,61116,1,0,0:0:0:0:
448,192,61389,1,0,0:0:0:0:
64,192,61662,1,0,0:0:0:0:
64,192,61935,1,0,0:0:0:0:
320,192,62207,1,0,0:0:0:0:
320,192,62480,1,0,0:0:0:0:
192,192,62753,1,0,0:0:0:0:
192,192,63026,1,0,0:0:0:0:
320,192,63162,1,0,0:0:0:0:
448,192,63298,1,0,0:0:0:0:
448,192,63571,1,0,0:0:0:0:
192,192,63844,1,0,0:0:0:0:
192,192,64116,1,0,0:0:0:0:
320,192,64389,1,0,0:0:0:0:
320,192,64662,1,0,0:0:0:0:
64,192,64935,1,0,0:0:0:0:
64,192,65207,1,0,0:0:0:0:
192,192,65344,1,0,0:0:0:0:
320,192,65480,1,0,0:0:0:0:
320,192,65753,1,0,0:0:0:0:
192,192,66026,1,0,0:0:0:0:
192,192,66298,1,0,0:0:0:0:
448,192,66571,1,0,0:0:0:0:
448,192,66844,1,0,0:0:0:0:
64,192,67116,1,0,0:0:0:0:
64,192,67389,1,0,0:0:0:0:
448,192,67526,1,0,0:0:0:0:
320,192,67662,1,0,0:0:0:0:
320,192,67935,1,0,0:0:0:0:
192,192,68207,1,0,0:0:0:0:
192,192,68480,1,0,0:0:0:0:
448,192,68753,1,0,0:0:0:0:
64,192,69026,1,0,0:0:0:0:
320,192,69162,1,0,0:0:0:0:
320,192,69435,1,0,0:0:0:0:
64,192,69571,1,0,0:0:0:0:
448,192,69844,1,0,0:0:0:0:
192,192,69844,1,0,0:0:0:0:
448,192,70116,1,0,0:0:0:0:
320,192,70389,1,0,0:0:0:0:
192,192,70389,1,0,0:0:0:0:
192,192,70662,1,0,0:0:0:0:
64,192,70935,1,0,0:0:0:0:
320,192,70935,1,0,0:0:0:0:
64,192,71207,1,0,0:0:0:0:
448,192,71480,1,0,0:0:0:0:
192,192,71480,1,0,0:0:0:0:
448,192,71753,1,0,0:0:0:0:
64,192,71889,1,0,0:0:0:0:
320,192,72026,1,0,0:0:0:0:
192,192,72026,1,0,0:0:0:0:
320,192,72298,1,0,0:0:0:0:
448,192,72571,1,0,0:0:0:0:
64,192,72571,1,0,0:0:0:0:
64,192,72844,1,0,0:0:0:0:
192,192,73116,1,0,0:0:0:0:
448,192,73116,1,0,0:0:0:0:
448,192,73389,1,0,0:0:0:0:
320,192,73662,1,0,0:0:0:0:
192,192,73662,1,0,0:0:0:0:
192,192,73935,1,0,0:0:0:0:
64,192,74071,1,0,0:0:0:0:
448,192,74207,1,0,0:0:0:0:
320,192,74207,1,0,0:0:0:0:
192,192,74480,1,0,0:0:0:0:
448,192,74753,1,0,0:0:0:0:
64,192,75026,1,0,0:0:0:0:
320,192,75298,1,0,0:0:0:0:
448,192,75571,1,0,0:0:0:0:
192,192,75571,1,0,0:0:0:0:
320,192,75980,1,0,0:0:0:0:
64,192,75980,1,0,0:0:0:0:
448,192,76389,1,0,0:0:0:0:
192,192,76389,1,0,0:0:0:0:
320,192,76662,1,0,0:0:0:0:
64,192,76935,1,0,0:0:0:0:
192,192,77207,1,0,0:0:0:0:
320,192,77753,1,0,0:0:0:0:
64,192,78026,1,0,0:0:0:0:
320,192,78571,1,0,0:0:0:0:
448,192,78571,1,0,0:0:0:0:
320,192,78844,1,0,0:0:0:0:
448,192,78844,1,0,0:0:0:0:
64,192,79116,1,0,0:0:0:0:
192,192,79116,1,0,0:0:0:0:
64,192,79389,1,0,0:0:0:0:
192,192,79389,1,0,0:0:0:0:
192,192,79662,1,0,0:0:0:0:
448,192,79662,1,0,0:0:0:0:
192,192,79935,1,0,0:0:0:0:
448,192,79935,1,0,0:0:0:0:
320,192,80207,1,0,0:0:0:0:
64,192,80207,1,0,0:0:0:0:
320,192,80480,1,0,0:0:0:0:
192,192,80616,1,0,0:0:0:0:
64,192,80753,1,0,0:0:0:0:
448,192,80753,1,0,0:0:0:0:
448,192,81026,1,0,0:0:0:0:
64,192,81026,1,0,0:0:0:0:
192,192,81298,1,0,0:0:0:0:
320,192,81298,1,0,0:0:0:0:
192,192,81571,1,0,0:0:0:0:
320,192,81571,1,0,0:0:0:0:
320,192,81844,1,0,0:0:0:0:
64,192,81844,1,0,0:0:0:0:
320,192,82116,1,0,0:0:0:0:
64,192,82116,1,0,0:0:0:0:
192,192,82389,1,0,0:0:0:0:
448,192,82389,1,0,0:0:0:0:
192,192,82662,1,0,0:0:0:0:
320,192,82798,1,0,0:0:0:0:
64,192,82935,1,0,0:0:0:0:
448,192,82935,1,0,0:0:0:0:
64,192,83207,1,0,0:0:0:0:
448,192,83207,1,0,0:0:0:0:
320,192,83480,1,0,0:0:0:0:
192,192,83480,1,0,0:0:0:0:
192,192,83753,1,0,0:0:0:0:
320,192,83753,1,0,0:0:0:0:
192,192,84026,1,0,0:0:0:0:
448,192,84026,1,0,0:0:0:0:
192,192,84298,1,0,0:0:0:0:
448,192,84298,1,0,0:0:0:0:
64,192,84571,1,0,0:0:0:0:
320,192,84571,1,0,0:0:0:0:
320,192,84844,1,0,0:0:0:0:
64,192,84980,1,0,0:0:0:0:
448,192,85116,1,0,0:0:0:0:
192,192,85116,1,0,0:0:0:0:
448,192,85389,1,0,0:0:0:0:
192,192,85389,1,0,0:0:0:0:
64,192,85662,1,0,0:0:0:0:
320,192,85662,1,0,0:0:0:0:
320,192,85935,1,0,0:0:0:0:
64,192,85935,1,0,0:0:0:0:
192,192,86207,1,0,0:0:0:0:
448,192,86480,1,0,0:0:0:0:
64,192,86753,1,0,0:0:0:0:
320,192,87026,1,0,0:0:0:0:
64,192,87298,1,0,0:0:0:0:
448,192,87298,1,0,0:0:0:0:
64,192,87571,1,0,0:0:0:0:
448,192,87571,1,0,0:0:0:0:
192,192,87844,1,0,0:0:0:0:
320,192,87844,1,0,0:0:0:0:
192,192,88116,1,0,0:0:0:0:
320,192,88116,1,0,0:0:0:0:
320,192,88389,1,0,0:0:0:0:
448,192,88389,1,0,0:0:0:0:
320,192,88662,1,0,0:0:0:0:
448,192,88662,1,0,0:0:0:0:
64,192,88935,1,0,0:0:0:0:
192,192,88935,1,0,0:0:0:0:
192,192,89207,1,0,0:0:0:0:
320,192,89344,1,0,0:0:0:0:
64,192,89480,1,0,0:0:0:0:
448,192,89480,1,0,0:0:0:0:
64,192,89753,1,0,0:0:0:0:
448,192,89753,1,0,0:0:0:0:
192,192,90026,1,0,0:0:0:0:
320,192,90026,1,0,0:0:0:0:
192,192,90298,1,0,0:0:0:0:
320,192,90298,1,0,0:0:0:0:
192,192,90571,1,0,0:0:0:0:
64,192,90571,1,0,0:0:0:0:
64,192,90844,1,0,0:0:0:0:
192,192,90844,1,0,0:0:0:0:
320,192,91116,1,0,0:0:0:0:
448,192,91116,1,0,0:0:0:0:
192,192,91389,1,0,0:0:0:0:
448,192,91526,1,0,0:0:0:0:
320,192,91662,1,0,0:0:0:0:
64,192,91662,1,0,0:0:0:0:
64,192,91935,1,0,0:0:0:0:
320,192,91935,1,0,0:0:0:0:
448,192,92207,1,0,0:0:0:0:
192,192,92207,1,0,0:0:0:0:
192,192,92480,1,0,0:0:0:0:
448,192,92480,1,0,0:0:0:0:
64,192,92753,1,0,0:0:0:0:
448,192,92753,1,0,0:0:0:0:
64,192,93026,1,0,0:0:0:0:
448,192,93026,1,0,0:0:0:0:
320,192,93298,1,0,0:0:0:0:
192,192,93298,1,0,0:0:0:0:
320,192,93571,1,0,0:0:0:0:
64,192,93707,1,0,0:0:0:0:
448,192,93844,1,0,0:0:0:0:
192,192,93844,1,0,0:0:0:0:
448,192,94116,1,0,0:0:0:0:
192,192,94116,1,0,0:0:0:0:
64,192,94389,1,0,0:0:0:0:
320,192,94389,1,0,0:0:0:0:
64,192,94662,1,0,0:0:0:0:
320,192,94662,1,0,0:0:0:0:
448,192,94935,1,0,0:0:0:0:
320,192,94935,1,0,0:0:0:0:
448,192,95207,1,0,0:0:0:0:
320,192,95207,1,0,0:0:0:0:
192,192,95480,1,0,0:0:0:0:
64,192,95480,1,0,0:0:0:0:
192,192,95753,1,0,0:0:0:0:
320,192,95889,1,0,0:0:0:0:
448,192,96026,1,0,0:0:0:0:
64,192,96026,1,0,0:0:0:0:
448,192,96298,1,0,0:0:0:0:
448,192,96571,1,0,0:0:0:0:
448,192,96844,1,0,0:0:0:0:
64,192,97116,1,0,0:0:0:0:
64,192,97389,1,0,0:0:0:0:
64,192,97662,1,0,0:0:0:0:
64,192,97935,1,0,0:0:0:0:
192,192,98071,1,0,0:0:0:0:
320,192,98207,1,0,0:0:0:0:
320,192,98480,1,0,0:0:0:0:
320,192,98753,1,0,0:0:0:0:
320,192,99026,1,0,0:0:0:0:
192,192,99298,1,0,0:0:0:0:
192,192,99571,1,0,0:0:0:0:
192,192,99844,1,0,0:0:0:0:
192,192,100116,1,0,0:0:0:0:
320,192,100253,1,0,0:0:0:0:
448,192,100389,1,0,0:0:0:0:
448,192,100662,1,0,0:0:0:0:
448,192,100935,1,0,0:0:0:0:
448,192,101207,1,0,0:0:0:0:
64,192,101480,1,0,0:0:0:0:
64,192,101753,1,0,0:0:0:0:
64,192,102026,1,0,0:0:0:0:
64,192,102298,1,0,0:0:0:0:
192,192,102435,1,0,0:0:0:0:
320,192,102571,1,0,0:0:0:0:
320,192,102844,1,0,0:0:0:0:
320,192,103116,1,0,0:0:0:0:
320,192,103389,1,0,0:0:0:0:
64,192,103662,1,0,0:0:0:0:
192,192,103798,1,0,0:0:0:0:
320,192,103935,1,0,0:0:0:0:
448,192,104207,1,0,0:0:0:0:
320,192,104344,1,0,0:0:0:0:
192,192,104480,1,0,0:0:0:0:
192,192,104753,1,0,0:0:0:0:
64,192,104753,1,0,0:0:0:0:
320,192,105026,1,0,0:0:0:0:
448,192,105298,1,0,0:0:0:0:
64,192,105298,1,0,0:0:0:0:
192,192,105571,1,0,0:0:0:0:
448,192,105844,1,0,0:0:0:0:
320,192,105844,1,0,0:0:0:0:
64,192,106116,1,0,0:0:0:0:
448,192,106389,1,0,0:0:0:0:
192,192,106389,1,0,0:0:0:0:
320,192,106662,1,0,0:0:0:0:
64,192,106798,1,0,0:0:0:0:
448,192,106935,1,0,0:0:0:0:
192,192,107207,1,0,0:0:0:0:
320,192,107480,1,0,0:0:0:0:
64,192,107480,1,0,0:0:0:0:
448,192,107753,1,0,0:0:0:0:
192,192,108026,1,0,0:0:0:0:
64,192,108026,1,0,0:0:0:0:
320,192,108298,1,0,0:0:0:0:
448,192,108571,1,0,0:0:0:0:
64,192,108571,1,0,0:0:0:0:
320,192,108844,1,0,0:0:0:0:
192,192,108980,1,0,0:0:0:0:
448,192,109116,1,0,0:0:0:0:
64,192,109389,1,0,0:0:0:0:
192,192,109662,1,0,0:0:0:0:
320,192,109662,1,0,0:0:0:0:
448,192,109935,1,0,0:0:0:0:
64,192,110207,1,0,0:0:0:0:
192,192,110207,1,0,0:0:0:0:
320,192,110480,1,0,0:0:0:0:
64,192,110753,1,0,0:0:0:0:
448,192,110753,1,0,0:0:0:0:
192,192,111026,1,0,0:0:0:0:
320,192,111162,1,0,0:0:0:0:
64,192,111298,1,0,0:0:0:0:
448,192,111571,1,0,0:0:0:0:
320,192,111844,1,0,0:0:0:0:
64,192,111844,1,0,0:0:0:0:
192,192,112116,1,0,0:0:0:0:
320,192,112389,1,0,0:0:0:0:
448,192,112389,1,0,0:0:0:0:
64,192,112662,1,0,0:0:0:0:
192,192,112935,1,0,0:0:0:0:
448,192,112935,1,0,0:0:0:0:
320,192,113207,1,0,0:0:0:0:
192,192,113344,1,0,0:0:0:0:
448,192,113480,1,0,0:0:0:0:
64,192,113480,1,0,0:0:0:0:
448,192,113753,1,0,0:0:0:0:
64,192,113753,1,0,0:0:0:0:
320,192,114026,1,0,0:0:0:0:
192,192,114026,1,0,0:0:0:0:
320,192,114298,1,0,0:0:0:0:
192,192,114298,1,0,0:0:0:0:
448,192,114571,1,0,0:0:0:0:
192,192,114571,1,0,0:0:0:0:
192,192,114844,1,0,0:0:0:0:
448,192,114844,1,0,0:0:0:0:
320,192,115116,1,0,0:0:0:0:
64,192,115116,1,0,0:0:0:0:
64,192,115389,1,0,0:0:0:0:
192,192,115526,1,0,0:0:0:0:
448,192,115662,1,0,0:0:0:0:
320,192,115662,1,0,0:0:0:0:
448,192,115935,1,0,0:0:0:0:
320,192,115935,1,0,0:0:0:0:
192,192,116207,1,0,0:0:0:0:
64,192,116207,1,0,0:0:0:0:
192,192,116480,1,0,0:0:0:0:
64,192,116480,1,0,0:0:0:0:
448,192,116753,1,0,0:0:0:0:
64,192,116753,1,0,0:0:0:0:
448,192,117026,1,0,0:0:0:0:
64,192,117026,1,0,0:0:0:0:
320,192,117298,1,0,0:0:0:0:
192,192,117298,1,0,0:0:0:0:
320,192,117571,1,0,0:0:0:0:
64,192,117707,1,0,0:0:0:0:
192,192,117844,1,0,0:0:0:0:
448,192,117844,1,0,0:0:0:0:
448,192,118116,1,0,0:0:0:0:
192,192,118116,1,0,0:0:0:0:
320,192,118389,1,0,0:0:0:0:
64,192,118389,1,0,0:0:0:0:
320,192,118662,1,0,0:0:0:0:
64,192,118662,1,0,0:0:0:0:
448,192,118935,1,0,0:0:0:0:
320,192,118935,1,0,0:0:0:0:
448,192,119207,1,0,0:0:0:0:
320,192,119207,1,0,0:0:0:0:
192,192,119480,1,0,0:0:0:0:
64,192,119480,1,0,0:0:0:0:
64,192,119753,1,0,0:0:0:0:
448,192,119889,1,0,0:0:0:0:
320,192,120026,1,0,0:0:0:0:
192,192,120026,1,0,0:0:0:0:
320,192,120298,1,0,0:0:0:0:
192,192,120298,1,0,0:0:0:0:
448,192,120571,1,0,0:0:0:0:
64,192,120571,1,0,0:0:0:0:
64,192,120844,1,0,0:0:0:0:
448,192,120844,1,0,0:0:0:0:
320,192,121116,1,0,0:0:0:0:
64,192,121116,1,0,0:0:0:0:
320,192,121389,1,0,0:0:0:0:
64,192,121389,1,0,0:0:0:0:
448,192,121662,1,0,0:0:0:0:
192,192,121662,1,0,0:0:0:0:
448,192,121935,1,0,0:0:0:0:
192,192,121935,1,0,0:0:0:0:
320,192,122071,1,0,0:0:0:0:
