osu file format v14

[General]
AudioFilename: audio.mp3
AudioLeadIn: 0
PreviewTime: 43741
Countdown: 0
SampleSet: Normal
StackLeniency: 0.7
Mode: 0
LetterboxInBreaks: 0
WidescreenStoryboard: 1

[Editor]
Bookmarks: 60446,65900,82264,87710
DistanceSpacing: 1
BeatDivisor: 4
GridSize: 16
TimelineZoom: 1

[Metadata]
Title:International Mloda Krew Festival
TitleUnicode:International Młoda Krew Festival
Artist:ZBUKU ft. Sliwa, Sztoss with Various Artists
ArtistUnicode:ZBUKU ft. Śliwa, Sztoss with Various Artists
Creator:XVoIR
Version:Insane
Source:
Tags:gachimuchi zycie szalonym zyciem iwf kokusaiteki pantsu gourmet race kirby super star cptsqbany lukermaster 2013 polish poland polska rap hip hop right version billy herrington van darkholme kiyoshi kazuya danny lee mark wolff aniki nsfw
BeatmapID:1625170
BeatmapSetID:763540

[Difficulty]
HPDrainRate:5
CircleSize:3.7
OverallDifficulty:7
ApproachRate:8.5
SliderMultiplier:1.8
SliderTickRate:1

[Events]
//Background and Video events
0,0,"bg.jpg",0,0
//Break Periods
//Storyboard Layer 0 (Background)
//Storyboard Layer 1 (Fail)
//Storyboard Layer 2 (Pass)
//Storyboard Layer 3 (Foreground)
//Storyboard Sound Samples

[TimingPoints]
446,340.909090909091,4,2,2,74,1,0
38627,-111.111111111111,4,2,2,74,0,0
87292,-66.6666666666667,4,2,2,74,0,0
87710,327.868852459016,4,1,2,74,1,1
95578,-90.9090909090909,4,1,2,74,0,1
96890,-100,4,1,2,74,0,1
101070,-100,4,1,2,5,0,1
101152,-100,4,1,2,74,0,1
101398,-100,4,1,2,5,0,1
101480,-100,4,1,2,74,0,1
101725,-100,4,1,2,5,0,1
101807,-100,4,1,2,74,0,1
102053,-100,4,1,2,5,0,1
102135,-100,4,1,2,74,0,1
105004,-100,4,1,2,5,0,1
105086,-100,4,1,2,74,0,1
108693,-100,4,1,2,74,0,0

[Colours]
Combo1 : 174,52,248
Combo2 : 51,131,251
Combo3 : 125,249,43
Combo4 : 249,245,104
Combo5 : 255,62,13

[HitObjects]
64,272,38627,5,0,0:0:0:0:
80,256,38968,1,0,0:0:0:0:
96,240,39309,1,0,0:0:0:0:
112,224,39650,1,0,0:0:0:0:
192,256,39991,5,0,0:0:0:0:
208,240,40332,1,0,0:0:0:0:
224,224,40673,1,0,0:0:0:0:
240,208,41014,1,0,0:0:0:0:
320,240,41354,5,0,0:0:0:0:
336,224,41695,1,0,0:0:0:0:
352,208,42036,1,0,0:0:0:0:
368,192,42377,1,0,0:0:0:0:
448,96,42718,5,0,3:0:0:0:
448,96,42803,1,0,3:0:0:0:
448,96,42889,1,0,3:0:0:0:
347,36,43059,2,0,P|301:27|260:32,1,80.9999975280762,0|0,3:0|3:0,0:0:0:0:
237,131,43400,2,0,P|191:140|150:135,1,80.9999975280762,0|0,3:0|3:0,0:0:0:0:
53,119,43741,5,0,0:0:0:0:
22,301,43911,1,0,0:0:0:0:
124,277,44082,6,0,L|289:249,1,161.999995056152,4|0,0:3|0:3,0:0:0:0:
377,298,44593,1,0,0:0:0:0:
455,227,44764,2,0,P|466:176|451:138,1,80.9999975280762,0|0,1:0|0:0,0:0:0:0:
378,52,45105,1,0,1:0:0:0:
386,186,45275,1,0,0:0:0:0:
378,39,45446,6,0,B|333:48|292:29|292:29|242:9|181:12,1,161.999995056152,2|0,0:0|0:0,0:0:0:0:
80,24,45957,1,0,0:0:0:0:
11,131,46127,1,0,1:0:0:0:
92,231,46298,1,0,0:0:0:0:
168,109,46468,6,0,P|215:100|263:114,1,80.9999975280762,0|0,1:0|0:0,0:0:0:0:
347,138,46809,2,0,B|364:202|364:202|340:315,1,161.999995056152,8|0,0:3|0:0,0:0:0:0:
251,348,47321,1,0,0:0:0:0:
148,324,47491,2,0,L|57:297,1,80.9999975280762,0|0,1:0|0:0,0:0:0:0:
73,195,47832,2,0,L|164:168,1,80.9999975280762,0|0,1:0|0:0,0:0:0:0:
252,144,48173,6,0,P|296:117|295:10,1,161.999995056152,2|0,0:0|0:0,0:0:0:0:
194,27,48684,1,0,0:0:0:0:
249,166,48855,2,0,P|294:171|343:153,1,80.9999975280762,0|0,1:0|0:0,0:0:0:0:
388,75,49196,2,0,P|433:70|482:88,1,80.9999975280762,0|0,1:0|0:0,0:0:0:0:
483,183,49536,5,4,0:3:0:0:
495,287,49707,1,0,0:0:0:0:
398,328,49877,2,0,B|351:346|289:315,1,80.9999975280762,0|0,0:0|0:0,0:0:0:0:
245,250,50218,2,0,B|198:232|136:263,1,80.9999975280762,0|0,1:0|0:0,0:0:0:0:
73,303,50559,1,0,1:0:0:0:
89,198,50730,1,0,0:0:0:0:
170,344,50900,6,0,P|179:297|159:242,1,80.9999975280762,2|0,0:0|0:0,0:0:0:0:
89,198,51241,2,0,P|80:151|100:96,1,80.9999975280762,0|0,0:0|0:0,0:0:0:0:
141,28,51582,1,0,1:0:0:0:
235,74,51752,2,0,P|276:93|380:41,1,161.999995056152,0|0,0:0|0:0,0:0:0:0:
512,143,52264,6,0,P|471:124|367:176,1,161.999995056152,8|0,0:3|0:0,0:0:0:0:
335,267,52775,1,0,0:0:0:0:
415,335,52946,2,0,P|465:314|483:273,1,80.9999975280762,0|0,1:0|0:0,0:0:0:0:
335,267,53286,2,0,P|285:288|267:329,1,80.9999975280762,0|0,1:0|0:0,0:0:0:0:
118,326,53627,5,2,0:0:0:0:
235,382,53798,1,0,0:0:0:0:
98,315,53968,2,0,L|109:219,1,80.9999975280762,0|0,0:0|0:0,0:0:0:0:
186,106,54309,2,0,L|197:202,1,80.9999975280762,0|0,1:0|0:0,0:0:0:0:
282,282,54650,2,0,L|303:97,1,161.999995056152,0|4,1:0|0:3,0:0:0:0:
313,16,55161,5,0,0:0:0:0:
387,91,55332,2,0,L|478:98,1,80.9999975280762,0|0,0:0|0:0,0:0:0:0:
284,124,55673,2,0,L|193:131,1,80.9999975280762,0|0,1:0|0:0,0:0:0:0:
97,138,56014,1,0,1:0:0:0:
157,223,56184,1,0,0:0:0:0:
108,317,56355,6,0,L|16:310,1,80.9999975280762,2|0,0:0|0:0,0:0:0:0:
225,286,56696,2,0,L|317:279,1,80.9999975280762,0|0,0:0|0:0,0:0:0:0:
404,314,57036,1,0,1:0:0:0:
463,226,57207,1,0,0:0:0:0:
415,132,57377,1,0,1:0:0:0:
469,41,57548,1,0,0:0:0:0:
367,13,57718,6,0,B|318:22|318:22|294:59|294:59|197:77,1,161.999995056153,8|0,0:3|0:0,0:0:0:0:
122,89,58230,1,0,0:0:0:0:
18,107,58400,2,0,P|7:150|23:199,1,80.9999975280763,0|0,1:0|0:0,0:0:0:0:
152,289,58741,2,0,P|163:246|147:197,1,80.9999975280763,0|0,1:0|0:0,0:0:0:0:
40,336,59082,5,2,0:0:0:0:
132,286,59252,2,0,P|181:272|221:269,1,80.9999975280763,0|0,0:0|0:0,0:0:0:0:
305,316,59593,2,0,P|354:330|394:333,1,80.9999975280763,0|0,0:0|1:0,0:0:0:0:
458,257,59934,1,0,0:0:0:0:
410,87,60105,1,0,1:0:0:0:
374,185,60275,1,0,1:0:0:0:
299,34,60446,6,0,P|250:21|206:37,1,80.9999975280763,4|2,0:3|0:0,0:0:0:0:
137,154,60786,2,0,P|186:167|230:151,1,80.9999975280763,0|2,0:0|0:0,0:0:0:0:
310,25,61127,6,0,P|254:10|204:28,1,80.9999975280763,0|2,1:0|0:0,0:0:0:0:
125,162,61468,2,0,P|181:177|231:159,1,80.9999975280763,0|2,0:0|0:0,0:0:0:0:
280,164,61724,1,2,0:0:0:0:
280,164,61809,6,0,P|297:219|285:267,1,80.9999975280763,4|2,0:3|0:0,0:0:0:0:
218,356,62150,1,0,0:0:0:0:
112,264,62321,1,2,0:0:0:0:
286,159,62491,6,0,P|304:218|291:270,1,80.9999975280763,0|2,1:0|0:0,0:0:0:0:
217,366,62832,1,0,0:0:0:0:
106,258,63003,1,2,0:0:0:0:
302,236,63173,6,0,L|399:243,1,80.9999975280763,4|2,0:3|0:0,0:0:0:0:
433,344,63514,1,0,0:0:0:0:
401,132,63684,1,2,0:0:0:0:
401,132,63769,1,2,0:0:0:0:
401,132,63855,6,0,L|304:125,1,80.9999975280763,0|2,1:0|0:0,0:0:0:0:
271,20,64196,1,0,0:0:0:0:
302,236,64366,1,2,0:0:0:0:
161,138,64536,6,0,P|129:111|81:110,1,80.9999975280763,4|2,1:2|1:2,0:0:0:0:
125,309,64877,2,0,P|157:336|205:337,1,80.9999975280763,0|2,1:2|1:2,0:0:0:0:
40,201,65218,6,0,P|9:237|3:285,1,80.9999975280763,0|2,1:2|1:2,0:0:0:0:
245,245,65559,2,0,P|276:209|282:161,1,80.9999975280763,0|2,1:2|1:2,0:0:0:0:
235,82,65900,6,0,B|295:55|295:55|346:69|346:69|417:38,1,161.999995056153,4|0,0:3|0:0,0:0:0:0:
481,7,66411,1,0,0:0:0:0:
441,105,66582,2,0,P|426:153|444:212,1,80.9999975280763,0|0,1:0|0:0,0:0:0:0:
500,260,66923,2,0,P|515:308|497:367,1,80.9999975280763,0|0,1:0|0:0,0:0:0:0:
407,356,67264,1,2,0:0:0:0:
314,262,67434,6,0,L|226:278,1,80.9999975280763,0|0,0:0|0:0,0:0:0:0:
130,296,67775,1,0,0:0:0:0:
200,375,67946,1,0,1:0:0:0:
263,175,68116,1,0,0:0:0:0:
366,154,68286,2,0,L|454:138,1,80.9999975280763,0|0,1:0|0:0,0:0:0:0:
402,43,68627,6,0,B|359:62|320:40|320:40|283:17|225:35,1,161.999995056153,8|0,0:3|0:0,0:0:0:0:
143,57,69139,1,0,0:0:0:0:
53,111,69309,2,0,P|33:59|51:7,1,80.9999975280763,0|0,1:0|0:0,0:0:0:0:
225,7,69650,2,0,P|245:59|227:111,1,80.9999975280763,0|0,1:0|0:0,0:0:0:0:
205,181,69991,1,2,0:0:0:0:
250,324,70161,6,0,L|347:317,1,80.9999975280763,0|0,0:0|0:0,0:0:0:0:
113,252,70502,2,0,L|16:259,1,80.9999975280763,0|0,0:0|1:0,0:0:0:0:
87,347,70843,1,0,0:0:0:0:
177,292,71014,2,0,P|192:247|177:205,1,80.9999975280763,0|0,1:0|0:0,0:0:0:0:
70,116,71355,6,0,P|120:130|226:54,1,161.999995056153,4|0,0:3|0:0,0:0:0:0:
284,3,71866,1,0,0:0:0:0:
372,60,72036,1,0,1:0:0:0:
297,166,72207,1,0,0:0:0:0:
382,226,72377,2,0,P|424:230|461:205,1,80.9999975280763,0|0,1:0|0:0,0:0:0:0:
291,161,72718,6,0,P|249:157|212:182,1,80.9999975280763,2|0,0:0|0:0,0:0:0:0:
143,252,73059,1,0,0:0:0:0:
206,336,73230,1,0,0:0:0:0:
125,228,73400,2,0,L|34:233,1,80.9999975280763,0|0,1:0|0:0,0:0:0:0:
223,353,73741,2,0,L|314:358,1,80.9999975280763,0|0,1:0|0:0,0:0:0:0:
407,334,74082,6,0,B|419:288|419:288|381:156,1,161.999995056153,8|0,0:3|0:0,0:0:0:0:
358,76,74593,1,0,0:0:0:0:
255,51,74764,2,0,P|216:47|162:71,1,80.9999975280763,0|0,1:0|0:0,0:0:0:0:
73,82,75105,2,0,P|89:117|136:152,1,80.9999975280763,0|0,1:0|0:0,0:0:0:0:
209,200,75446,5,2,0:0:0:0:
120,256,75616,1,0,0:0:0:0:
251,306,75786,2,0,P|295:298|322:267,1,80.9999975280763,0|0,0:0|0:0,0:0:0:0:
120,256,76127,2,0,P|76:264|49:295,1,80.9999975280763,0|0,1:0|0:0,0:0:0:0:
115,373,76468,1,0,1:0:0:0:
209,196,76639,1,0,0:0:0:0:
295,256,76809,6,0,L|481:265,1,161.999995056153,4|0,0:3|0:0,0:0:0:0:
420,164,77321,1,0,0:0:0:0:
315,156,77491,2,0,P|284:129|272:71,1,80.9999975280763,0|0,1:0|0:0,0:0:0:0:
324,1,77832,2,0,P|355:28|367:86,1,80.9999975280763,0|0,1:0|0:0,0:0:0:0:
271,83,78173,6,0,L|85:71,1,161.999995056153,2|0,0:0|0:0,0:0:0:0:
20,130,78684,1,0,0:0:0:0:
83,214,78855,2,0,P|98:258|91:302,1,80.9999975280763,0|0,1:0|0:0,0:0:0:0:
211,352,79196,2,0,P|196:308|203:264,1,80.9999975280763,0|0,1:0|0:0,0:0:0:0:
267,194,79536,6,0,B|315:179|315:179|456:201,1,161.999995056153,8|0,0:3|0:0,0:0:0:0:
473,291,80048,1,0,0:0:0:0:
437,117,80218,2,0,L|349:104,1,80.9999975280763,0|0,1:0|0:0,0:0:0:0:
268,46,80559,2,0,L|180:33,1,80.9999975280763,0|0,1:0|0:0,0:0:0:0:
83,20,80900,6,0,P|59:63|84:191,1,161.999995056153,2|0,0:0|0:0,0:0:0:0:
129,259,81411,1,0,0:0:0:0:
226,219,81582,2,0,B|255:204|255:204|338:213,1,80.9999975280763,0|0,1:0|0:0,0:0:0:0:
417,315,81923,2,0,B|388:330|388:330|305:321,1,80.9999975280763,0|0,1:0|1:0,0:0:0:0:
436,139,82264,6,0,L|454:227,1,80.9999975280763,4|2,0:3|0:0,0:0:0:0:
329,46,82605,2,0,L|311:134,1,80.9999975280763,0|2,0:0|0:0,0:0:0:0:
452,153,82946,6,0,L|475:267,1,80.9999975280763,0|2,1:0|0:0,0:0:0:0:
312,31,83287,2,0,L|289:146,1,80.9999975280763,0|2,1:0|0:0,0:0:0:0:
264,243,83627,5,4,0:3:0:0:
142,184,83798,1,2,0:0:0:0:
58,273,83968,2,0,L|36:364,1,80.9999975280763,0|2,0:0|0:0,0:0:0:0:
242,350,84309,6,0,L|220:259,1,80.9999975280763,0|2,1:0|0:0,0:0:0:0:
179,114,84650,1,0,1:0:0:0:
327,185,84821,1,2,0:0:0:0:
160,101,84991,6,0,P|114:100|76:111,1,80.9999975280763,4|2,0:3|0:0,0:0:0:0:
316,197,85332,2,0,P|362:198|400:187,1,80.9999975280763,0|2,0:0|0:0,0:0:0:0:
425,28,85673,6,0,L|412:117,1,80.9999975280763,0|2,1:0|0:0,0:0:0:0:
376,286,86014,1,0,1:0:0:0:
323,111,86184,1,2,0:0:0:0:
267,294,86355,6,0,L|254:205,1,80.9999975280763,4|2,1:3|1:2,0:0:0:0:
218,36,86696,1,0,1:2:0:0:
165,211,86866,1,2,1:2:0:0:
70,137,87036,6,0,L|15:129,3,40.4999987640381,2|2|2|2,1:2|1:2|1:2|1:2,0:0:0:0:
98,220,87377,2,0,L|187:206,3,67.5000025749208,2|2|2|2,1:2|1:2|1:2|1:2,0:0:0:0:
239,261,87710,6,0,P|290:247|337:121,1,180,4|8,0:3|0:3,0:0:0:0:
335,50,88201,1,0,0:0:0:0:
251,15,88365,2,0,P|199:28|152:154,1,180,4|8,0:3|0:3,0:0:0:0:
162,224,88857,1,0,0:0:0:0:
157,313,89021,6,0,P|111:330|49:312,1,90,4|0,0:3|0:0,0:0:0:0:
241,350,89349,2,0,P|287:333|349:351,1,90,8|0,0:3|0:0,0:0:0:0:
412,368,89677,1,4,0:3:0:0:
472,300,89841,1,0,0:0:0:0:
472,300,89923,1,0,0:0:0:0:
472,300,90005,2,0,P|486:239|476:198,1,90,8|0,0:3|0:0,0:0:0:0:
426,141,90332,6,0,P|397:88|465:-14,1,180,4|8,0:3|0:3,0:0:0:0:
487,73,90824,1,0,0:0:0:0:
402,151,90988,2,0,P|332:162|241:95,1,180,4|8,0:3|0:3,0:0:0:0:
202,23,91480,1,0,0:0:0:0:
124,68,91644,6,0,P|103:112|110:154,1,90,4|2,0:3|0:0,0:0:0:0:
178,209,91972,2,0,P|194:254|228:279,1,90,8|2,0:3|0:0,0:0:0:0:
316,282,92300,1,8,0:0:0:0:
338,277,92381,1,8,0:0:0:0:
360,273,92463,1,8,0:0:0:0:
382,268,92545,1,0,0:0:0:0:
404,264,92627,1,8,0:0:0:0:
416,174,92791,1,8,0:0:0:0:
394,169,92873,1,0,0:0:0:0:
372,165,92955,6,0,P|303:137|251:47,1,180,4|8,0:3|0:3,0:0:0:0:
165,20,93447,1,0,0:0:0:0:
164,112,93611,2,0,P|125:191|43:222,1,180,4|8,0:3|0:3,0:0:0:0:
34,132,94103,1,0,0:0:0:0:
86,248,94267,6,0,P|102:313|99:344,1,90,4|2,0:3|0:0,0:0:0:0:
229,200,94595,2,0,P|213:265|216:296,1,90,8|2,0:3|0:0,0:0:0:0:
317,343,94923,2,0,B|367:348|367:348|512:305,1,180,4|8,0:3|0:3,0:0:0:0:
475,222,95414,1,8,0:3:0:0:
460,133,95578,6,0,L|267:85,1,198.000006042481,4|8,0:3|0:3,0:0:0:0:
226,294,96234,2,0,L|28:245,1,198.000006042481,4|8,0:3|0:3,0:0:0:0:
83,72,96890,6,0,P|105:126|91:161,1,90,4|0,0:3|0:0,0:0:0:0:
45,229,97218,2,0,P|23:283|37:318,1,90,8|0,0:3|0:0,0:0:0:0:
97,372,97546,5,8,0:0:0:0:
118,376,97627,1,8,0:0:0:0:
141,375,97709,1,8,0:0:0:0:
162,368,97791,1,8,0:0:0:0:
180,355,97873,1,8,0:0:0:0:
247,294,98037,1,8,0:0:0:0:
247,294,98119,1,8,0:0:0:0:
247,294,98201,6,0,L|345:280,1,90,4|8,0:3|0:3,0:0:0:0:
466,213,98529,2,0,L|368:199,1,90,4|8,0:3|0:3,0:0:0:0:
285,185,98857,1,4,0:3:0:0:
195,175,99021,1,8,0:3:0:0:
105,165,99185,1,4,0:3:0:0:
15,155,99349,1,8,0:3:0:0:
74,87,99513,6,0,P|122:67|178:73,1,90,4|8,0:3|0:3,0:0:0:0:
244,97,99841,2,0,P|292:117|348:111,1,90,4|8,0:3|0:3,0:0:0:0:
418,100,100169,1,4,0:3:0:0:
362,29,100332,1,8,0:3:0:0:
362,29,100414,1,0,0:0:0:0:
362,29,100496,1,4,0:3:0:0:
300,209,100660,1,8,0:3:0:0:
416,192,100824,5,2,2:0:0:0:
256,320,101152,1,2,2:0:0:0:
96,192,101480,1,8,0:3:0:0:
256,64,101808,1,8,0:3:0:0:
417,192,102136,6,0,L|410:314,1,90,4|0,0:3|0:0,0:0:0:0:
329,244,102464,2,0,L|271:351,1,90,8|0,0:3|0:0,0:0:0:0:
198,341,102791,5,8,0:0:0:0:
177,331,102872,1,8,0:0:0:0:
160,317,102954,1,8,0:0:0:0:
148,298,103036,1,8,0:0:0:0:
141,276,103118,1,8,0:0:0:0:
118,188,103283,1,8,0:0:0:0:
111,167,103365,1,8,0:0:0:0:
99,148,103447,6,0,P|66:106|127:7,1,180,4|8,0:3|0:3,0:0:0:0:
206,37,103939,1,0,0:0:0:0:
289,71,104103,2,0,P|342:78|389:54,1,90,4|0,0:3|0:0,0:0:0:0:
479,159,104431,2,0,P|426:152|379:176,1,90,8|0,0:3|0:0,0:0:0:0:
353,187,104677,1,0,0:0:0:0:
353,187,104759,6,0,L|330:309,1,90,4|0,0:3|0:0,0:0:0:0:
321,364,105087,1,8,0:3:0:0:
200,271,105250,1,8,0:3:0:0:
407,313,105414,2,0,L|441:127,1,180,8|4,0:3|0:3,0:0:0:0:
462,10,105906,1,8,0:3:0:0:
329,69,106070,6,0,P|256:106|170:69,1,180,4|2,0:3|0:0,0:0:0:0:
47,114,106562,1,0,0:0:0:0:
157,191,106726,2,0,P|193:264|157:350,1,180,4|2,0:3|0:0,0:0:0:0:
75,311,107218,1,0,0:0:0:0:
158,349,107382,6,0,L|346:337,1,180,4|4,0:3|0:3,0:0:0:0:
427,331,107873,1,0,0:0:0:0:
376,247,108037,5,4,0:3:0:0:
367,215,108118,1,8,0:0:0:0:
349,186,108200,1,8,0:0:0:0:
324,164,108282,1,8,0:0:0:0:
293,150,108365,5,4,0:3:0:0:
249,143,108446,1,8,0:0:0:0:
214,116,108528,1,8,0:0:0:0:
194,76,108610,1,8,0:0:0:0:
194,30,108692,5,4,0:1:0:0:
256,192,108775,12,0,111316,0:0:0:0:
