osu file format v14

[General]
AudioFilename: audio.mp3
AudioLeadIn: 0
PreviewTime: 87668
Countdown: 0
SampleSet: None
StackLeniency: 0.7
Mode: 0
LetterboxInBreaks: 0
WidescreenStoryboard: 1

[Editor]
Bookmarks: 60396,65844,82214,87662,104026,125844,131301,147664,153119,169482,174937,191301,196755,213119,218573
DistanceSpacing: 2.5
BeatDivisor: 4
GridSize: 8
TimelineZoom: 1

[Metadata]
Title:Mloda krew
TitleUnicode:Młoda krew
Artist:ZBUKU ft. Sliwa, Sztoss
ArtistUnicode:ZBUKU ft. Śliwa, Sztoss
Creator:XVoIR
Version:Skubi's Extra
Source:
Tags:polish lukermaster cptsqbany krfawy źycie szalonym życiem kyptoric chalwa venex
BeatmapID:1073278
BeatmapSetID:469377

[Difficulty]
HPDrainRate:6.2
CircleSize:4.2
OverallDifficulty:8.2
ApproachRate:9.2
SliderMultiplier:1.7
SliderTickRate:1

[Events]
//Background and Video events
0,0,"SqBbg.jpg",0,0
//Break Periods
//Storyboard Layer 0 (Background)
//Storyboard Layer 1 (Fail)
//Storyboard Layer 2 (Pass)
//Storyboard Layer 3 (Foreground)
//Storyboard Sound Samples

[TimingPoints]
392,340.909090909091,4,3,0,75,1,0
44028,-100,4,1,0,75,0,0
87664,-80,4,1,0,75,0,1
109482,-100,4,1,0,75,0,0
153119,-80,4,1,0,75,0,1
174937,-100,4,1,0,75,0,0
196585,-200,4,1,0,75,0,0
197437,-100,4,1,0,75,0,0

[Colours]
Combo1 : 193,17,17
Combo2 : 21,10,233
Combo3 : 7,12,177
Combo4 : 121,121,255
Combo5 : 132,156,255
Combo6 : 192,192,192
Combo7 : 147,147,147
Combo8 : 255,0,0

[HitObjects]
96,56,38573,69,0,0:0:0:0:
114,74,38914,1,0,0:0:0:0:
132,92,39255,1,0,0:0:0:0:
150,110,39596,1,0,0:0:0:0:
96,184,39937,5,0,0:0:0:0:
114,166,40278,1,0,0:0:0:0:
132,148,40619,1,0,0:0:0:0:
150,130,40960,1,0,0:0:0:0:
224,184,41301,101,0,0:0:0:0:
206,166,41642,1,0,0:0:0:0:
188,148,41983,1,0,0:0:0:0:
170,130,42324,1,0,0:0:0:0:
112,224,42664,101,8,0:0:0:0:
127,239,42749,1,8,0:0:0:0:
142,254,42835,1,8,0:0:0:0:
336,200,43005,1,8,0:0:0:0:
208,360,43176,1,8,0:0:0:0:
288,152,43346,1,8,0:0:0:0:
272,352,43517,1,0,0:0:0:0:
232,112,43687,101,0,0:0:0:0:
312,296,43857,1,0,0:0:0:0:
440,136,44028,2,0,L|480:24,1,85,4|0,0:0|0:0,0:0:0:0:
288,64,44369,1,0,0:0:0:0:
384,216,44539,1,0,0:0:0:0:
468,55,44710,1,8,0:0:0:0:
288,160,44880,1,0,0:0:0:0:
376,312,45051,6,0,P|425:306|467:260,1,85,0|0,0:0|0:0,0:0:0:0:
288,160,45392,2,0,L|144:144,1,127.5,2|0,0:0|0:0,0:0:0:0:
136,144,45732,1,0,0:0:0:0:
104,320,45903,1,0,0:0:0:0:
320,336,46073,1,8,0:0:0:0:
288,160,46244,1,0,0:0:0:0:
376,312,46414,102,0,P|425:306|467:260,1,85,0|0,0:0|0:0,0:0:0:0:
288,160,46755,2,0,L|161:145,1,127.5,4|0,0:0|0:0,0:0:0:0:
136,144,47096,1,0,0:0:0:0:
256,16,47267,1,0,0:0:0:0:
304,184,47437,2,0,L|312:288,1,85,8|0,0:0|0:0,0:0:0:0:
472,344,47778,5,0,0:0:0:0:
456,168,47948,1,0,0:0:0:0:
310,268,48119,2,0,P|230:276|174:252,1,127.5,2|0,0:0|0:0,0:0:0:0:
160,240,48460,1,0,0:0:0:0:
256,96,48630,1,0,0:0:0:0:
336,248,48801,1,8,0:0:0:0:
264,80,48971,1,0,0:0:0:0:
240,272,49142,102,0,P|271:324|304:344,1,85,0|0,0:0|0:0,0:0:0:0:
464,360,49482,1,4,0:0:0:0:
336,248,49653,1,0,0:0:0:0:
504,192,49823,1,0,0:0:0:0:
368,336,49994,1,0,0:0:0:0:
304,152,50164,2,0,L|400:96,1,85,8|0,0:0|0:0,0:0:0:0:
448,272,50505,5,0,0:0:0:0:
288,144,50676,2,0,L|361:101,1,85,0|2,0:0|0:0,0:0:0:0:
432,264,51017,1,0,0:0:0:0:
272,136,51187,2,0,L|345:93,1,85,0|0,0:0|0:0,0:0:0:0:
512,24,51528,1,8,0:0:0:0:
336,0,51698,1,0,0:0:0:0:
448,136,51869,2,0,L|448:220,2,85,0|0|4,0:0|0:0|0:0,0:0:0:0:
288,216,52380,101,0,0:0:0:0:
448,296,52551,2,0,P|501:272|525:225,1,85,0|0,0:0|0:0,0:0:0:0:
356,171,52892,2,0,P|303:195|279:242,1,85,8|0,0:0|0:0,0:0:0:0:
360,376,53232,1,0,0:0:0:0:
448,220,53403,1,0,0:0:0:0:
256,288,53573,6,0,P|216:248|216:184,1,85,2|0,0:0|0:0,0:0:0:0:
144,272,53914,2,0,P|129:217|155:160,1,85,0|0,0:0|0:0,0:0:0:0:
56,200,54255,2,0,P|70:145|124:113,2,85,8|0|0,0:0|0:0|0:0,0:0:0:0:
96,376,54767,1,0,0:0:0:0:
262,313,54937,1,4,0:0:0:0:
135,190,55107,101,0,0:0:0:0:
175,358,55278,1,0,0:0:0:0:
341,303,55448,1,0,0:0:0:0:
301,135,55619,2,0,P|352:128|384:96,1,85,8|0,0:0|0:0,0:0:0:0:
208,176,55960,6,0,P|239:216|283:228,1,85,0|0,0:0|0:0,0:0:0:0:
128,120,56301,2,0,P|108:167|120:211,1,85,2|0,0:0|0:0,0:0:0:0:
240,328,56642,1,0,0:0:0:0:
280,152,56812,1,0,0:0:0:0:
114,199,56982,1,8,0:0:0:0:
296,256,57153,1,0,0:0:0:0:
144,336,57323,1,0,0:0:0:0:
192,144,57494,1,0,0:0:0:0:
328,288,57664,102,0,L|416:304,1,85,4|0,0:0|0:0,0:0:0:0:
512,152,58005,2,0,L|424:168,1,85,0|0,0:0|0:0,0:0:0:0:
248,192,58346,2,0,L|331:207,1,85,8|0,0:0|0:0,0:0:0:0:
456,80,58687,2,0,L|372:95,2,85,0|0|2,0:0|0:0|0:0,0:0:0:0:
288,16,59198,5,0,0:0:0:0:
248,192,59369,1,0,0:0:0:0:
428,167,59539,1,0,0:0:0:0:
224,95,59710,2,0,P|186:115|159:149,1,85,8|0,0:0|0:0,0:0:0:0:
260,273,60051,2,0,P|262:230|246:190,1,85,0|0,0:0|0:0,0:0:0:0:
88,216,60392,54,0,P|124:239|166:245,1,85,14|0,0:0|0:0,0:0:0:0:
160,344,60732,2,0,P|202:334|236:308,1,85,0|0,0:0|0:0,0:0:0:0:
296,240,61073,2,0,P|320:274|329:315,1,85,6|0,0:0|0:0,0:0:0:0:
288,144,61414,2,0,P|329:150|365:173,1,85,0|0,0:0|0:0,0:0:0:0:
208,80,61755,101,14,0:0:0:0:
408,16,61926,1,0,0:0:0:0:
214,236,62096,5,0,0:0:0:0:
310,49,62267,1,0,0:0:0:0:
330,342,62437,101,6,0:0:0:0:
265,141,62608,1,0,0:0:0:0:
485,338,62778,5,6,0:0:0:0:
296,241,62949,1,0,0:0:0:0:
424,120,63119,102,0,P|464:152|480:216,1,85,14|0,0:0|0:0,0:0:0:0:
384,224,63460,2,0,P|389:274|355:331,1,85,6|0,0:0|0:0,0:0:0:0:
240,320,63801,2,0,P|259:282|293:258,1,85,6|0,0:0|0:0,0:0:0:0:
192,176,64142,2,0,P|232:163|273:170,1,85,6|0,0:0|0:0,0:0:0:0:
408,288,64482,5,6,0:0:0:0:
472,88,64653,1,2,0:0:0:0:
254,283,64823,101,2,0:0:0:0:
440,186,64994,1,2,0:0:0:0:
148,173,65164,5,2,0:0:0:0:
348,235,65335,1,2,0:0:0:0:
152,19,65505,101,2,0:0:0:0:
249,204,65676,1,2,0:0:0:0:
384,48,65846,54,0,L|296:0,1,85,6|0,0:0|0:0,0:0:0:0:
400,152,66187,2,0,L|485:99,1,85,0|0,0:0|0:0,0:0:0:0:
304,112,66528,2,0,L|306:212,1,85,8|0,0:0|0:0,0:0:0:0:
472,288,66869,1,0,0:0:0:0:
472,107,67039,1,0,0:0:0:0:
306,196,67210,1,2,0:0:0:0:
309,7,67380,5,0,0:0:0:0:
400,176,67551,2,2,P|393:240|368:270,1,85,0|0,0:0|0:0,0:0:0:0:
227,220,67892,2,2,P|285:194|324:200,1,85,8|0,0:0|0:0,0:0:0:0:
356,349,68232,2,2,P|304:310|290:274,1,85,0|0,0:0|0:0,0:0:0:0:
320,128,68573,1,4,0:0:0:0:
200,248,68744,102,0,P|158:255|118:242,2,85,0|0|0,0:0|0:0|0:0,0:0:0:0:
320,128,69255,1,8,0:0:0:0:
295,293,69426,1,0,0:0:0:0:
164,176,69596,1,0,0:0:0:0:
368,224,69767,2,0,P|396:275|396:305,1,85,0|2,0:0|0:0,0:0:0:0:
496,168,70107,5,0,0:0:0:0:
328,152,70278,2,0,P|285:214|289:248,1,85,0|0,0:0|0:0,0:0:0:0:
416,328,70619,1,8,0:0:0:0:
248,344,70789,1,0,0:0:0:0:
368,224,70960,2,0,P|411:162|407:128,1,85,0|0,0:0|0:0,0:0:0:0:
321,11,71301,102,0,B|369:85|369:85|321:115|329:171,1,170,4|0,0:0|0:0,0:0:0:0:
368,320,71812,1,0,0:0:0:0:
205,261,71982,1,8,0:0:0:0:
256,96,72153,1,0,0:0:0:0:
419,155,72323,1,0,0:0:0:0:
368,320,72494,2,0,P|296:320|264:288,1,85,0|2,0:0|0:0,0:0:0:0:
136,232,72835,5,0,0:0:0:0:
240,96,73005,1,0,0:0:0:0:
332,245,73176,1,0,0:0:0:0:
176,304,73346,2,0,P|139:315|78:292,1,85,8|0,0:0|0:0,0:0:0:0:
200,168,73687,2,0,P|240:156|281:167,1,85,0|0,0:0|0:0,0:0:0:0:
368,320,74028,1,4,0:0:0:0:
200,304,74198,101,0,0:0:0:0:
312,176,74369,1,0,0:0:0:0:
360,336,74539,1,0,0:0:0:0:
232,200,74710,2,0,P|230:153|260:110,1,85,8|0,0:0|0:0,0:0:0:0:
392,24,75051,1,0,0:0:0:0:
312,176,75221,1,0,0:0:0:0:
232,24,75392,1,2,0:0:0:0:
400,112,75562,5,0,0:0:0:0:
232,200,75732,2,0,P|230:153|260:110,1,85,0|0,0:0|0:0,0:0:0:0:
296,264,76073,2,0,P|256:289|204:284,1,85,8|0,0:0|0:0,0:0:0:0:
320,176,76414,2,0,P|361:197|383:245,1,85,0|0,0:0|0:0,0:0:0:0:
280,368,76755,102,0,B|296:264|296:264|256:256|240:224|230:192,1,170,4|0,0:0|0:0,0:0:0:0:
144,88,77267,1,0,0:0:0:0:
168,264,77437,1,8,0:0:0:0:
320,176,77607,1,0,0:0:0:0:
144,176,77778,2,0,P|103:197|81:245,1,85,0|0,0:0|0:0,0:0:0:0:
184,368,78119,6,0,B|168:264|168:264|208:256|224:224|234:192,1,170,2|0,0:0|0:0,0:0:0:0:
320,88,78630,1,0,0:0:0:0:
296,264,78800,1,8,0:0:0:0:
144,176,78970,1,0,0:0:0:0:
320,176,79142,2,0,P|361:197|383:245,1,85,0|0,0:0|0:0,0:0:0:0:
408,344,79482,102,0,L|444:146,1,170,4|0,0:0|0:0,0:0:0:0:
320,48,79994,1,0,0:0:0:0:
320,216,80164,1,8,0:0:0:0:
424,80,80335,1,0,0:0:0:0:
144,176,80505,2,0,P|103:197|81:245,1,85,0|0,0:0|0:0,0:0:0:0:
56,344,80846,6,0,L|19:146,1,170,2|0,0:0|0:0,0:0:0:0:
0,32,81357,1,0,0:0:0:0:
144,32,81527,1,8,0:0:0:0:
176,176,81698,1,0,0:0:0:0:
24,176,81869,1,0,0:0:0:0:
192,96,82039,1,0,0:0:0:0:
160,296,82210,38,0,P|120:336|80:344,1,85,14|0,0:0|0:0,0:0:0:0:
248,264,82551,2,0,P|248:320|225:354,1,85,0|0,0:0|0:0,0:0:0:0:
296,184,82892,2,0,P|336:224|344:264,1,85,6|0,0:0|0:0,0:0:0:0:
264,96,83232,2,0,P|320:96|354:118,1,85,0|0,0:0|0:0,0:0:0:0:
181,52,83573,5,14,0:0:0:0:
376,8,83744,1,0,0:0:0:0:
163,89,83914,101,0,0:0:0:0:
362,25,84085,1,0,0:0:0:0:
158,131,84255,5,6,0:0:0:0:
360,46,84426,1,0,0:0:0:0:
163,173,84596,101,6,0:0:0:0:
365,64,84767,1,0,0:0:0:0:
336,256,84937,6,0,P|304:296|264:312,1,85,14|0,0:0|0:0,0:0:0:0:
256,144,85278,2,0,P|261:194|244:234,1,85,6|0,0:0|0:0,0:0:0:0:
120,120,85619,2,0,P|160:151|176:191,1,85,6|0,0:0|0:0,0:0:0:0:
0,200,85960,2,0,P|50:194|90:211,1,85,6|0,0:0|0:0,0:0:0:0:
192,280,86301,101,2,0:0:0:0:
419,183,86471,1,2,0:0:0:0:
419,183,86556,1,0,0:0:0:0:
419,183,86642,1,2,0:0:0:0:
178,127,86812,1,2,0:0:0:0:
341,314,86982,5,2,0:0:0:0:
319,67,87153,1,2,0:0:0:0:
319,67,87238,1,2,0:0:0:0:
319,67,87323,1,2,0:0:0:0:
192,280,87494,1,2,0:0:0:0:
419,183,87664,5,4,0:0:0:0:
216,152,87835,1,0,0:0:0:0:
341,314,88005,2,0,B|397:346|445:330|445:330|461:282|429:210,1,212.5,0|8,0:0|0:0,0:0:0:0:
304,72,88517,2,0,P|328:176|360:240,2,159.375,0|0|2,0:0|0:0|0:0,0:0:0:0:
112,24,89198,1,0,0:0:0:0:
184,216,89369,1,0,0:0:0:0:
304,56,89539,1,0,0:0:0:0:
120,144,89710,2,0,P|88:208|182:313,1,212.5,8|0,0:0|0:0,0:0:0:0:
163,310,90392,6,0,P|233:237|329:266,1,212.5,4|0,0:0|0:0,0:0:0:0:
256,328,90903,1,0,0:0:0:0:
160,160,91073,2,0,L|112:56,1,106.25,8|0,0:0|0:0,0:0:0:0:
248,200,91414,2,0,L|287:92,1,106.25,8|0,0:0|0:0,0:0:0:0:
344,280,91755,1,2,0:0:0:0:
160,328,91926,1,0,0:0:0:0:
216,144,92096,1,0,0:0:0:0:
264,352,92267,1,0,0:0:0:0:
432,224,92437,2,0,B|384:160|309:167|309:167|282:159,2,159.375,8|0|0,0:0|0:0|0:0,0:0:0:0:
240,216,93119,6,0,P|216:152|248:96,1,106.25,4|0,0:0|0:0,0:0:0:0:
371,103,93460,2,0,P|327:155|263:156,1,106.25,0|0,0:0|0:0,0:0:0:0:
203,47,93801,2,0,P|270:58|302:113,2,106.25,8|0|8,0:0|0:0|0:0,0:0:0:0:
144,256,94312,1,0,0:0:0:0:
352,208,94482,2,0,P|424:128|416:24,2,212.5,2|0|8,0:0|0:0|0:0,0:0:0:0:
144,256,95335,1,0,0:0:0:0:
216,56,95505,1,8,0:0:0:0:
352,208,95676,1,0,0:0:0:0:
176,328,95846,6,0,P|99:320|69:235,2,159.375,4|0|0,0:0|0:0|0:0,0:0:0:0:
384,272,96528,2,0,L|368:152,1,106.25,8|0,0:0|0:0,0:0:0:0:
158,150,96869,2,0,L|143:255,1,106.25,8|0,0:0|0:0,0:0:0:0:
448,168,97210,2,0,P|408:100|294:143,2,212.5,2|0|8,0:0|0:0|0:0,0:0:0:0:
368,368,98062,1,0,0:0:0:0:
208,232,98232,2,0,P|160:288|160:336,1,106.25,0|0,0:0|0:0,0:0:0:0:
156,317,98573,6,0,B|120:248|120:160|120:160|152:176|200:152,1,212.5,4|0,0:0|0:0,0:0:0:0:
356,317,99255,2,0,B|392:248|392:160|392:160|360:176|312:152,1,212.5,8|8,0:0|0:0,0:0:0:0:
152,88,99937,2,0,P|256:64|368:88,1,212.5,2|0,0:0|0:0,0:0:0:0:
358,83,100619,6,0,L|336:192,1,106.25,8|0,0:0|0:0,0:0:0:0:
224,368,100960,1,0,0:0:0:0:
128,176,101130,1,0,0:0:0:0:
344,192,101301,6,0,P|408:176|472:40,1,212.5,4|0,0:0|0:0,0:0:0:0:
264,0,101812,1,0,0:0:0:0:
72,80,101982,2,0,P|64:152|80:192,1,106.25,8|0,0:0|0:0,0:0:0:0:
208,352,102323,1,8,0:0:0:0:
344,192,102494,1,0,0:0:0:0:
144,128,102664,2,0,P|56:168|56:288,1,212.5,2|0,0:0|0:0,0:0:0:0:
47,273,103346,6,0,P|96:248|192:272,2,159.375,8|0|0,0:0|0:0|0:0,0:0:0:0:
200,352,104028,6,0,P|252:326|272:280,1,106.25,6|0,0:0|0:0,0:0:0:0:
336,336,104369,2,0,P|354:280|336:234,1,106.25,0|0,0:0|0:0,0:0:0:0:
424,224,104710,2,0,P|398:172|352:151,1,106.25,6|0,0:0|0:0,0:0:0:0:
400,88,105051,2,0,P|344:69|298:87,1,106.25,0|0,0:0|0:0,0:0:0:0:
288,0,105392,5,6,0:0:0:0:
176,176,105562,1,0,0:0:0:0:
152,71,105732,5,0,0:0:0:0:
197,274,105902,1,0,0:0:0:0:
110,218,106073,5,6,0:0:0:0:
285,329,106243,1,0,0:0:0:0:
183,352,106414,5,6,0:0:0:0:
385,306,106584,1,0,0:0:0:0:
240,152,106755,6,0,L|216:256,1,106.25,6|0,0:0|0:0,0:0:0:0:
64,104,107096,2,0,L|166:72,1,106.25,6|0,0:0|0:0,0:0:0:0:
120,280,107437,2,0,L|41:207,1,106.25,6|0,0:0|0:0,0:0:0:0:
240,152,107778,2,0,L|216:256,1,106.25,6|0,0:0|0:0,0:0:0:0:
64,104,108119,5,6,0:0:0:0:
144,304,108289,1,2,0:0:0:0:
304,128,108460,5,2,0:0:0:0:
104,208,108630,1,2,0:0:0:0:
285,371,108801,5,0,0:0:0:0:
205,171,108971,1,0,0:0:0:0:
45,354,109142,5,0,0:0:0:0:
245,274,109312,1,0,0:0:0:0:
96,152,109482,5,4,0:0:0:0:
160,296,109653,2,0,B|192:344|192:344|240:360,2,85,0|0|0,0:0|0:0|0:0,0:0:0:0:
267,195,110164,2,0,P|243:275|219:291,1,85,8|0,0:0|0:0,0:0:0:0:
99,228,110505,2,0,P|180:208|206:221,1,85,0|0,0:0|0:0,0:0:0:0:
267,195,110761,1,0,0:0:0:0:
267,195,110846,6,0,L|299:99,1,85,2|0,0:0|0:0,0:0:0:0:
408,216,111102,1,0,0:0:0:0:
408,216,111187,2,0,L|475:291,1,85,0|0,0:0|0:0,0:0:0:0:
312,320,111528,2,0,L|212:340,1,85,8|0,0:0|0:0,0:0:0:0:
120,232,111869,1,0,0:0:0:0:
267,195,112039,1,0,0:0:0:0:
228,337,112210,1,4,0:0:0:0:
176,168,112380,6,0,P|215:113|252:104,1,85,0|0,0:0|0:0,0:0:0:0:
376,80,112721,1,0,0:0:0:0:
328,224,112892,1,0,0:0:0:0:
256,32,113062,2,0,P|168:55|110:119,1,170,0|0,0:0|0:0,0:0:0:0:
80,184,113488,1,0,0:0:0:0:
80,184,113573,6,0,P|128:192|176:160,1,85,2|0,0:0|0:0,0:0:0:0:
224,128,113829,1,0,0:0:0:0:
224,128,113914,2,0,P|240:168|216:240,1,85,0|0,0:0|0:0,0:0:0:0:
176,352,114255,1,8,0:0:0:0:
336,216,114426,1,0,0:0:0:0:
376,360,114596,1,0,0:0:0:0:
235,208,114767,1,0,0:0:0:0:
176,352,114937,6,0,P|219:363|290:352,1,85,4|0,0:0|0:0,0:0:0:0:
384,272,115278,1,0,0:0:0:0:
312,136,115448,1,0,0:0:0:0:
232,272,115619,2,0,L|341:208,1,85,8|0,0:0|0:0,0:0:0:0:
432,145,115960,1,0,0:0:0:0:
295,71,116130,1,0,0:0:0:0:
305,228,116301,2,0,L|359:113,1,85,2|0,0:0|0:0,0:0:0:0:
408,8,116642,6,0,L|281:17,1,85,0|0,0:0|0:0,0:0:0:0:
168,24,116982,2,0,L|239:128,1,85,8|0,0:0|0:0,0:0:0:0:
341,151,117323,1,0,0:0:0:0:
323,14,117494,1,0,0:0:0:0:
216,94,117664,6,0,P|205:149|224:192,1,85,4|0,0:0|0:0,0:0:0:0:
368,184,118005,2,0,P|325:146|279:141,1,85,0|0,0:0|0:0,0:0:0:0:
216,272,118346,2,0,P|269:254|296:216,1,85,8|0,0:0|0:0,0:0:0:0:
370,102,118687,2,0,P|359:156|378:200,1,85,0|0,0:0|0:0,0:0:0:0:
440,320,119028,2,0,P|397:282|351:277,1,85,2|0,0:0|0:0,0:0:0:0:
216,280,119369,5,0,0:0:0:0:
368,136,119539,1,0,0:0:0:0:
212,139,119710,1,8,0:0:0:0:
370,276,119880,1,0,0:0:0:0:
216,280,120051,2,0,P|192:288|144:344,1,85,0|0,0:0|0:0,0:0:0:0:
304,320,120392,6,0,P|307:249|200:184,1,170,4|0,0:0|0:0,0:0:0:0:
88,216,120903,1,0,0:0:0:0:
238,185,121073,2,0,P|280:176|320:144,1,85,8|0,0:0|0:0,0:0:0:0:
251,13,121414,2,0,P|237:53|245:104,1,85,0|0,0:0|0:0,0:0:0:0:
392,112,121755,1,2,0:0:0:0:
242,95,121926,5,0,0:0:0:0:
392,112,122096,2,0,P|397:189|376:224,1,85,0|0,0:0|0:0,0:0:0:0:
312,328,122437,1,8,0:0:0:0:
240,192,122607,1,0,0:0:0:0:
394,194,122778,1,0,0:0:0:0:
224,288,122948,1,0,0:0:0:0:
246,99,123119,6,0,B|288:112|312:150|312:150|279:190|231:193,1,170,4|0,0:0|0:0,0:0:0:0:
88,208,123630,1,0,0:0:0:0:
144,64,123801,1,8,0:0:0:0:
160,248,123971,1,0,0:0:0:0:
246,99,124142,1,0,0:0:0:0:
230,283,124312,1,0,0:0:0:0:
344,152,124482,5,2,0:0:0:0:
296,328,124653,2,0,L|376:256,1,85,0|0,0:0|0:0,0:0:0:0:
472,168,124994,2,0,L|369:134,1,85,0|8,0:0|0:0,0:0:0:0:
240,96,125335,2,0,L|262:201,1,85,0|0,0:0|0:0,0:0:0:0:
296,328,125676,1,0,0:0:0:0:
144,296,125846,6,0,P|88:296|48:312,1,85,14|0,0:0|0:0,0:0:0:0:
176,208,126187,2,0,P|136:168|96:151,1,85,0|0,0:0|0:0,0:0:0:0:
264,168,126528,1,6,0:0:0:0:
88,144,126698,1,0,0:0:0:0:
200,8,126869,1,0,0:0:0:0:
176,208,127039,1,0,0:0:0:0:
344,120,127210,6,0,L|400:216,1,85,14|0,0:0|0:0,0:0:0:0:
480,352,127465,1,0,0:0:0:0:
480,352,127551,2,0,L|368:352,1,85,0|0,0:0|0:0,0:0:0:0:
216,352,127806,1,0,0:0:0:0:
216,352,127892,2,0,L|271:255,1,85,6|0,0:0|0:0,0:0:0:0:
240,104,128147,1,0,0:0:0:0:
240,104,128232,2,0,L|184:200,1,85,6|0,0:0|0:0,0:0:0:0:
320,312,128573,6,0,P|329:271|296:221,1,85,14|0,0:0|0:0,0:0:0:0:
240,104,128829,1,0,0:0:0:0:
240,104,128914,2,0,L|352:56,1,85,6|0,0:0|0:0,0:0:0:0:
496,16,129255,2,0,P|504:72|488:112,1,85,6|0,0:0|0:0,0:0:0:0:
400,141,129511,2,0,P|392:85|408:45,1,85,0|0,0:0|0:0,0:0:0:0:
495,98,129767,1,0,0:0:0:0:
318,70,129937,5,6,0:0:0:0:
366,246,130107,1,2,0:0:0:0:
218,86,130278,5,2,0:0:0:0:
359,226,130448,1,2,0:0:0:0:
142,150,130619,5,2,0:0:0:0:
353,205,130789,1,2,0:0:0:0:
118,246,130960,5,2,0:0:0:0:
344,184,131130,1,2,0:0:0:0:
184,368,131301,6,0,B|88:368|96:368|96:368|0:328,1,170,4|0,0:0|0:0,0:0:0:0:
296,272,131897,1,0,0:0:0:0:
296,272,131982,2,0,P|248:336|224:344,1,85,8|0,0:0|0:0,0:0:0:0:
346,202,132323,2,0,P|378:258|378:290,1,85,0|0,0:0|0:0,0:0:0:0:
208,256,132664,5,2,0:0:0:0:
208,88,132835,1,0,0:0:0:0:
336,200,133005,1,0,0:0:0:0:
200,72,133176,1,0,0:0:0:0:
200,248,133346,1,8,0:0:0:0:
320,88,133517,1,0,0:0:0:0:
136,160,133687,1,0,0:0:0:0:
288,288,133857,1,0,0:0:0:0:
232,64,134028,6,0,P|292:1|360:5,1,127.5,4|0,0:0|0:0,0:0:0:0:
393,122,134369,2,0,P|329:99|305:51,1,85,0|0,0:0|0:0,0:0:0:0:
480,24,134710,1,8,0:0:0:0:
496,192,134880,1,0,0:0:0:0:
319,87,135051,1,0,0:0:0:0:
512,96,135221,1,0,0:0:0:0:
403,251,135392,6,0,L|307:235,1,85,2|0,0:0|0:0,0:0:0:0:
160,184,135732,2,0,L|256:168,1,85,0|0,0:0|0:0,0:0:0:0:
408,136,136073,1,8,0:0:0:0:
296,8,136244,1,0,0:0:0:0:
319,237,136414,2,0,L|336:344,1,85,0|0,0:0|0:0,0:0:0:0:
120,352,136755,6,0,L|103:245,1,85,4|0,0:0|0:0,0:0:0:0:
88,96,137096,2,0,L|189:134,1,85,0|0,0:0|0:0,0:0:0:0:
328,184,137437,2,0,L|243:252,1,85,8|0,0:0|0:0,0:0:0:0:
106,268,137778,1,0,0:0:0:0:
167,126,137948,1,0,0:0:0:0:
261,237,138119,1,2,0:0:0:0:
106,268,138289,5,0,0:0:0:0:
141,1,138460,1,0,0:0:0:0:
260,236,138630,1,0,0:0:0:0:
25,117,138801,1,8,0:0:0:0:
284,76,138971,2,0,B|320:60|368:72|368:72|376:128|347:165,1,170,0|0,0:0|0:0,0:0:0:0:
272,304,139482,6,0,L|152:296,2,85,4|0|0,0:0|0:0|0:0,0:0:0:0:
120,224,139994,2,0,L|240:216,2,85,0|8|0,0:0|0:0|0:0,0:0:0:0:
0,240,140505,1,0,0:0:0:0:
72,368,140676,1,0,0:0:0:0:
120,224,140846,6,0,P|88:168|56:160,2,85,2|0|0,0:0|0:0|0:0,0:0:0:0:
72,368,141357,2,0,P|152:352|248:368,1,170,0|0,0:0|0:0,0:0:0:0:
408,368,141869,2,0,P|448:328|448:264,1,85,0|0,0:0|0:0,0:0:0:0:
360,160,142210,6,0,L|368:288,2,127.5,4|0|0,0:0|0:0|0:0,0:0:0:0:
288,312,142892,2,0,P|312:352|400:368,2,127.5,8|0|0,0:0|0:0|0:0,0:0:0:0:
272,232,143488,1,0,0:0:0:0:
272,232,143573,6,0,P|227:255|207:288,1,85,2|0,0:0|0:0,0:0:0:0:
376,288,143914,1,0,0:0:0:0:
217,202,144085,2,0,P|201:250|210:287,1,85,0|8,0:0|0:0,0:0:0:0:
385,289,144426,1,0,0:0:0:0:
328,128,144596,1,0,0:0:0:0:
280,248,144767,1,0,0:0:0:0:
400,96,144937,6,0,P|363:58|298:56,1,85,4|0,0:0|0:0,0:0:0:0:
131,127,145278,2,0,B|167:181|231:205|231:205|295:181|331:126|331:126|305:126|272:102,1,297.5,0|0,0:0|0:0,0:0:0:0:
280,112,145960,1,0,0:0:0:0:
256,280,146130,1,0,0:0:0:0:
416,216,146301,2,0,P|460:221|504:248,2,85,2|0|0,0:0|0:0|0:0,0:0:0:0:
368,376,146812,2,0,P|403:353|428:319,1,85,0|8,0:0|0:0,0:0:0:0:
312,192,147153,2,0,P|313:234|330:272,1,85,0|0,0:0|0:0,0:0:0:0:
496,240,147494,1,0,0:0:0:0:
400,96,147664,6,0,L|408:200,1,85,14|0,0:0|0:0,0:0:0:0:
248,80,148005,2,0,L|327:147,1,85,0|0,0:0|0:0,0:0:0:0:
128,168,148346,2,0,L|232:160,1,85,6|0,0:0|0:0,0:0:0:0:
104,312,148687,1,0,0:0:0:0:
212,161,148857,1,0,0:0:0:0:
212,161,148943,1,0,0:0:0:0:
212,161,149028,5,14,0:0:0:0:
264,344,149198,1,0,0:0:0:0:
312,136,149369,5,0,0:0:0:0:
235,309,149539,1,0,0:0:0:0:
168,120,149710,5,6,0:0:0:0:
268,280,149880,1,0,0:0:0:0:
360,104,150051,5,6,0:0:0:0:
238,248,150221,1,0,0:0:0:0:
238,248,150306,1,0,0:0:0:0:
238,248,150392,6,0,L|320:288,1,85,14|0,0:0|0:0,0:0:0:0:
496,352,150732,2,0,L|489:260,1,85,6|0,0:0|0:0,0:0:0:0:
480,72,151073,2,0,L|404:123,1,85,6|0,0:0|0:0,0:0:0:0:
238,248,151414,5,6,0:0:0:0:
490,267,151585,1,0,0:0:0:0:
216,232,151755,1,12,0:0:0:0:
464,128,151926,1,0,0:0:0:0:
464,128,152011,1,0,0:0:0:0:
464,128,152096,5,0,0:0:0:0:
327,361,152267,1,0,0:0:0:0:
288,96,152437,1,0,0:0:0:0:
497,273,152607,1,0,0:0:0:0:
497,273,152693,1,0,0:0:0:0:
497,273,152778,1,0,0:0:0:0:
224,256,152948,1,0,0:0:0:0:
376,56,153119,5,4,0:0:0:0:
368,264,153289,1,0,0:0:0:0:
208,128,153460,2,0,B|192:80|224:24|224:24|277:-11|346:22,1,212.5,0|8,0:0|0:0,0:0:0:0:
232,208,153971,2,0,P|160:192|128:96,2,159.375,0|0|2,0:0|0:0|0:0,0:0:0:0:
440,160,154653,1,0,0:0:0:0:
256,56,154823,1,0,0:0:0:0:
464,0,154994,1,0,0:0:0:0:
336,168,155164,2,0,B|288:328|288:328|248:280,1,212.5,8|0,0:0|0:0,0:0:0:0:
258,293,155846,6,0,B|192:272|144:312|144:312|112:280|112:224,1,212.5,4|0,0:0|0:0,0:0:0:0:
128,16,156357,1,0,0:0:0:0:
328,96,156528,2,0,P|344:152|328:208,1,106.25,8|0,0:0|0:0,0:0:0:0:
120,208,156869,2,0,P|160:166|216:151,1,106.25,8|0,0:0|0:0,0:0:0:0:
328,328,157210,2,0,P|271:313|231:272,2,106.25,2|0|0,0:0|0:0|0:0,0:0:0:0:
480,192,157721,1,0,0:0:0:0:
296,128,157892,2,0,L|320:248,1,106.25,8|0,0:0|0:0,0:0:0:0:
328,328,158147,2,0,L|419:247,1,106.25,0|0,0:0|0:0,0:0:0:0:
480,192,158403,1,0,0:0:0:0:
292,112,158573,5,4,0:0:0:0:
496,56,158744,1,0,0:0:0:0:
376,232,158914,1,0,0:0:0:0:
376,16,159085,1,0,0:0:0:0:
480,192,159255,2,0,L|504:320,1,106.25,8|0,0:0|0:0,0:0:0:0:
311,216,159596,2,0,L|287:88,1,106.25,8|0,0:0|0:0,0:0:0:0:
480,8,159937,1,2,0:0:0:0:
416,208,160107,1,0,0:0:0:0:
288,40,160278,2,0,P|232:68|226:147,1,106.25,0|0,0:0|0:0,0:0:0:0:
248,320,160619,5,8,0:0:0:0:
291,111,160789,1,0,0:0:0:0:
424,280,160960,1,0,0:0:0:0:
216,232,161130,1,0,0:0:0:0:
424,184,161301,6,0,P|480:128|464:40,2,159.375,4|0|0,0:0|0:0|0:0,0:0:0:0:
216,160,161982,2,0,P|151:199|143:241,1,106.25,8|0,0:0|0:0,0:0:0:0:
352,192,162323,2,0,P|350:116|318:88,1,106.25,8|0,0:0|0:0,0:0:0:0:
256,296,162664,2,0,P|322:332|362:318,1,106.25,2|0,0:0|0:0,0:0:0:0:
496,176,163005,2,0,L|480:56,1,106.25,0|0,0:0|0:0,0:0:0:0:
280,8,163346,5,8,0:0:0:0:
304,216,163517,1,0,0:0:0:0:
296,8,163687,2,0,L|312:128,1,106.25,0|0,0:0|0:0,0:0:0:0:
343,336,164028,5,4,0:0:0:0:
446,137,164198,1,0,0:0:0:0:
245,235,164369,1,0,0:0:0:0:
466,274,164539,1,0,0:0:0:0:
310,113,164710,6,0,P|328:176|365:92,1,212.5,8|0,0:0|0:0,0:0:0:0:
272,184,165392,6,0,P|371:224|440:144,1,212.5,2|0,0:0|0:0,0:0:0:0:
349,135,166073,5,8,0:0:0:0:
288,336,166244,1,0,0:0:0:0:
320,40,166414,5,0,0:0:0:0:
381,241,166585,1,0,0:0:0:0:
192,152,166755,6,0,L|72:112,1,106.25,4|0,0:0|0:0,0:0:0:0:
16,320,167096,2,0,L|136:280,1,106.25,0|0,0:0|0:0,0:0:0:0:
312,192,167437,1,8,0:0:0:0:
192,16,167607,1,0,0:0:0:0:
208,232,167778,2,0,P|268:297|318:306,1,106.25,8|0,0:0|0:0,0:0:0:0:
409,162,168119,2,0,P|322:181|289:220,1,106.25,2|0,0:0|0:0,0:0:0:0:
368,376,168460,2,0,P|394:291|377:243,1,106.25,0|0,0:0|0:0,0:0:0:0:
208,232,168801,6,0,B|123:217|123:217|32:224,2,159.375,8|0|0,0:0|0:0|0:0,0:0:0:0:
416,272,169482,5,6,0:0:0:0:
200,216,169653,1,0,0:0:0:0:
336,136,169823,5,0,0:0:0:0:
114,78,169994,1,0,0:0:0:0:
408,256,170164,5,6,0:0:0:0:
181,198,170335,1,0,0:0:0:0:
328,120,170505,5,0,0:0:0:0:
95,59,170676,1,0,0:0:0:0:
224,256,170846,5,6,0:0:0:0:
285,23,171017,1,0,0:0:0:0:
352,368,171186,5,0,0:0:0:0:
414,129,171357,1,0,0:0:0:0:
240,264,171528,5,6,0:0:0:0:
303,19,171699,1,0,0:0:0:0:
372,377,171869,5,6,0:0:0:0:
436,126,172040,1,0,0:0:0:0:
131,62,172210,6,0,L|232:96,1,106.25,6|0,0:0|0:0,0:0:0:0:
436,126,172551,2,0,L|336:160,1,106.25,6|0,0:0|0:0,0:0:0:0:
131,174,172892,2,0,L|232:208,1,106.25,6|0,0:0|0:0,0:0:0:0:
436,238,173233,2,0,L|336:272,1,106.25,6|0,0:0|0:0,0:0:0:0:
120,336,173573,5,6,0:0:0:0:
96,104,173744,1,2,0:0:0:0:
344,240,173914,5,2,0:0:0:0:
112,264,174085,1,2,0:0:0:0:
328,88,174255,5,2,0:0:0:0:
352,320,174426,1,2,0:0:0:0:
104,192,174596,5,2,0:0:0:0:
336,168,174767,1,2,0:0:0:0:
248,328,174937,6,0,L|136:336,1,85,4|0,0:0|0:0,0:0:0:0:
16,216,175278,1,0,0:0:0:0:
168,320,175448,2,0,L|252:313,1,85,0|8,0:0|0:0,0:0:0:0:
440,296,175789,1,0,0:0:0:0:
286,203,175960,1,0,0:0:0:0:
464,188,176130,1,0,0:0:0:0:
320,304,176301,6,0,L|235:310,1,85,2|0,0:0|0:0,0:0:0:0:
72,216,176642,1,0,0:0:0:0:
240,296,176812,2,0,L|324:289,1,85,0|8,0:0|0:0,0:0:0:0:
464,160,177153,1,0,0:0:0:0:
280,168,177323,1,0,0:0:0:0:
432,280,177494,1,0,0:0:0:0:
368,104,177664,6,0,L|361:19,2,85,4|0|0,0:0|0:0|0:0,0:0:0:0:
304,280,178176,2,0,L|297:195,1,85,0|8,0:0|0:0,0:0:0:0:
286,8,178517,1,0,0:0:0:0:
136,112,178687,1,0,0:0:0:0:
297,195,178857,1,0,0:0:0:0:
184,48,179028,6,0,P|134:32|88:48,2,85,2|0|0,0:0|0:0|0:0,0:0:0:0:
297,195,179539,2,0,L|276:277,1,85,0|8,0:0|0:0,0:0:0:0:
115,194,179880,2,0,L|135:111,1,85,0|0,0:0|0:0,0:0:0:0:
328,24,180221,1,0,0:0:0:0:
480,168,180392,6,0,L|459:250,1,85,4|0,0:0|0:0,0:0:0:0:
304,104,180732,2,0,L|385:80,1,85,0|0,0:0|0:0,0:0:0:0:
304,280,181073,1,8,0:0:0:0:
100,162,181244,1,0,0:0:0:0:
333,138,181414,1,0,0:0:0:0:
159,294,181585,1,0,0:0:0:0:
208,65,181755,6,0,P|264:40|320:48,2,85,2|0|0,0:0|0:0|0:0,0:0:0:0:
256,216,182267,2,0,P|272:177|273:135,1,85,0|8,0:0|0:0,0:0:0:0:
120,104,182607,2,0,P|145:137|181:159,1,85,0|0,0:0|0:0,0:0:0:0:
392,144,182948,1,0,0:0:0:0:
208,248,183119,6,0,P|179:278|164:318,1,85,4|0,0:0|0:0,0:0:0:0:
376,360,183460,1,0,0:0:0:0:
304,160,183630,1,0,0:0:0:0:
232,360,183801,1,8,0:0:0:0:
400,232,183971,1,0,0:0:0:0:
208,248,184142,2,0,P|166:240|131:216,1,85,0|0,0:0|0:0,0:0:0:0:
80,8,184482,5,2,0:0:0:0:
16,208,184653,1,0,0:0:0:0:
208,120,184823,1,0,0:0:0:0:
24,216,184994,1,0,0:0:0:0:
216,296,185164,1,8,0:0:0:0:
8,352,185335,1,0,0:0:0:0:
144,168,185505,1,8,0:0:0:0:
120,376,185676,1,0,0:0:0:0:
152,160,185846,6,0,B|168:88|168:88|184:96,1,85,4|0,0:0|0:0,0:0:0:0:
384,152,186187,1,0,0:0:0:0:
184,232,186357,2,0,B|113:254|113:254|112:236,1,85,0|8,0:0|0:0,0:0:0:0:
61,35,186698,1,0,0:0:0:0:
232,168,186869,2,0,B|286:217|286:217|271:227,1,85,0|0,0:0|0:0,0:0:0:0:
104,352,187210,5,2,0:0:0:0:
152,160,187380,1,0,0:0:0:0:
256,320,187551,1,0,0:0:0:0:
168,128,187721,1,0,0:0:0:0:
96,312,187892,1,8,0:0:0:0:
256,208,188062,1,0,0:0:0:0:
64,176,188232,1,0,0:0:0:0:
192,320,188403,1,0,0:0:0:0:
368,240,188573,6,0,P|369:176|341:127,1,85,4|0,0:0|0:0,0:0:0:0:
320,8,188914,1,0,0:0:0:0:
208,168,189085,2,0,P|262:200|319:201,1,85,0|8,0:0|0:0,0:0:0:0:
440,192,189426,1,0,0:0:0:0:
352,64,189596,2,0,P|296:95|267:143,1,85,0|0,0:0|0:0,0:0:0:0:
215,252,189937,5,2,0:0:0:0:
152,112,190107,1,0,0:0:0:0:
208,272,190278,1,0,0:0:0:0:
288,120,190448,1,0,0:0:0:0:
216,288,190619,1,8,0:0:0:0:
144,120,190789,1,0,0:0:0:0:
312,224,190960,1,0,0:0:0:0:
120,224,191130,1,0,0:0:0:0:
296,128,191301,6,0,P|343:132|392:168,1,85,6|0,0:0|0:0,0:0:0:0:
448,336,191642,2,0,P|455:294|444:253,1,85,0|0,0:0|0:0,0:0:0:0:
272,168,191982,2,0,P|317:155|375:172,1,85,6|0,0:0|0:0,0:0:0:0:
408,352,192323,2,0,P|428:315|432:273,1,85,0|0,0:0|0:0,0:0:0:0:
408,64,192664,5,6,0:0:0:0:
232,184,192835,1,0,0:0:0:0:
432,256,193005,1,0,0:0:0:0:
296,88,193176,5,0,0:0:0:0:
256,297,193347,1,6,0:0:0:0:
448,206,193517,1,0,0:0:0:0:
240,184,193687,5,6,0:0:0:0:
359,360,193858,1,0,0:0:0:0:
430,159,194028,6,0,L|448:48,1,85,6|0,0:0|0:0,0:0:0:0:
368,224,194369,2,0,L|328:118,1,85,6|0,0:0|0:0,0:0:0:0:
200,48,194710,2,0,L|265:101,1,85,6|0,0:0|0:0,0:0:0:0:
96,120,195051,2,0,L|179:133,1,85,6|0,0:0|0:0,0:0:0:0:
392,152,195392,5,6,0:0:0:0:
200,232,195562,1,2,0:0:0:0:
128,32,195732,5,2,0:0:0:0:
208,224,195902,1,2,0:0:0:0:
408,136,196073,5,2,0:0:0:0:
216,216,196243,1,2,0:0:0:0:
144,16,196414,5,2,0:0:0:0:
224,208,196585,6,0,B|240:240|240:272|232:296|232:296|200:312|160:296|144:256,1,191.25,2|0,0:0|0:0,0:0:0:0:
120,192,197437,6,0,P|80:224|69:271,1,85,8|0,0:0|0:0,0:0:0:0:
256,368,197778,2,0,P|290:343|306:305,1,85,0|0,0:0|0:0,0:0:0:0:
320,112,198119,1,2,0:0:0:0:
144,187,198289,1,0,0:0:0:0:
308,285,198460,1,0,0:0:0:0:
208,96,198630,1,0,0:0:0:0:
88,272,198801,2,0,L|64:368,1,85,8|0,0:0|0:0,0:0:0:0:
187,178,199142,2,0,L|207:95,1,85,0|0,0:0|0:0,0:0:0:0:
392,32,199482,5,2,0:0:0:0:
272,184,199653,1,0,0:0:0:0:
456,128,199823,1,0,0:0:0:0:
288,32,199994,1,0,0:0:0:0:
352,216,200164,2,0,P|321:255|275:272,1,85,8|0,0:0|0:0,0:0:0:0:
195,156,200505,2,0,P|244:163|281:194,1,85,0|0,0:0|0:0,0:0:0:0:
224,324,200846,6,0,P|205:277|214:229,2,85,2|0|0,0:0|0:0|0:0,0:0:0:0:
416,360,201357,1,0,0:0:0:0:
344,176,201528,1,8,0:0:0:0:
232,336,201698,1,0,0:0:0:0:
416,264,201869,1,0,0:0:0:0:
288,112,202039,1,0,0:0:0:0:
343,322,202210,6,0,P|383:354|452:350,2,85,4|0|0,0:0|0:0|0:0,0:0:0:0:
256,144,202721,1,0,0:0:0:0:
200,328,202892,1,8,0:0:0:0:
360,216,203062,1,0,0:0:0:0:
168,208,203232,2,0,P|147:142|155:100,1,85,8|0,0:0|0:0,0:0:0:0:
320,216,203573,6,0,P|317:258|299:296,2,85,2|0|0,0:0|0:0|0:0,0:0:0:0:
256,32,204085,1,0,0:0:0:0:
168,208,204255,1,8,0:0:0:0:
344,120,204426,1,0,0:0:0:0:
152,80,204596,1,0,0:0:0:0:
256,248,204767,1,0,0:0:0:0:
64,280,204937,6,0,P|56:232|80:176,2,85,4|0|0,0:0|0:0|0:0,0:0:0:0:
245,371,205448,1,0,0:0:0:0:
320,200,205619,1,8,0:0:0:0:
128,240,205789,1,0,0:0:0:0:
315,288,205960,1,0,0:0:0:0:
160,320,206130,1,0,0:0:0:0:
208,128,206301,2,0,L|201:16,2,85,2|0|0,0:0|0:0|0:0,0:0:0:0:
315,288,206812,2,0,L|322:176,2,85,0|8|0,0:0|0:0|0:0,0:0:0:0:
120,312,207323,6,0,P|80:264|79:214,1,85,0|0,0:0|0:0,0:0:0:0:
80,48,207664,1,4,0:0:0:0:
272,88,207835,1,0,0:0:0:0:
154,242,208005,1,0,0:0:0:0:
288,96,208176,2,0,B|320:64|360:56|360:56|384:96|376:160,1,170,0|0,0:0|0:0,0:0:0:0:
344,336,208687,1,0,0:0:0:0:
232,176,208857,1,0,0:0:0:0:
424,200,209028,5,2,0:0:0:0:
240,272,209198,1,0,0:0:0:0:
224,80,209369,1,0,0:0:0:0:
336,240,209539,1,0,0:0:0:0:
152,304,209710,2,0,P|104:296|72:240,1,85,8|0,0:0|0:0,0:0:0:0:
72,72,210051,1,0,0:0:0:0:
0,248,210221,1,0,0:0:0:0:
192,240,210392,6,0,P|228:297|225:327,2,85,4|0|0,0:0|0:0|0:0,0:0:0:0:
8,168,210903,1,0,0:0:0:0:
40,360,211073,1,8,0:0:0:0:
136,192,211244,1,0,0:0:0:0:
56,368,211414,1,0,0:0:0:0:
152,184,211585,1,0,0:0:0:0:
208,368,211755,6,0,P|272:352|320:360,1,85,2|0,0:0|0:0,0:0:0:0:
488,368,212096,1,0,0:0:0:0:
416,184,212267,2,0,P|408:112|416:64,1,85,0|8,0:0|0:0,0:0:0:0:
240,8,212607,1,0,0:0:0:0:
272,200,212778,1,0,0:0:0:0:
416,72,212948,1,0,0:0:0:0:
216,104,213119,5,14,0:0:0:0:
112,264,213289,1,0,0:0:0:0:
224,96,213460,5,0,0:0:0:0:
175,299,213630,1,0,0:0:0:0:
232,88,213801,5,6,0:0:0:0:
257,316,213971,1,0,0:0:0:0:
240,80,214142,5,0,0:0:0:0:
351,306,214312,1,0,0:0:0:0:
424,64,214482,6,0,L|512:48,1,85,14|0,0:0|0:0,0:0:0:0:
296,192,214823,2,0,L|208:208,1,85,0|0,0:0|0:0,0:0:0:0:
440,168,215164,2,0,L|456:256,1,85,6|0,0:0|0:0,0:0:0:0:
280,88,215505,2,0,L|264:0,1,85,6|0,0:0|0:0,0:0:0:0:
40,48,215846,5,14,0:0:0:0:
284,108,216016,1,0,0:0:0:0:
40,120,216187,5,6,0:0:0:0:
309,137,216357,1,0,0:0:0:0:
40,192,216528,5,6,0:0:0:0:
334,159,216698,1,0,0:0:0:0:
40,264,216869,5,6,0:0:0:0:
352,172,217039,1,0,0:0:0:0:
40,336,217210,5,14,0:0:0:0:
200,196,217380,2,0,L|192:124,1,42.5,2|0,0:0|0:0,0:0:0:0:
188,80,217551,1,2,0:0:0:0:
248,284,217721,1,2,0:0:0:0:
48,344,217892,5,2,0:0:0:0:
208,208,218062,2,0,L|200:136,1,42.5,2|2,0:0|0:0,0:0:0:0:
196,92,218233,1,2,0:0:0:0:
176,304,218403,1,2,0:0:0:0:
384,312,218573,1,10,0:0:0:0:
