osu file format v14

[General]
AudioFilename: zbuku.mp3
AudioLeadIn: 0
PreviewTime: 87664
Countdown: 1
SampleSet: Normal
StackLeniency: 0.7
Mode: 0
LetterboxInBreaks: 1
WidescreenStoryboard: 0

[Editor]
Bookmarks: 22636
DistanceSpacing: 1.5
BeatDivisor: 4
GridSize: 4
TimelineZoom: 2.899999

[Metadata]
Title:Mloda Krew
TitleUnicode:Mloda Krew
Artist:ZBUKU ft. Sliwa, Sztoss
ArtistUnicode:ZBUKU ft. Sliwa, Sztoss
Creator:ProJared
Version:Extra
Source:
Tags:polish lukermaster cptsqbany krfawy źycie szalonym życiem
BeatmapID:1425225
BeatmapSetID:673423

[Difficulty]
HPDrainRate:7
CircleSize:4
OverallDifficulty:8.4
ApproachRate:9
SliderMultiplier:2.3
SliderTickRate:1

[Events]
//Background and Video events
0,0,"poznan.jpg",0,0
//Break Periods
//Storyboard Layer 0 (Background)
//Storyboard Layer 1 (Fail)
//Storyboard Layer 2 (Pass)
//Storyboard Layer 3 (Foreground)
//Storyboard Layer 4 (Overlay)
//Storyboard Sound Samples

[TimingPoints]
392,340.909090909091,4,3,0,75,1,0
42664,-133.333333333333,4,3,0,75,0,0
44032,-100,4,1,0,75,0,0
45392,-133.333333333333,4,1,0,75,0,0
49482,-100,4,3,0,75,0,0
66528,-133.333333333333,4,3,0,75,0,0
87664,-133.333333333333,4,1,0,75,0,1
96526,-133.333333333333,4,1,0,75,0,1
97210,-133.333333333333,4,1,0,75,0,1
98573,-100,4,3,0,75,0,0
101130,-133.333333333333,4,3,0,75,0,0
101982,-100,4,3,0,75,0,0
102664,-133.333333333333,4,3,0,75,0,0
109482,-133.333333333333,4,1,0,75,0,0
151755,-133.333333333333,4,1,0,75,0,0
152437,-200,4,1,0,75,0,0
153119,-100,4,1,0,75,0,1
157721,-133.333333333333,4,1,0,75,0,1
159937,-100,4,1,0,75,0,1
160960,-133.333333333333,4,1,0,75,0,1
164028,-81.9672131147541,4,1,0,75,0,1
165392,-133.333333333333,4,1,0,75,0,1
174937,-100,4,1,0,75,0,0
177664,-133.333333333333,4,1,0,75,0,0
178176,-100,4,1,0,75,0,0
179710,-133.333333333333,4,1,0,75,0,0

[Colours]
Combo1 : 179,171,216
Combo2 : 166,87,89
Combo3 : 176,104,156

[HitObjects]
80,80,38573,5,0,0:0:0:0:
192,136,38914,1,0,0:0:0:0:
304,193,39255,5,0,0:0:0:0:
192,136,39596,1,0,0:0:0:0:
135,248,39937,5,0,0:0:0:0:
192,136,40278,1,0,0:0:0:0:
249,24,40619,5,0,0:0:0:0:
80,80,40960,1,0,0:0:0:0:
135,248,41301,5,0,0:0:0:0:
304,193,41642,1,0,0:0:0:0:
200,144,41982,5,0,0:0:0:0:
288,56,42323,1,0,0:0:0:0:
288,56,42664,6,0,P|356:32|400:40,1,86.2500032901765
412,116,43005,2,0,L|452:80,2,43.1250016450883
412,208,43346,2,0,L|468:208,2,43.1250016450883
404,292,43687,2,0,L|440:332,2,43.1250016450883
320,304,44028,6,0,P|252:352|168:320,1,172.500006580353
240,272,44539,1,0,0:0:0:0:
220,188,44710,2,0,P|264:140|312:140,1,115
324,60,45051,1,0,0:0:0:0:
224,48,45221,1,0,0:0:0:0:
144,96,45392,2,0,P|60:172|88:232,1,172.500006580353
152,184,45903,1,0,0:0:0:0:
144,280,46073,2,0,B|192:248|240:284|296:256|296:208,1,172.500006580353
408,128,46585,5,0,0:0:0:0:
408,128,46755,2,0,P|376:60|288:64,1,172.500006580353
320,152,47267,1,0,0:0:0:0:
216,124,47437,5,0,0:0:0:0:
216,124,47522,1,0,0:0:0:0:
216,124,47607,1,0,0:0:0:0:
72,112,47778,2,0,P|124:168|156:172,1,86.2500032901765
72,228,48119,2,0,P|128:176|132:143,1,86.2500032901765
192,121,48460,2,0,P|128:173|131:205,1,86.2500032901765
184,230,48801,2,0,P|132:170|99:169,1,86.2500032901765
294,133,49142,5,0,0:0:0:0:
294,133,49312,1,0,0:0:0:0:
184,230,49482,2,0,P|259:251|270:114,1,230
440,136,49994,1,0,0:0:0:0:
375,63,50164,1,0,0:0:0:0:
264,32,50335,5,0,0:0:0:0:
88,136,50505,2,0,P|48:128|88:128,1,115
164,212,50846,2,0,P|156:252|156:212,1,115
216,112,51187,2,0,P|256:120|216:120,1,115
152,48,51528,5,0,0:0:0:0:
152,48,51698,1,0,0:0:0:0:
272,32,51869,1,0,0:0:0:0:
368,96,52039,1,0,0:0:0:0:
272,32,52210,1,0,0:0:0:0:
152,48,52380,1,0,0:0:0:0:
84,208,52551,6,0,P|48:160|92:104,1,115
104,288,52892,6,0,P|100:344|31:362,1,115
168,232,53232,2,0,B|216:212|216:244|280:208,1,115
226,151,53573,1,0,0:0:0:0:
320,128,53744,1,0,0:0:0:0:
226,151,53914,1,0,0:0:0:0:
320,128,54085,1,0,0:0:0:0:
368,32,54255,6,0,B|416:80|392:80|448:128,1,115
320,128,54596,6,0,B|272:80|296:80|240:32,1,115
188,24,54852,1,0,0:0:0:0:
125,37,54937,6,0,P|72:28|24:60,1,115
120,168,55278,1,0,0:0:0:0:
48,272,55448,6,0,P|16:216|28:164,1,115
120,168,55789,1,0,0:0:0:0:
192,88,55960,6,0,P|224:144|212:196,1,115
214,191,56215,1,0,0:0:0:0:
214,191,56301,1,0,0:0:0:0:
126,314,56471,6,0,P|188:324|244:292,1,115
416,176,56812,6,0,P|354:166|298:198,1,115
292,328,57153,5,0,0:0:0:0:
292,328,57238,1,0,0:0:0:0:
292,328,57323,2,0,L|376:236,1,115
336,120,57664,5,0,0:0:0:0:
336,40,57835,1,0,0:0:0:0:
144,156,58005,1,0,0:0:0:0:
164,84,58176,1,0,0:0:0:0:
108,248,58346,2,0,P|72:304|80:384,1,115
236,304,58687,2,0,P|272:248|264:168,1,115
336,120,59028,2,0,P|272:80|200:92,1,115
40,118,59369,2,0,P|100:154|176:146,1,115
400,268,59710,5,0,0:0:0:0:
452,216,59880,1,0,0:0:0:0:
292,268,60051,1,0,0:0:0:0:
244,324,60221,1,0,0:0:0:0:
124,160,60392,5,0,0:0:0:0:
216,228,60562,1,0,0:0:0:0:
304,160,60732,1,0,0:0:0:0:
220,96,60903,1,0,0:0:0:0:
381,98,61073,5,0,0:0:0:0:
304,160,61243,1,0,0:0:0:0:
216,228,61413,1,0,0:0:0:0:
220,96,61585,1,0,0:0:0:0:
216,228,61755,5,0,0:0:0:0:
220,96,61925,1,0,0:0:0:0:
264,4,62095,1,0,0:0:0:0:
148,48,62267,1,0,0:0:0:0:
87,159,62437,1,0,0:0:0:0:
148,48,62606,1,0,0:0:0:0:
264,4,62778,1,0,0:0:0:0:
320,84,62948,5,0,0:0:0:0:
428,84,63119,5,0,0:0:0:0:
437,139,63204,1,0,0:0:0:0:
430,193,63289,1,0,0:0:0:0:
410,244,63374,1,0,0:0:0:0:
376,287,63459,1,0,0:0:0:0:
276,156,63630,5,0,0:0:0:0:
176,72,63801,2,0,L|240:48,1,57.5
136,136,63971,2,0,L|72:152,1,57.5
212,212,64142,5,0,0:0:0:0:
288,272,64312,1,0,0:0:0:0:
268,356,64482,5,0,0:0:0:0:
214,365,64567,1,0,0:0:0:0:
160,358,64652,1,0,0:0:0:0:
109,338,64737,1,0,0:0:0:0:
66,304,64822,1,0,0:0:0:0:
448,104,64994,5,0,0:0:0:0:
369,27,65164,5,0,0:0:0:0:
316,40,65249,1,0,0:0:0:0:
288,85,65334,1,0,0:0:0:0:
297,138,65419,1,0,0:0:0:0:
324,164,65505,1,0,0:0:0:0:
359,203,65590,1,0,0:0:0:0:
346,254,65675,1,0,0:0:0:0:
332,304,65761,1,0,0:0:0:0:
308,336,65846,6,0,P|260:364|201:373,1,115,0|0,0:0|0:0,3:0:0:0:
152,256,66187,1,0,0:0:0:0:
208,96,66357,1,0,0:0:0:0:
208,96,66528,2,0,L|192:204,1,86.2500032901765
424,172,66869,2,0,L|440:60,1,86.2500032901765
344,316,67210,6,0,L|344:216,1,86.2500032901765
320,136,67551,1,0,0:0:0:0:
249,198,67721,1,0,0:0:0:0:
249,198,67892,2,0,L|140:216,1,86.2500032901765
232,108,68232,1,0,0:0:0:0:
160,284,68403,1,0,0:0:0:0:
356,248,68573,5,0,0:0:0:0:
138,198,68744,2,0,L|30:211,1,86.2500032901765
232,108,69085,1,0,0:0:0:0:
152,16,69255,1,0,0:0:0:0:
60,100,69426,1,0,0:0:0:0:
64,292,69596,2,0,P|66:240|52:208,1,86.2500032901765
240,283,69937,5,0,0:0:0:0:
158,282,70107,2,0,P|206:294|246:278,1,86.2500032901765
428,320,70448,1,0,0:0:0:0:
376,208,70619,1,0,0:0:0:0:
376,208,70704,1,0,0:0:0:0:
376,208,70789,1,0,0:0:0:0:
260,192,70960,2,0,L|236:92,1,86.2500032901765
268,24,71301,6,0,P|176:44|173:142,1,172.500006580353
243,111,71812,1,0,0:0:0:0:
324,116,71982,6,0,P|364:108|420:128,1,86.2500032901765
384,320,72323,6,0,P|344:328|286:303,1,86.2500032901765
272,232,72664,1,0,0:0:0:0:
188,172,72835,1,0,0:0:0:0:
120,260,73005,1,0,0:0:0:0:
68,148,73176,1,0,0:0:0:0:
188,148,73346,2,0,P|200:96|180:56,1,86.2500032901765
64,48,73687,2,0,P|56:104|72:144,1,86.2500032901765
188,172,74028,1,0,0:0:0:0:
296,228,74198,5,0,0:0:0:0:
392,284,74369,2,0,B|368:320|368:320|304:340,1,86.2500032901765
188,120,74710,2,0,L|200:28,1,86.2500032901765
300,40,75051,1,0,0:0:0:0:
188,208,75221,1,0,0:0:0:0:
380,156,75392,1,0,0:0:0:0:
392,70,75562,6,0,L|376:180,1,86.2500032901765
460,231,75903,1,0,0:0:0:0:
447,316,76073,2,0,L|463:208,1,86.2500032901765
356,208,76414,1,0,0:0:0:0:
319,225,76499,1,0,0:0:0:0:
307,263,76584,1,0,0:0:0:0:
327,299,76669,1,0,0:0:0:0:
352,336,76755,6,0,L|156:336,1,172.500006580353
200,236,77267,1,0,0:0:0:0:
96,144,77437,2,0,L|192:152,1,86.2500032901765
356,208,77778,2,0,P|304:192|267:198,1,86.2500032901765
24,100,78119,2,0,P|24:192|88:220,1,172.500006580353
204,128,78630,5,0,0:0:0:0:
296,68,78801,2,0,B|340:60|340:60|386:76,1,86.2500032901765
396,328,79142,1,0,0:0:0:0:
344,208,79312,1,0,0:0:0:0:
408,104,79482,2,0,B|460:172|460:172|479:271,1,172.500006580353
112,320,79994,5,0,0:0:0:0:
156,256,80164,1,0,0:0:0:0:
251,223,80335,2,0,P|208:212|155:226,1,86.2500032901765
132,292,80676,1,0,0:0:0:0:
325,324,80846,2,0,P|340:272|273:181,1,172.500006580353
304,144,81357,5,0,0:0:0:0:
310,92,81528,2,0,B|356:96|356:96|398:87,1,86.2500032901765
208,148,81869,2,0,B|164:144|164:144|119:152,1,86.2500032901765
192,208,82210,5,0,0:0:0:0:
56,208,82380,1,0,0:0:0:0:
20,208,82551,5,0,0:0:0:0:
240,208,82721,1,0,0:0:0:0:
128,80,82892,5,0,0:0:0:0:
128,312,83062,1,0,0:0:0:0:
128,40,83232,5,0,0:0:0:0:
128,344,83403,1,0,0:0:0:0:
132,204,83573,5,0,0:0:0:0:
284,32,83744,1,0,0:0:0:0:
428,208,83914,5,0,0:0:0:0:
284,32,84085,1,0,0:0:0:0:
272,332,84255,5,0,0:0:0:0:
392,208,84426,1,0,0:0:0:0:
172,204,84596,5,0,0:0:0:0:
280,68,84767,1,0,0:0:0:0:
360,208,84937,5,0,0:0:0:0:
212,200,85107,1,0,0:0:0:0:
196,120,85278,5,0,0:0:0:0:
196,120,85448,1,0,0:0:0:0:
88,144,85619,5,0,0:0:0:0:
88,144,85789,1,0,0:0:0:0:
136,28,85960,5,0,0:0:0:0:
60,280,86130,1,0,0:0:0:0:
196,120,86301,5,0,0:0:0:0:
156,232,86471,1,0,0:0:0:0:
264,172,86642,5,0,0:0:0:0:
240,232,86812,1,0,0:0:0:0:
455,124,86982,5,0,0:0:0:0:
449,165,87067,1,0,0:0:0:0:
428,202,87153,1,0,0:0:0:0:
395,229,87237,1,0,0:0:0:0:
355,243,87323,1,0,0:0:0:0:
324,216,87408,1,0,0:0:0:0:
312,255,87493,1,0,0:0:0:0:
286,289,87579,1,0,0:0:0:0:
249,310,87664,6,0,P|192:304|153:269,1,86.2500032901765
208,44,88005,2,0,L|196:160,1,86.2500032901765
327,149,88346,1,0,0:0:0:0:
212,224,88517,2,0,P|160:216|132:188,1,86.2500032901765
264,128,88857,1,0,0:0:0:0:
370,82,89028,2,0,P|443:99|482:22,1,172.500006580353
370,82,89539,5,0,0:0:0:0:
303,234,89710,2,0,P|232:216|191:294,1,172.500006580353
212,96,90221,1,0,0:0:0:0:
303,231,90392,6,0,P|316:285|303:331,1,86.2500032901765
128,200,90732,1,0,0:0:0:0:
310,314,90903,1,0,0:0:0:0:
190,292,91073,2,0,L|88:336,1,86.2500032901765
24,236,91414,2,0,B|48:192|36:152|36:152|12:104|68:68,1,172.500006580353
252,156,92096,5,0,0:0:0:0:
325,102,92267,1,0,0:0:0:0:
252,156,92437,2,0,P|200:168|144:160,1,86.2500032901765
128,60,92778,2,0,P|176:48|232:56,1,86.2500032901765
328,188,93119,6,0,L|324:80,1,86.2500032901765
184,24,93460,1,0,0:0:0:0:
256,104,93630,1,0,0:0:0:0:
344,24,93801,2,0,P|404:52|408:176,1,172.500006580353
452,328,94312,1,0,0:0:0:0:
439,242,94482,6,0,L|455:348,1,86.2500032901765
357,326,94823,1,0,0:0:0:0:
476,104,95164,6,0,P|416:92|400:60,1,86.2500032901765
316,96,95505,2,0,L|304:4,1,86.2500032901765
212,80,95846,2,0,P|160:48|120:60,2,86.2500032901765
207,206,96357,1,0,0:0:0:0:
148,144,96528,1,0,0:0:0:0:
148,144,96869,2,0,L|212:212,1,86.2500032901765
288,320,97210,2,0,L|284:224,1,86.2500032901765
340,168,97551,2,0,L|432:236,1,86.2500032901765
404,88,97892,1,0,0:0:0:0:
404,88,98062,1,0,0:0:0:0:
284,64,98232,5,0,0:0:0:0:
194,228,98403,1,0,0:0:0:0:
244,148,98573,2,0,B|184:112|184:112|140:120|84:112|84:112|24:156,2,230
411,220,99426,1,0,0:0:0:0:
416,224,99596,6,0,B|347:224|347:224|307:260|259:228|259:228|180:228,2,230
300,176,100619,5,0,0:0:0:0:
172,296,100789,1,0,0:0:0:0:
56,216,100960,1,0,0:0:0:0:
220,180,101130,1,0,0:0:0:0:
60,184,101301,2,0,P|72:108|180:96,1,172.500006580353
220,180,101812,1,0,0:0:0:0:
248,40,101982,2,0,L|384:72,1,115
300,176,102323,2,8,P|255:108|195:130,1,115
156,68,102664,2,0,B|98:66|98:66|82:50|82:50|98:50|98:50|82:66|82:66|18:66,1,172.500006580353
36,232,103346,6,0,L|116:192,1,86.2500032901765
200,232,103687,1,0,0:0:0:0:
296,268,103857,1,0,0:0:0:0:
372,172,104028,5,0,0:0:0:0:
320,76,104199,5,0,0:0:0:0:
224,36,104369,1,0,0:0:0:0:
200,232,104540,5,0,0:0:0:0:
280,172,104710,1,0,0:0:0:0:
240,340,104881,5,0,0:0:0:0:
280,172,105051,1,0,0:0:0:0:
332,332,105221,5,0,0:0:0:0:
160,140,105392,1,0,0:0:0:0:
80,204,105562,5,0,0:0:0:0:
200,232,105733,1,0,0:0:0:0:
120,296,105903,5,0,0:0:0:0:
160,140,106074,1,0,0:0:0:0:
404,200,106244,5,0,0:0:0:0:
280,172,106415,1,0,0:0:0:0:
84,76,106585,5,0,0:0:0:0:
200,232,106756,1,0,0:0:0:0:
332,332,106926,5,0,0:0:0:0:
280,172,107096,1,0,0:0:0:0:
80,204,107267,5,0,0:0:0:0:
308,104,107437,1,0,0:0:0:0:
308,104,107608,5,0,0:0:0:0:
192,132,107778,1,0,0:0:0:0:
228,28,107949,5,0,0:0:0:0:
393,220,108119,5,0,0:0:0:0:
387,261,108204,1,0,0:0:0:0:
366,298,108290,1,0,0:0:0:0:
333,325,108374,1,0,0:0:0:0:
308,283,108460,1,0,0:0:0:0:
295,238,108545,1,0,0:0:0:0:
307,199,108630,1,0,0:0:0:0:
333,165,108716,1,0,0:0:0:0:
344,112,108801,6,0,P|291:106|248:71,1,86.2500032901765
192,240,109142,1,0,0:0:0:0:
174,9,109312,1,0,0:0:0:0:
45,132,109482,6,0,P|102:122|150:138,1,86.2500032901765
192,240,109823,5,0,0:0:0:0:
304,48,109994,1,0,0:0:0:0:
352,224,110164,2,0,L|356:128,2,86.2500032901765
219,135,110676,1,0,0:0:0:0:
245,139,110761,1,0,0:0:0:0:
272,144,110846,5,0,0:0:0:0:
182,267,111017,1,0,0:0:0:0:
208,262,111102,1,0,0:0:0:0:
234,258,111187,2,0,P|292:264|332:252,1,86.2500032901765
405,230,111528,1,0,0:0:0:0:
424,120,111698,2,0,P|384:112|354:125,1,43.1250016450883
276,124,111869,2,0,B|260:168|260:168|276:212,1,86.2500032901765
192,128,112210,5,0,0:0:0:0:
224,40,112380,2,0,P|176:28|131:42,1,86.2500032901765
100,132,112721,1,0,0:0:0:0:
24,160,112892,2,0,L|24:256,1,86.2500032901765
96,312,113232,1,0,0:0:0:0:
184,204,113403,1,0,0:0:0:0:
182,225,113488,1,0,0:0:0:0:
181,246,113573,5,0,0:0:0:0:
352,316,113744,5,0,0:0:0:0:
378,283,113829,1,0,0:0:0:0:
376,242,113914,1,0,0:0:0:0:
347,212,113999,1,0,0:0:0:0:
305,209,114084,1,0,0:0:0:0:
220,312,114255,2,0,P|172:324|126:315,1,86.2500032901765
31,194,114596,2,0,P|71:182|125:191,1,86.2500032901765
31,194,114937,6,0,P|19:266|103:310,1,172.500006580353
128,224,115448,1,0,0:0:0:0:
168,184,115534,1,0,0:0:0:0:
208,144,115619,2,0,B|176:128|136:92|136:92|88:80|52:128,1,172.500006580353
276,184,116130,1,0,0:0:0:0:
276,184,116301,6,0,L|268:280,1,86.2500032901765
364,180,116642,1,0,0:0:0:0:
432,304,116812,1,0,0:0:0:0:
432,304,116897,1,0,0:0:0:0:
432,304,116982,2,0,P|384:284|327:297,1,86.2500032901765
376,104,117323,1,0,0:0:0:0:
280,68,117494,1,0,0:0:0:0:
188,132,117664,6,0,P|116:168|128:268,1,172.500006580353
268,216,118176,1,0,0:0:0:0:
196,228,118346,2,0,L|184:332,1,86.2500032901765
28,344,118687,2,0,P|77:346|112:324,1,86.2500032901765
263,279,119028,6,0,P|192:308|120:248,1,172.500006580353
196,228,119539,1,0,0:0:0:0:
263,279,119710,2,0,P|272:328|252:368,1,86.2500032901765
176,156,120051,1,0,0:0:0:0:
92,208,120221,1,0,0:0:0:0:
360,120,120392,5,0,0:0:0:0:
332,208,120562,1,0,0:0:0:0:
278,118,120732,2,0,P|327:130|369:113,1,86.2500032901765
324,32,121073,1,0,0:0:0:0:
216,56,121244,1,0,0:0:0:0:
216,56,121414,2,0,B|176:72|176:72|128:52,1,86.2500032901765
216,172,121755,6,0,L|235:351,1,172.500006580353
216,172,122267,1,0,0:0:0:0:
300,216,122437,2,0,B|344:224|344:224|384:212,1,86.2500032901765
371,27,122778,1,0,0:0:0:0:
207,47,122948,1,0,0:0:0:0:
207,47,123119,6,0,P|132:64|116:156,1,172.500006580353
200,132,123630,1,0,0:0:0:0:
200,132,123715,1,0,0:0:0:0:
200,132,123801,2,0,L|300:132,1,86.2500032901765
452,120,124142,2,0,L|344:120,1,86.2500032901765
328,224,124482,6,0,P|256:208|168:276,1,172.500006580353
176,258,124994,1,0,0:0:0:0:
240,104,125164,1,0,0:0:0:0:
328,224,125335,1,0,0:0:0:0:
240,104,125505,2,0,P|284:96|324:108,1,86.2500032901765
312,296,125846,5,0,0:0:0:0:
404,260,126017,1,0,0:0:0:0:
256,228,126187,5,0,0:0:0:0:
188,167,126358,1,0,0:0:0:0:
328,340,126528,5,0,0:0:0:0:
364,60,126698,1,0,0:0:0:0:
232,344,126869,5,0,0:0:0:0:
236,28,127039,1,0,0:0:0:0:
128,224,127210,5,0,0:0:0:0:
208,272,127380,2,0,L|264:256,2,43.1250016450883
96,136,127721,1,0,0:0:0:0:
20,264,127892,6,0,L|68:276,1,43.1250016450883
72,360,128062,2,0,L|4:332,1,43.1250016450883
208,272,128232,6,0,L|199:314,2,43.1250016450883
52,52,128573,5,0,0:0:0:0:
288,156,128744,2,0,L|332:108,1,43.1250016450883
240,60,128914,5,0,0:0:0:0:
116,276,129085,2,0,L|120:200,1,43.1250016450883
180,152,129255,5,0,0:0:0:0:
336,244,129426,1,0,0:0:0:0:
392,180,129596,5,0,0:0:0:0:
424,256,129767,1,0,0:0:0:0:
360,100,129937,5,0,0:0:0:0:
296,164,130107,1,0,0:0:0:0:
452,120,130278,5,0,0:0:0:0:
272,84,130448,1,0,0:0:0:0:
476,336,130619,1,0,0:0:0:0:
435,323,130704,1,0,0:0:0:0:
393,320,130789,1,0,0:0:0:0:
351,325,130874,1,0,0:0:0:0:
310,338,130959,1,0,0:0:0:0:
273,352,131045,1,0,0:0:0:0:
250,317,131130,1,0,0:0:0:0:
227,281,131215,1,0,0:0:0:0:
200,296,131301,6,0,P|160:316|104:304,1,86.2500032901765
220,184,131642,1,0,0:0:0:0:
69,209,131812,1,0,0:0:0:0:
104,288,131982,2,0,L|112:376,1,86.2500032901765
51,198,132323,2,0,L|44:100,1,86.2500032901765
280,52,132664,5,0,0:0:0:0:
110,108,132835,1,0,0:0:0:0:
188,108,133005,2,0,B|144:124|144:124|109:108,1,86.2500032901765
305,233,133346,1,0,0:0:0:0:
252,168,133517,1,0,0:0:0:0:
180,204,133687,2,0,P|164:264|192:304,1,86.2500032901765
372,83,134028,6,0,B|345:129|345:129|352:200|309:233|309:233|279:233,1,172.500006580353
240,140,134539,1,0,0:0:0:0:
400,116,134710,2,0,P|448:112|488:120,1,86.2500032901765
408,312,135051,1,0,0:0:0:0:
352,32,135221,1,0,0:0:0:0:
311,231,135392,6,0,L|212:224,1,86.2500032901765
48,104,135732,2,0,P|96:96|136:112,1,86.2500032901765
320,192,136073,1,0,0:0:0:0:
156,112,136244,1,0,0:0:0:0:
144,200,136414,1,0,0:0:0:0:
124,237,136499,1,0,0:0:0:0:
124,279,136584,1,0,0:0:0:0:
142,317,136669,1,0,0:0:0:0:
168,352,136755,6,0,P|248:352|308:280,1,172.500006580353
184,256,137267,1,0,0:0:0:0:
56,128,137437,2,0,P|44:168|60:208,1,86.2500032901765
244,304,137778,2,0,P|256:256|244:216,1,86.2500032901765
172,76,138119,6,0,L|164:184,1,86.2500032901765
159,268,138460,1,0,0:0:0:0:
96,216,138630,1,0,0:0:0:0:
244,120,138801,2,0,L|340:120,1,86.2500032901765
276,224,139142,1,0,0:0:0:0:
368,272,139312,1,0,0:0:0:0:
404,164,139482,6,0,P|412:108|384:68,1,86.2500032901765
96,72,139823,1,0,0:0:0:0:
292,128,139994,1,0,0:0:0:0:
72,40,140164,1,0,0:0:0:0:
260,96,140335,1,0,0:0:0:0:
112,172,140505,2,0,B|104:216|104:216|116:264,1,86.2500032901765
56,316,140846,5,0,0:0:0:0:
212,276,141017,1,0,0:0:0:0:
305,351,141187,1,0,0:0:0:0:
402,226,141358,1,0,0:0:0:0:
296,220,141528,2,0,L|188:236,1,86.2500032901765
286,305,141869,1,0,0:0:0:0:
318,277,141954,1,0,0:0:0:0:
338,240,142039,1,0,0:0:0:0:
343,198,142124,1,0,0:0:0:0:
245,134,142210,6,0,P|168:168|176:248,1,172.500006580353
328,316,142721,1,0,0:0:0:0:
444,136,142892,2,0,P|392:120|349:133,1,86.2500032901765
268,72,143232,1,0,0:0:0:0:
213,184,143403,1,0,0:0:0:0:
213,184,143488,1,0,0:0:0:0:
213,184,143573,6,0,P|220:236|208:292,1,86.2500032901765
128,144,143914,1,0,0:0:0:0:
35,243,144085,1,0,0:0:0:0:
152,344,144255,2,0,P|208:360|304:304,1,172.500006580353
346,117,144767,1,0,0:0:0:0:
372,340,144937,5,0,0:0:0:0:
196,232,145107,1,0,0:0:0:0:
136,288,145278,2,0,P|212:320|268:252,2,172.500006580353
136,288,146045,1,0,0:0:0:0:
136,288,146130,1,0,0:0:0:0:
180,120,146301,2,0,B|188:80|188:80|176:36,1,86.2500032901765
236,213,146642,2,0,P|280:216|320:188,1,86.2500032901765
108,208,146982,2,0,B|64:200|64:200|23:209,1,86.2500032901765
64,320,147323,1,0,0:0:0:0:
180,157,147494,1,0,0:0:0:0:
292,291,147664,5,0,0:0:0:0:
360,125,147835,1,0,0:0:0:0:
399,305,148005,1,0,0:0:0:0:
262,181,148176,1,0,0:0:0:0:
446,195,148346,1,0,0:0:0:0:
264,324,148517,1,0,0:0:0:0:
364,88,148688,1,0,0:0:0:0:
408,340,148858,1,0,0:0:0:0:
248,152,149028,5,0,0:0:0:0:
480,168,149198,1,0,0:0:0:0:
152,248,149369,1,0,0:0:0:0:
144,60,149539,1,0,0:0:0:0:
272,224,149710,1,0,0:0:0:0:
64,160,149880,1,0,0:0:0:0:
256,80,150050,1,0,0:0:0:0:
132,320,150221,1,0,0:0:0:0:
86,163,150392,5,0,0:0:0:0:
337,128,150562,1,0,0:0:0:0:
112,352,150733,1,0,0:0:0:0:
144,16,150903,1,0,0:0:0:0:
304,256,151073,1,0,0:0:0:0:
32,128,151244,1,0,0:0:0:0:
304,96,151414,1,0,0:0:0:0:
144,288,151585,1,0,0:0:0:0:
352,272,151755,6,0,L|436:288,1,86.2500032901765
288,192,152096,2,0,L|204:208,1,86.2500032901765
248,44,152437,2,0,P|340:28|376:124,1,201.25
464,216,153119,6,0,P|408:220|364:280,1,115
420,344,153460,2,0,P|320:360|284:336,1,115
256,252,153801,1,0,0:0:0:0:
164,340,153971,1,0,0:0:0:0:
88,244,154142,6,0,B|56:176|56:176|168:164|116:20,1,230
56,28,154823,1,0,0:0:0:0:
204,84,154994,1,0,0:0:0:0:
260,176,155164,2,0,P|320:136|372:136,1,115
400,244,155505,2,0,L|448:124,1,115
484,44,155846,6,0,P|420:20|364:76,1,115
300,80,156187,1,0,0:0:0:0:
216,40,156357,1,0,0:0:0:0:
220,132,156528,2,0,L|284:236,1,115
400,248,156869,1,0,0:0:0:0:
328,336,157039,1,0,0:0:0:0:
220,332,157210,6,0,B|164:292|112:332|32:296|52:224,1,230
104,128,157721,1,0,0:0:0:0:
208,96,157892,2,0,L|192:200,1,86.2500032901765
416,172,158233,2,0,L|428:60,1,86.2500032901765
344,316,158574,6,0,L|344:216,1,86.2500032901765
320,136,158915,1,0,0:0:0:0:
249,198,159085,1,0,0:0:0:0:
249,198,159256,2,0,L|140:216,1,86.2500032901765
232,108,159596,1,0,0:0:0:0:
160,288,159767,1,0,0:0:0:0:
232,108,159937,6,0,B|328:92|328:92|364:124|416:100|488:84,2,230
60,100,160790,1,0,0:0:0:0:
32,256,160960,2,0,P|28:308|40:340,1,86.2500032901765
159,208,161301,5,0,0:0:0:0:
160,291,161471,2,0,P|168:247|156:203,1,86.2500032901765
295,223,161812,2,0,L|311:308,1,86.2500032901765
311,308,162152,5,0,0:0:0:0:
324,48,162323,2,0,L|292:140,1,86.2500032901765
208,56,162664,2,0,P|108:48|60:100,1,172.500006580353
168,168,163176,1,0,0:0:0:0:
84,244,163346,1,0,0:0:0:0:
168,316,163517,1,0,0:0:0:0:
284,312,163687,2,0,L|372:240,1,86.2500032901765
416,176,164028,6,0,P|452:104|396:52,1,140.299994219818
352,120,164369,1,0,0:0:0:0:
352,120,164539,1,0,0:0:0:0:
288,60,164710,5,0,0:0:0:0:
284,176,164880,1,0,0:0:0:0:
220,116,165051,1,0,0:0:0:0:
132,80,165392,6,0,L|44:48,1,86.2500032901765
64,164,165732,1,0,0:0:0:0:
152,344,166073,5,0,0:0:0:0:
268,340,166243,1,0,0:0:0:0:
96,252,166414,1,0,0:0:0:0:
120,156,166584,1,0,0:0:0:0:
212,72,166755,2,0,P|288:84|300:192,1,172.500006580353
192,184,167266,1,0,0:0:0:0:
24,71,167436,2,0,L|128:103,1,86.2500032901765
296,168,167777,2,0,P|264:100|224:100,1,86.2500032901765
172,62,168119,6,0,B|147:37|91:73|91:73|41:48|41:48|13:84,1,172.500006580353
128,340,168800,6,0,L|208:300,1,86.2500032901765
116,240,169141,1,0,0:0:0:0:
272,260,169311,1,0,0:0:0:0:
332,120,169482,5,0,0:0:0:0:
184,120,169653,5,0,0:0:0:0:
88,80,169823,1,0,0:0:0:0:
200,232,169994,5,0,0:0:0:0:
280,172,170164,1,0,0:0:0:0:
320,4,170335,5,0,0:0:0:0:
280,172,170505,1,0,0:0:0:0:
332,332,170675,5,0,0:0:0:0:
240,36,170846,1,0,0:0:0:0:
320,260,171016,5,0,0:0:0:0:
200,232,171187,1,0,0:0:0:0:
80,308,171357,5,0,0:0:0:0:
152,32,171528,1,0,0:0:0:0:
240,112,171698,5,0,0:0:0:0:
144,200,171869,1,0,0:0:0:0:
158,363,172039,5,0,0:0:0:0:
261,351,172209,1,0,0:0:0:0:
232,244,172380,5,0,0:0:0:0:
320,188,172550,1,0,0:0:0:0:
178,121,172721,5,0,0:0:0:0:
472,248,172891,1,0,0:0:0:0:
380,260,173062,5,0,0:0:0:0:
312,312,173232,1,0,0:0:0:0:
220,304,173403,5,0,0:0:0:0:
28,168,173573,1,0,0:0:0:0:
68,127,173658,1,0,0:0:0:0:
123,110,173743,1,0,0:0:0:0:
178,121,173828,1,0,0:0:0:0:
224,100,173914,5,0,0:0:0:0:
265,39,173999,1,0,0:0:0:0:
337,26,174084,1,0,0:0:0:0:
399,66,174169,1,0,0:0:0:0:
420,116,174255,2,0,P|440:172|432:208,1,86.2500032901765
456,336,174596,6,0,P|403:330|360:295,1,86.2500032901765
288,244,174937,1,0,0:0:0:0:
296,136,175107,1,0,0:0:0:0:
200,200,175278,6,0,P|132:212|92:252,1,115
200,200,175618,5,0,0:0:0:0:
304,48,175789,1,0,0:0:0:0:
404,224,175960,6,0,P|436:180|432:112,2,115
96,328,176471,6,0,L|16:264,2,57.5
196,304,176812,1,0,0:0:0:0:
222,299,176897,1,0,0:0:0:0:
248,295,176982,2,0,P|298:321|366:293,1,115
404,224,177323,1,0,0:0:0:0:
424,120,177493,2,0,P|384:108|344:116,1,57.5
284,112,177664,2,0,P|283:68|318:9,1,86.2500032901765
300,29,178005,5,0,0:0:0:0:
172,40,178175,2,0,P|120:24|52:36,1,86.2500032901765
100,132,178516,1,0,0:0:0:0:
24,160,178687,2,0,L|24:280,1,115
96,312,179027,1,0,0:0:0:0:
184,204,179198,1,0,0:0:0:0:
182,225,179283,1,0,0:0:0:0:
181,246,179368,5,0,0:0:0:0:
376,276,179539,5,0,0:0:0:0:
353,194,179710,2,0,P|361:250|381:282,1,86.2500032901765
332,104,180050,2,0,P|284:116|238:107,1,86.2500032901765
168,32,180391,2,0,P|208:20|262:29,1,86.2500032901765
364,24,180732,1,0,0:0:0:0:
448,104,180903,1,0,0:0:0:0:
436,212,181073,1,0,0:0:0:0:
440,216,181244,2,0,P|375:275|347:267,1,86.2500032901765
296,192,181585,5,0,0:0:0:0:
211,204,181755,2,0,P|271:192|311:192,1,86.2500032901765
40,160,182097,1,0,0:0:0:0:
120,240,182268,1,0,0:0:0:0:
32,292,182438,2,0,P|104:336|192:312,1,172.500006580353
292,328,182949,1,0,0:0:0:0:
360,256,183120,6,0,L|460:248,1,86.2500032901765
392,108,183461,1,0,0:0:0:0:
340,176,183631,1,0,0:0:0:0:
281,95,183802,2,0,L|193:91,1,86.2500032901765
195,92,184143,1,0,0:0:0:0:
252,216,184313,1,0,0:0:0:0:
136,152,184483,6,0,B|124:196|124:196|137:236,1,86.2500032901765
244,304,184824,1,0,0:0:0:0:
252,216,184995,1,0,0:0:0:0:
136,308,185165,2,0,P|88:324|46:316,1,86.2500032901765
108,192,185506,2,0,P|156:180|198:184,1,86.2500032901765
324,296,185847,6,0,L|316:200,1,86.2500032901765
216,256,186188,1,0,0:0:0:0:
260,136,186358,1,0,0:0:0:0:
316,224,186528,2,0,B|377:237|418:193|418:193|475:215,1,172.500006580353
336,144,187040,1,0,0:0:0:0:
492,280,187211,6,0,P|448:304|389:295,1,86.2500032901765
312,344,187552,1,0,0:0:0:0:
424,140,187722,1,0,0:0:0:0:
260,44,187892,2,0,B|188:96|188:96|172:200,1,172.500006580353
176,264,188404,1,0,0:0:0:0:
340,256,188574,6,0,L|224:264,1,86.2500032901765
338,147,188915,2,0,L|450:139,1,86.2500032901765
484,240,189256,1,0,0:0:0:0:
416,344,189427,1,0,0:0:0:0:
416,344,189597,2,0,B|361:335|361:335|312:352,1,86.2500032901765
167,336,189938,5,0,0:0:0:0:
147,175,190108,1,0,0:0:0:0:
32,336,190279,2,0,P|48:284|36:240,1,86.2500032901765
147,175,190620,2,0,P|132:248|174:343,1,172.500006580353
43,254,191130,1,0,0:0:0:0:
167,336,191301,5,0,0:0:0:0:
268,244,191472,1,0,0:0:0:0:
320,356,191643,1,0,0:0:0:0:
208,136,191813,1,0,0:0:0:0:
404,240,191982,1,0,0:0:0:0:
168,224,192153,1,0,0:0:0:0:
341,146,192324,1,0,0:0:0:0:
409,348,192495,1,0,0:0:0:0:
108,132,192665,5,0,0:0:0:0:
208,136,192836,1,0,0:0:0:0:
284,48,193006,1,0,0:0:0:0:
200,280,193177,1,0,0:0:0:0:
288,208,193347,1,0,0:0:0:0:
368,152,193518,1,0,0:0:0:0:
164,44,193688,1,0,0:0:0:0:
108,132,193858,1,0,0:0:0:0:
236,324,194028,5,0,0:0:0:0:
231,208,194198,1,0,0:0:0:0:
132,276,194369,1,0,0:0:0:0:
75,206,194539,1,0,0:0:0:0:
48,320,194711,1,0,0:0:0:0:
292,268,194880,1,0,0:0:0:0:
349,338,195050,1,0,0:0:0:0:
376,224,195222,1,0,0:0:0:0:
180,264,195393,5,0,0:0:0:0:
451,74,195563,1,0,0:0:0:0:
228,36,195733,1,0,0:0:0:0:
228,232,195904,1,0,0:0:0:0:
284,303,196074,5,0,0:0:0:0:
253,332,196159,1,0,0:0:0:0:
214,348,196244,1,0,0:0:0:0:
172,347,196329,1,0,0:0:0:0:
133,330,196414,1,0,0:0:0:0:
99,305,196500,1,0,0:0:0:0:
89,252,196585,1,0,0:0:0:0:
106,199,196670,1,0,0:0:0:0:
144,160,196755,1,0,0:0:0:0:
312,163,197438,6,0,B|225:180|225:180|131:156,1,172.500006580353
232,96,197949,1,0,0:0:0:0:
404,132,198120,6,0,P|420:184|404:220,1,86.2500032901765
256,280,198461,1,0,0:0:0:0:
188,176,198631,1,0,0:0:0:0:
281,300,198802,2,0,P|324:312|412:232,1,172.500006580353
259,165,199313,1,0,0:0:0:0:
338,168,199483,6,0,P|294:152|239:186,1,86.2500032901765
332,252,199824,2,0,L|432:276,1,86.2500032901765
216,240,200165,1,0,0:0:0:0:
152,320,200336,1,0,0:0:0:0:
259,165,200506,1,0,0:0:0:0:
312,80,200677,1,0,0:0:0:0:
264,252,200847,6,0,L|268:364,1,86.2500032901765
424,276,201188,1,0,0:0:0:0:
348,184,201358,1,0,0:0:0:0:
365,344,201529,2,0,P|424:364|506:290,1,172.500006580353
296,272,202040,1,0,0:0:0:0:
296,272,202210,6,0,L|192:300,1,86.2500032901765
84,288,202552,1,0,0:0:0:0:
92,96,202722,1,0,0:0:0:0:
164,156,202893,2,0,L|156:268,1,86.2500032901765
12,232,203233,2,0,L|20:116,1,86.2500032901765
140,352,203574,5,0,0:0:0:0:
256,348,203745,1,0,0:0:0:0:
254,269,203915,2,0,L|348:240,1,86.2500032901765
428,136,204256,2,0,L|332:168,1,86.2500032901765
336,245,204597,1,0,0:0:0:0:
280,60,204768,1,0,0:0:0:0:
424,194,204938,6,0,L|336:152,1,86.2500032901765
280,60,205278,1,0,0:0:0:0:
200,160,205449,1,0,0:0:0:0:
128,64,205619,1,0,0:0:0:0:
52,144,205790,1,0,0:0:0:0:
112,228,205961,2,0,P|104:272|118:315,1,86.2500032901765
220,336,206301,6,0,L|232:216,1,86.2500032901765
392,100,206643,1,0,0:0:0:0:
440,264,206813,1,0,0:0:0:0:
296,208,206983,1,0,0:0:0:0:
456,176,207154,1,0,0:0:0:0:
296,208,207324,2,0,L|200:220,1,86.2500032901765
82,210,207664,5,0,0:0:0:0:
211,217,207836,1,0,0:0:0:0:
188,296,208006,2,0,P|144:304|102:299,1,86.2500032901765
82,210,208346,2,0,P|80:144|193:107,1,172.500006580353
160,184,208858,1,0,0:0:0:0:
276,136,209029,6,0,L|368:120,1,86.2500032901765
456,168,209370,1,0,0:0:0:0:
380,296,209539,1,0,0:0:0:0:
264,212,209711,2,0,P|303:291|384:293,1,172.500006580353
384,56,210222,1,0,0:0:0:0:
264,212,210393,6,0,L|248:328,1,86.2500032901765
56,274,210733,1,0,0:0:0:0:
135,184,210904,1,0,0:0:0:0:
40,297,211074,2,0,L|132:316,1,86.2500032901765
215,181,211415,1,0,0:0:0:0:
328,248,211586,1,0,0:0:0:0:
218,94,211755,6,0,L|213:207,1,86.2500032901765
321,334,212097,2,0,L|329:221,1,86.2500032901765
189,266,212438,2,0,P|132:224|142:123,1,172.500006580353
215,181,212949,1,0,0:0:0:0:
432,216,213119,5,0,0:0:0:0:
424,120,213289,1,0,0:0:0:0:
321,334,213461,5,0,0:0:0:0:
304,32,213631,1,0,0:0:0:0:
312,224,213802,5,0,0:0:0:0:
308,128,213972,1,0,0:0:0:0:
208,340,214143,5,0,0:0:0:0:
216,36,214313,1,0,0:0:0:0:
208,232,214482,5,0,0:0:0:0:
216,132,214654,1,0,0:0:0:0:
124,240,214824,5,0,0:0:0:0:
132,132,214995,1,0,0:0:0:0:
40,36,215164,5,0,0:0:0:0:
32,344,215336,1,0,0:0:0:0:
36,136,215506,5,0,0:0:0:0:
32,240,215677,1,0,0:0:0:0:
136,40,215847,5,0,0:0:0:0:
124,344,216018,1,0,0:0:0:0:
200,184,216188,5,0,0:0:0:0:
336,36,216358,1,0,0:0:0:0:
464,184,216529,5,0,0:0:0:0:
328,312,216699,1,0,0:0:0:0:
332,184,216870,5,0,0:0:0:0:
232,64,217040,1,0,0:0:0:0:
464,88,217211,5,0,0:0:0:0:
432,304,217381,1,0,0:0:0:0:
224,300,217552,5,0,0:0:0:0:
112,296,217722,1,0,0:0:0:0:
27,250,217893,5,0,0:0:0:0:
67,213,217978,1,0,0:0:0:0:
119,195,218063,1,0,0:0:0:0:
174,200,218148,1,0,0:0:0:0:
221,228,218233,1,0,0:0:0:0:
291,256,218318,1,0,0:0:0:0:
363,236,218403,1,0,0:0:0:0:
408,176,218488,1,0,0:0:0:0:
407,101,218573,5,0,0:0:0:0:
