osu file format v14

[General]
AudioFilename: audio.mp3
AudioLeadIn: 0
PreviewTime: 87582
Countdown: 0
SampleSet: Soft
StackLeniency: 0.7
Mode: 0
LetterboxInBreaks: 0
WidescreenStoryboard: 0

[Editor]
DistanceSpacing: 0.6
BeatDivisor: 4
GridSize: 16
TimelineZoom: 1.7

[Metadata]
Title:Mloda krew
TitleUnicode:Młoda krew
Artist:ZBUKU feat. Sliwa, Sztoss
ArtistUnicode:ZBUKU feat. Śliwa, Sztoss
Creator:Nikakis
Version:Onlybiscuit's Extra
Source:
Tags:Hip-Hop Rap Polish Z.B.U.K.U Życie Szalonym Życiem browiec Reform Kujinn Onlybiscuit brotarks
BeatmapID:2083425
BeatmapSetID:996024

[Difficulty]
HPDrainRate:5.2
CircleSize:3.8
OverallDifficulty:9
ApproachRate:9.2
SliderMultiplier:1.7
SliderTickRate:1

[Events]
//Background and Video events
0,0,"bg.jpg",0,0
//Break Periods
//Storyboard Layer 0 (Background)
//Storyboard Layer 1 (Fail)
//Storyboard Layer 2 (Pass)
//Storyboard Layer 3 (Foreground)
//Storyboard Sound Samples

[TimingPoints]
395,340.909090909091,4,2,1,65,1,0
44032,-100,4,2,1,65,0,0
87667,-80,4,2,1,85,0,1
109485,-100,4,2,1,65,0,0
152099,-117.647058823529,4,2,1,65,0,0
152781,-153.846153846153,4,2,1,65,0,0
153122,-80,4,2,1,85,0,1
174940,-100,4,2,1,65,0,0

[Colours]
Combo1 : 0,97,193
Combo2 : 129,129,192
Combo3 : 255,176,98
Combo4 : 128,64,64

[HitObjects]
67,82,38576,5,0,1:0:0:0:
67,82,38917,1,0,1:0:0:0:
71,209,39258,1,0,1:0:0:0:
71,209,39599,1,0,1:0:0:0:
184,86,39940,5,0,1:0:0:0:
184,86,40281,1,0,1:0:0:0:
188,213,40622,1,0,1:0:0:0:
188,213,40963,1,0,1:0:0:0:
306,86,41304,5,0,1:0:0:0:
306,86,41645,1,0,1:0:0:0:
310,213,41986,1,0,1:0:0:0:
310,213,42327,1,0,1:0:0:0:
375,145,42497,1,0,0:0:0:0:
240,148,42667,5,0,1:0:0:0:
238,292,42838,1,0,1:0:0:0:
398,273,43008,1,8,3:0:0:0:
310,213,43179,1,8,3:0:0:0:
260,384,43349,1,4,3:0:0:0:
194,220,43520,1,4,3:0:0:0:
330,321,43690,1,4,3:0:0:0:
176,353,43860,1,4,3:0:0:0:
69,191,44031,6,0,B|55:271|97:272|74:358,1,170,6|2,1:2|0:0,0:0:0:0:
164,219,44542,1,0,0:0:0:0:
0,134,44713,2,0,P|34:109|76:101,1,85,10|0,0:0|0:0,0:0:0:0:
77,279,45054,2,0,P|35:270|0:246,1,85,2|0,1:2|0:0,0:0:0:0:
167,47,45395,6,0,B|241:53|241:53|259:62|259:62|334:68,1,170,2|2,0:0|0:0,0:0:0:0:
464,75,45906,1,0,0:0:0:0:
341,229,46076,2,0,L|335:131,1,85,10|0,0:0|0:0,0:0:0:0:
464,293,46417,1,2,0:0:0:0:
464,184,46588,1,0,0:0:0:0:
350,346,46758,6,0,P|287:338|245:293,1,127.5,6|0,1:2|0:0,0:0:0:0:
256,219,47099,2,0,L|250:121,1,85,2|0,1:2|0:0,0:0:0:0:
77,279,47440,2,0,L|82:363,1,85,10|0,0:0|0:0,0:0:0:0:
162,211,47781,1,2,1:2:0:0:
4,211,47951,1,0,0:0:0:0:
114,83,48122,6,0,P|195:72|250:133,1,170,2|2,0:0|0:0,0:0:0:0:
256,219,48633,1,0,0:0:0:0:
312,68,48804,2,0,P|350:49|392:46,1,85,10|0,0:0|0:0,0:0:0:0:
330,155,49145,2,0,P|287:151|249:133,1,85,2|0,0:0|0:0,0:0:0:0:
471,285,49485,6,0,B|495:194|457:204|478:116,1,170,6|2,1:2|0:0,0:0:0:0:
391,45,49997,1,0,0:0:0:0:
346,237,50167,2,0,P|341:194|329:154,1,85,10|0,0:0|0:0,0:0:0:0:
471,285,50508,2,0,P|459:325|454:367,1,85,2|0,1:2|0:0,0:0:0:0:
346,237,50849,5,2,0:0:0:0:
279,308,51020,1,0,0:0:0:0:
194,253,51190,1,2,0:0:0:0:
137,330,51360,1,0,0:0:0:0:
188,154,51531,2,0,P|229:159|264:183,1,85,10|0,0:0|0:0,0:0:0:0:
105,207,51872,2,0,P|89:167|92:126,1,85,2|0,0:0|0:0,0:0:0:0:
52,336,52213,6,0,L|136:329,1,85,6|0,1:2|0:0,0:0:0:0:
279,308,52554,2,0,L|363:314,1,85,2|0,1:2|0:0,0:0:0:0:
487,158,52895,1,10,0:0:0:0:
512,237,53065,1,0,0:0:0:0:
400,140,53235,1,2,1:2:0:0:
375,219,53405,1,0,0:0:0:0:
468,66,53576,6,0,P|433:46|382:44,1,85,2|0,0:0|0:0,0:0:0:0:
321,163,53917,2,0,P|356:143|407:141,1,85,2|0,0:0|0:0,0:0:0:0:
443,354,54258,2,0,L|440:269,1,85,10|0,0:0|0:0,0:0:0:0:
321,163,54599,2,0,L|323:78,1,85,2|0,1:2|0:0,0:0:0:0:
162,297,54940,6,0,P|124:317|82:321,1,85,6|0,1:2|0:0,0:0:0:0:
194,200,55281,2,0,P|229:222|255:256,1,85,2|0,0:0|0:0,0:0:0:0:
0,133,55622,2,0,P|46:64|127:54,1,170,10|2,0:0|1:2,0:0:0:0:
219,114,56133,1,0,0:0:0:0:
98,221,56304,6,0,L|92:137,1,85,2|0,0:0|0:0,0:0:0:0:
194,200,56645,1,2,0:0:0:0:
219,114,56815,1,0,0:0:0:0:
332,280,56985,1,10,0:0:0:0:
255,256,57156,1,0,0:0:0:0:
356,194,57326,1,2,0:0:0:0:
288,151,57497,1,0,0:0:0:0:
480,82,57667,6,0,L|485:169,1,85,6|0,1:2|0:0,0:0:0:0:
351,278,58008,2,0,L|355:193,1,85,2|0,1:2|0:0,0:0:0:0:
207,79,58349,2,0,P|169:59|127:54,1,85,10|0,0:0|0:0,0:0:0:0:
114,224,58690,2,0,P|155:219|193:199,1,85,2|0,1:2|0:0,0:0:0:0:
293,70,59031,5,2,0:0:0:0:
293,70,59201,2,0,P|330:50|372:45,1,85,0|2,0:0|0:0,0:0:0:0:
288,151,59542,1,0,0:0:0:0:
451,251,59713,1,10,0:0:0:0:
385,158,59883,1,0,0:0:0:0:
350,277,60054,2,0,L|346:362,1,85,2|0,0:0|0:0,0:0:0:0:
193,198,60395,5,2,1:2:0:0:
274,245,60565,1,0,0:0:0:0:
156,277,60735,1,2,1:2:0:0:
288,151,60906,1,0,0:0:0:0:
224,320,61076,1,2,1:2:0:0:
114,158,61247,1,0,0:0:0:0:
274,245,61417,1,2,1:2:0:0:
156,277,61588,1,0,0:0:0:0:
224,79,61758,6,0,P|261:59|303:52,1,85,2|0,1:2|0:0,0:0:0:0:
114,158,62099,2,0,P|72:151|34:131,1,85,2|0,1:2|0:0,0:0:0:0:
274,245,62440,2,0,L|282:329,1,85,2|0,1:2|0:0,0:0:0:0:
105,242,62781,2,0,L|113:157,1,85,2|0,1:2|0:0,0:0:0:0:
311,140,63122,5,2,1:2:0:0:
224,79,63292,1,0,0:0:0:0:
274,245,63463,1,2,1:2:0:0:
358,80,63633,1,0,0:0:0:0:
457,247,63804,2,0,L|465:162,1,85,2|0,1:2|0:0,0:0:0:0:
274,245,64145,2,0,L|282:329,1,85,2|0,1:2|0:0,0:0:0:0:
224,79,64485,5,2,1:2:0:0:
195,181,64656,1,8,3:0:0:0:
125,48,64826,1,4,3:0:0:0:
146,244,64997,1,0,1:2:0:0:
230,45,65167,1,0,1:0:0:0:
274,245,65338,1,0,1:0:0:0:
144,30,65508,1,0,1:0:0:0:
91,171,65679,1,0,1:0:0:0:
321,34,65849,6,0,P|401:50|432:126,1,170,6|0,1:2|0:0,0:0:0:0:
427,240,66360,1,0,0:0:0:0:
259,126,66531,2,0,L|344:120,1,85,10|0,0:0|0:0,0:0:0:0:
247,248,66872,1,2,1:2:0:0:
180,152,67042,1,0,0:0:0:0:
245,334,67213,6,0,P|286:327|317:299,1,85,2|0,0:0|0:0,0:0:0:0:
338,207,67554,1,2,0:0:0:0:
259,126,67724,1,0,0:0:0:0:
141,256,67895,1,10,0:0:0:0:
180,152,68065,1,0,0:0:0:0:
215,319,68235,1,2,0:0:0:0:
120,229,68406,1,0,0:0:0:0:
8,384,68576,6,0,L|11:284,1,85,6|0,1:2|0:0,0:0:0:0:
95,137,68917,2,0,L|97:221,1,85,2|0,1:2|0:0,0:0:0:0:
4,13,69258,2,0,B|97:9|58:55|166:50,1,170,10|2,0:0|1:2,0:0:0:0:
281,12,69770,1,0,0:0:0:0:
416,127,69940,6,0,L|426:28,1,85,2|0,0:0|0:0,0:0:0:0:
322,182,70281,1,2,0:0:0:0:
420,221,70451,1,0,0:0:0:0:
218,110,70622,2,0,P|229:150|236:192,1,85,10|0,0:0|0:0,0:0:0:0:
323,338,70963,2,0,P|330:296|341:255,1,85,2|0,0:0|0:0,0:0:0:0:
139,361,71304,6,0,P|54:329|40:248,1,170,6|2,1:2|0:0,0:0:0:0:
97,157,71815,1,0,0:0:0:0:
221,253,71985,2,0,L|214:337,1,85,10|0,0:0|0:0,0:0:0:0:
130,176,72326,1,2,1:2:0:0:
90,321,72497,1,0,0:0:0:0:
205,135,72667,6,0,P|172:105|134:94,1,85,2|0,0:0|0:0,0:0:0:0:
252,226,73008,1,2,0:0:0:0:
308,140,73179,1,0,0:0:0:0:
410,277,73349,1,10,0:0:0:0:
391,182,73520,1,0,0:0:0:0:
296,331,73690,1,2,0:0:0:0:
388,367,73860,1,0,0:0:0:0:
241,247,74031,6,0,L|331:244,1,85,6|0,1:2|0:0,0:0:0:0:
475,184,74372,2,0,L|385:181,1,85,2|0,1:2|0:0,0:0:0:0:
269,0,74713,2,0,P|310:4|344:29,1,85,10|0,0:0|0:0,0:0:0:0:
286,168,75054,2,0,L|282:84,1,85,2|0,1:2|0:0,0:0:0:0:
137,22,75395,5,2,0:0:0:0:
76,86,75565,1,0,0:0:0:0:
138,147,75735,1,2,0:0:0:0:
81,216,75906,1,0,0:0:0:0:
222,301,76076,1,10,0:0:0:0:
201,215,76247,1,0,0:0:0:0:
60,302,76417,1,2,0:0:0:0:
81,216,76588,1,0,0:0:0:0:
225,384,76758,6,0,B|335:375|276:335|379:324,1,170,6|2,1:2|0:0,0:0:0:0:
488,309,77270,1,0,0:0:0:0:
325,231,77440,2,0,L|322:141,1,85,10|0,0:0|0:0,0:0:0:0:
455,63,77781,1,2,1:2:0:0:
480,166,77951,1,0,0:0:0:0:
287,45,78122,6,0,L|86:38,1,170,2|2,0:0|0:0,0:0:0:0:
45,122,78633,1,0,0:0:0:0:
201,215,78804,1,10,0:0:0:0:
124,275,78974,1,0,0:0:0:0:
152,115,79145,1,2,0:0:0:0:
243,133,79315,1,0,0:0:0:0:
53,206,79485,6,0,L|44:113,1,85,6|0,1:2|0:0,0:0:0:0:
201,215,79826,2,0,L|209:299,1,85,2|0,1:2|0:0,0:0:0:0:
317,86,80167,2,0,P|352:63|394:58,1,85,10|0,0:0|0:0,0:0:0:0:
468,160,80508,1,2,1:2:0:0:
512,61,80679,1,0,0:0:0:0:
358,172,80849,6,0,P|374:255|385:339,1,170,2|2,0:0|0:0,0:0:0:0:
473,244,81360,1,0,0:0:0:0:
292,346,81531,2,0,P|228:341|170:315,2,127.5,10|0|0,0:0|0:0|0:0,0:0:0:0:
254,166,82213,6,0,L|245:275,1,85,2|0,1:2|0:0,0:0:0:0:
194,94,82554,1,2,1:2:0:0:
330,132,82724,1,0,0:0:0:0:
170,204,82895,1,2,1:2:0:0:
276,53,83065,1,0,0:0:0:0:
339,228,83235,1,2,1:2:0:0:
173,74,83406,1,0,0:0:0:0:
95,253,83576,6,0,P|58:273|16:281,1,85,2|0,1:2|0:0,0:0:0:0:
94,45,83917,2,0,P|135:52|172:73,1,85,2|0,1:2|0:0,0:0:0:0:
36,194,84258,2,0,L|28:99,1,85,2|0,1:2|0:0,0:0:0:0:
183,285,84599,2,0,L|175:369,1,85,2|0,1:2|0:0,0:0:0:0:
339,228,84940,5,2,1:2:0:0:
263,174,85110,1,0,0:0:0:0:
319,346,85281,1,2,1:2:0:0:
436,272,85451,1,0,0:0:0:0:
334,122,85622,1,2,1:2:0:0:
263,267,85792,1,0,0:0:0:0:
422,160,85963,1,2,1:2:0:0:
255,80,86133,1,0,0:0:0:0:
154,235,86304,6,0,L|144:144,1,85,0|8,1:2|3:0,0:0:0:0:
261,368,86645,1,6,3:0:0:0:
261,164,86815,1,0,1:0:0:0:
63,285,86985,1,0,1:2:0:0:
339,228,87156,1,8,3:0:0:0:
100,97,87326,1,4,3:0:0:0:
115,380,87497,1,0,1:0:0:0:
347,122,87667,6,0,P|306:88|254:79,1,106.25,6|0,1:2|0:0,0:0:0:0:
359,270,88008,2,0,P|410:260|451:227,1,106.25,2|0,0:0|0:0,0:0:0:0:
179,196,88349,2,0,L|172:313,1,106.25,10|0,0:0|0:0,0:0:0:0:
347,122,88690,2,0,L|340:15,1,106.25,2|0,1:2|0:0,0:0:0:0:
141,13,89031,6,0,P|69:23|42:162,1,212.5,2|2,0:0|0:0,0:0:0:0:
84,247,89542,1,0,0:0:0:0:
268,149,89713,2,0,P|200:108|121:108,1,159.375,10|0,0:0|0:0,0:0:0:0:
153,181,90054,2,0,P|167:232|175:284,1,106.25,2|0,0:0|0:0,0:0:0:0:
437,346,90395,6,0,L|447:181,1,159.375,6|0,1:2|0:0,0:0:0:0:
460,109,90735,2,0,P|407:102|356:88,1,106.25,2|0,1:2|0:0,0:0:0:0:
249,251,91076,2,0,P|300:236|352:230,1,106.25,10|0,0:0|0:0,0:0:0:0:
251,44,91417,2,0,P|262:95|267:148,1,106.25,2|0,1:2|0:0,0:0:0:0:
177,333,91758,6,0,P|77:310|42:214,1,212.5,2|2,0:0|0:0,0:0:0:0:
30,80,92270,1,0,0:0:0:0:
157,234,92440,2,0,P|224:204|245:119,1,159.375,10|0,0:0|0:0,0:0:0:0:
251,44,92781,2,0,P|302:58|354:64,1,106.25,2|0,0:2|0:0,0:0:0:0:
500,241,93122,5,6,1:2:0:0:
371,146,93292,2,0,P|359:197|354:250,1,106.25,0|2,0:0|0:0,0:0:0:0:
402,352,93633,1,0,0:0:0:0:
483,136,93804,2,0,P|494:187|499:240,1,106.25,10|0,0:0|0:0,0:0:0:0:
312,334,94145,2,0,L|199:327,1,106.25,2|0,1:2|0:0,0:0:0:0:
9,187,94485,6,0,B|96:185|63:239|156:233,1,159.375,2|0,0:0|0:0,0:0:0:0:
222,196,94826,2,0,P|270:174|322:167,1,106.25,2|0,0:0|0:0,0:0:0:0:
58,87,95167,1,10,0:0:0:0:
256,48,95338,1,0,0:0:0:0:
156,233,95508,1,2,0:0:0:0:
147,70,95679,1,0,0:0:0:0:
342,245,95849,6,0,L|350:72,1,159.375,6|0,1:2|0:0,0:0:0:0:
355,12,96190,2,0,P|406:15|442:53,1,106.25,2|0,1:2|0:0,0:0:0:0:
258,202,96531,2,0,L|263:95,1,106.25,10|0,0:0|0:0,0:0:0:0:
430,164,96872,2,0,L|424:270,1,106.25,2|0,1:2|0:0,0:0:0:0:
238,362,97213,6,0,B|93:365|179:298|42:306,1,212.5,2|2,0:0|0:0,0:0:0:0:
4,173,97724,1,0,0:0:0:0:
179,265,97895,2,0,P|227:243|257:201,1,106.25,10|0,0:0|0:0,0:0:0:0:
168,58,98235,2,0,L|163:164,1,106.25,2|0,0:0|0:0,0:0:0:0:
397,88,98576,6,0,P|447:72|500:68,1,106.25,6|0,1:2|0:0,0:0:0:0:
360,219,98917,2,0,P|307:214|256:199,1,106.25,0|0,0:0|0:0,0:0:0:0:
94,68,99258,2,0,P|23:97|3:172,1,159.375,10|0,0:0|0:0,0:0:0:0:
31,241,99599,2,0,P|44:292|51:344,1,106.25,2|0,1:2|0:0,0:0:0:0:
265,359,99940,6,0,L|371:363,1,106.25,2|0,0:0|0:0,0:0:0:0:
360,219,100281,2,0,L|253:223,1,106.25,2|0,0:0|0:0,0:0:0:0:
477,49,100622,1,10,0:0:0:0:
303,12,100792,1,0,0:0:0:0:
396,157,100963,1,2,0:0:0:0:
393,27,101133,1,0,0:0:0:0:
219,169,101304,6,0,L|207:48,1,106.25,6|0,1:2|0:0,0:0:0:0:
31,242,101645,2,0,L|41:136,1,106.25,2|0,1:2|0:0,0:0:0:0:
221,358,101985,2,0,P|297:356|343:294,1,159.375,10|0,0:0|0:0,0:0:0:0:
360,219,102326,2,0,P|407:195|459:186,1,106.25,2|0,1:2|0:0,0:0:0:0:
259,283,102667,6,0,B|158:284|208:239|109:242,1,159.375,2|0,0:0|0:0,0:0:0:0:
31,242,103008,2,0,L|20:136,1,106.25,2|0,0:0|0:0,0:0:0:0:
191,17,103349,2,0,P|254:30|280:125,1,159.375,10|0,0:0|0:0,0:0:0:0:
242,178,103690,2,0,P|253:229|258:282,1,106.25,2|0,0:0|0:0,0:0:0:0:
480,107,104031,6,0,L|354:87,1,106.25,2|0,1:2|0:0,0:0:0:0:
242,178,104372,2,0,L|368:198,1,106.25,2|0,1:2|0:0,0:0:0:0:
512,296,104713,2,0,L|386:276,1,106.25,2|0,1:2|0:0,0:0:0:0:
274,367,105054,2,0,L|400:387,1,106.25,2|0,1:2|0:0,0:0:0:0:
232,199,105395,5,2,1:2:0:0:
199,315,105565,1,0,0:0:0:0:
336,186,105735,1,2,1:2:0:0:
183,120,105906,1,0,0:0:0:0:
319,296,106076,1,2,1:2:0:0:
349,93,106247,1,0,0:0:0:0:
183,330,106417,1,2,1:2:0:0:
176,87,106588,1,0,0:0:0:0:
79,277,106758,6,0,P|90:328|95:381,1,106.25,2|0,1:2|0:0,0:0:0:0:
203,193,107099,2,0,P|191:244|186:297,1,106.25,2|0,1:2|0:0,0:0:0:0:
72,84,107439,2,0,P|83:135|88:188,1,106.25,2|0,1:2|0:0,0:0:0:0:
200,15,107781,2,0,P|188:66|183:119,1,106.25,2|0,1:2|0:0,0:0:0:0:
332,297,108122,5,2,1:2:0:0:
348,85,108292,1,8,3:0:0:0:
158,291,108463,1,4,3:0:0:0:
415,248,108633,1,4,3:0:0:0:
168,100,108804,1,0,1:0:0:0:
269,384,108974,1,8,3:0:0:0:
450,96,109145,1,4,3:0:0:0:
100,146,109315,1,4,3:0:0:0:
414,341,109485,6,0,P|473:321|503:266,1,127.5,6|0,1:2|0:0,0:0:0:0:
511,195,109826,2,0,P|468:189|427:181,1,85,0|0,0:0|0:0,0:0:0:0:
328,267,110167,1,10,0:0:0:0:
254,201,110338,2,0,P|287:175|329:168,1,85,0|2,0:0|1:2,0:0:0:0:
242,338,110679,1,0,0:0:0:0:
216,340,110764,1,0,0:0:0:0:
190,342,110849,1,2,0:0:0:0:
68,317,111020,2,0,P|62:337|59:358,1,42.5,0|0,0:0|0:0,0:0:0:0:
150,235,111190,6,0,P|116:209|74:202,1,85,2|0,0:0|0:0,0:0:0:0:
0,70,111531,2,0,L|107:53,1,85,10|0,0:0|0:0,0:0:0:0:
226,29,111872,1,2,0:0:0:0:
206,144,112042,1,0,0:0:0:0:
342,32,112213,6,0,L|346:127,1,85,6|0,1:2|0:0,0:0:0:0:
356,242,112554,1,2,1:2:0:0:
450,161,112724,1,0,0:0:0:0:
362,347,112895,2,0,P|411:335|439:305,1,85,10|0,0:0|0:0,0:0:0:0:
482,236,113235,1,2,1:2:0:0:
331,239,113406,5,0,0:0:0:0:
305,235,113491,1,0,0:0:0:0:
280,230,113576,1,2,0:0:0:0:
192,356,113747,1,0,0:0:0:0:
218,352,113832,1,0,0:0:0:0:
242,344,113917,2,0,L|285:333,1,42.5,2|0,0:0|0:0,0:0:0:0:
182,233,114088,1,0,0:0:0:0:
74,362,114258,2,0,L|69:229,1,127.5,10|0,0:0|0:0,0:0:0:0:
66,156,114599,2,0,P|111:111|161:118,1,85,2|0,0:0|0:0,0:0:0:0:
279,194,114940,6,0,B|360:192|325:159|410:151,1,127.5,6|0,1:2|0:0,0:0:0:0:
429,144,115281,1,2,0:0:0:0:
344,41,115451,1,0,0:0:0:0:
279,194,115622,2,0,P|274:252|300:319,1,127.5,10|0,0:0|0:0,0:0:0:0:
328,353,115963,2,0,L|214:359,1,85,2|0,1:2|0:0,0:0:0:0:
197,234,116304,6,0,B|204:172|176:174|185:108,1,127.5,2|0,0:0|0:0,0:0:0:0:
200,66,116645,1,2,0:0:0:0:
118,240,116815,1,0,0:0:0:0:
92,240,116900,1,0,0:0:0:0:
65,241,116985,2,0,P|11:212|8:151,1,127.5,10|0,0:0|0:0,0:0:0:0:
44,77,117326,2,0,P|83:93|125:97,1,85,2|0,0:0|0:0,0:0:0:0:
317,36,117667,6,0,P|258:55|240:113,1,127.5,6|0,1:2|0:0,0:0:0:0:
233,150,118008,2,0,P|250:190|258:231,1,85,2|0,1:2|0:0,0:0:0:0:
241,362,118349,2,0,P|293:325|356:314,1,127.5,10|0,0:0|0:0,0:0:0:0:
398,314,118690,2,0,L|401:221,1,85,2|0,1:2|0:0,0:0:0:0:
504,54,119031,6,0,L|506:138,1,85,2|0,0:0|0:0,0:0:0:0:
362,32,119372,2,0,P|301:14|262:32,1,85,2|0,0:0|0:0,0:0:0:0:
120,65,119713,1,10,0:0:0:0:
241,143,119883,1,0,0:0:0:0:
124,257,120054,2,0,L|117:172,1,85,2|0,0:0|0:0,0:0:0:0:
333,359,120395,6,0,L|460:353,1,127.5,6|0,1:2|0:0,0:0:0:0:
495,312,120735,2,0,P|482:272|447:251,1,85,2|0,0:0|0:0,0:0:0:0:
304,241,121076,1,10,0:0:0:0:
401,140,121247,1,0,0:0:0:0:
234,151,121417,2,0,L|240:66,1,85,2|0,1:2|0:0,0:0:0:0:
160,295,121758,6,0,B|78:293|107:261|38:263,1,127.5,2|0,0:0|0:0,0:0:0:0:
0,197,122099,2,0,P|23:162|63:147,1,85,2|0,0:0|0:0,0:0:0:0:
204,231,122440,2,0,P|266:220|328:203,1,127.5,10|0,0:0|0:0,0:0:0:0:
350,162,122781,2,0,P|392:166|433:178,1,85,2|0,0:0|0:0,0:0:0:0:
465,192,123037,1,0,0:0:0:0:
465,192,123122,6,0,L|476:286,1,85,6|0,1:2|0:0,0:0:0:0:
508,84,123463,2,0,P|467:71|425:75,1,85,2|0,1:2|0:0,0:0:0:0:
283,207,123804,2,0,P|325:210|365:197,1,85,10|0,0:0|0:0,0:0:0:0:
161,159,124145,1,2,1:2:0:0:
240,290,124315,1,0,0:0:0:0:
301,117,124485,6,0,P|302:69|305:27,1,85,2|0,0:0|0:0,0:0:0:0:
191,196,124826,1,2,0:0:0:0:
191,196,124997,1,0,0:0:0:0:
350,108,125168,2,0,P|392:103|434:101,1,85,10|0,0:0|0:0,0:0:0:0:
483,267,125508,2,0,P|440:266|383:257,1,85,2|0,0:0|0:0,0:0:0:0:
191,186,125849,6,0,L|189:87,1,85,2|0,1:2|0:0,0:0:0:0:
381,55,126190,2,0,L|379:139,1,85,2|0,1:2|0:0,0:0:0:0:
173,77,126531,1,2,1:2:0:0:
298,1,126701,1,0,0:0:0:0:
226,173,126872,1,2,1:2:0:0:
119,38,127042,1,0,0:0:0:0:
14,188,127213,6,0,P|52:169|93:163,1,85,2|0,1:2|0:0,0:0:0:0:
134,188,127468,1,0,0:0:0:0:
134,188,127554,1,2,1:2:0:0:
73,329,127724,1,0,0:0:0:0:
65,304,127809,1,0,0:0:0:0:
59,278,127895,1,2,1:2:0:0:
222,187,128065,2,0,P|221:208|220:229,1,42.5,0|0,0:0|0:0,0:0:0:0:
317,351,128235,2,0,P|358:345|396:326,1,85,2|0,1:2|0:0,0:0:0:0:
459,164,128576,5,2,1:2:0:0:
317,249,128747,1,0,0:0:0:0:
315,223,128832,1,0,0:0:0:0:
312,197,128917,1,2,1:2:0:0:
376,76,129088,1,0,0:0:0:0:
378,102,129173,1,0,0:0:0:0:
381,128,129258,1,2,1:2:0:0:
230,56,129429,2,0,P|210:46|190:41,1,42.5,0|0,0:0|0:0,0:0:0:0:
91,148,129599,2,0,L|176:140,1,85,2|0,1:2|0:0,0:0:0:0:
78,256,129940,5,2,1:2:0:0:
29,93,130110,1,8,3:0:0:0:
217,233,130281,1,6,3:0:0:0:
26,190,130451,1,4,3:0:0:0:
203,67,130622,1,0,1:0:0:0:
161,317,130792,1,0,1:0:0:0:
112,51,130963,1,0,1:0:0:0:
381,128,131133,1,0,1:0:0:0:
136,203,131304,6,0,B|233:209|202:253|292:261,1,170,6|0,1:2|0:0,0:0:0:0:
455,201,131815,1,0,0:0:0:0:
455,201,131900,1,0,0:0:0:0:
455,201,131985,2,0,L|461:285,1,85,10|0,0:0|0:0,0:0:0:0:
292,261,132326,2,0,L|298:176,1,85,2|0,1:2|0:0,0:0:0:0:
183,344,132667,6,0,P|115:358|92:357,1,85,2|0,0:0|0:0,0:0:0:0:
15,241,133008,2,0,P|83:227|106:228,1,85,2|0,0:0|0:0,0:0:0:0:
247,153,133349,2,0,P|261:85|260:62,1,85,10|0,0:0|0:0,0:0:0:0:
104,22,133690,2,0,L|13:13,1,85,2|0,0:0|0:0,0:0:0:0:
162,162,134031,6,0,L|246:153,1,85,6|0,1:2|0:0,0:0:0:0:
397,49,134372,2,0,P|336:59|306:89,1,85,2|0,1:2|0:0,0:0:0:0:
256,207,134713,2,0,P|264:249|270:291,1,85,10|0,0:0|0:0,0:0:0:0:
452,384,135054,2,0,P|455:341|461:299,1,85,2|0,1:2|0:0,0:0:0:0:
313,355,135395,6,0,P|209:366|172:316,1,170,2|2,0:0|0:0,0:0:0:0:
129,189,135906,1,0,0:0:0:0:
291,258,136076,2,0,L|380:248,1,85,10|0,0:0|0:0,0:0:0:0:
224,176,136417,2,0,L|109:163,1,85,2|0,0:0|0:0,0:0:0:0:
5,22,136758,6,0,P|49:18|117:80,1,127.5,6|0,1:2|0:0,0:0:0:0:
140,96,137099,2,0,P|196:112|274:88,1,127.5,2|0,0:0|0:0,0:0:0:0:
303,77,137440,1,10,0:0:0:0:
411,186,137610,2,0,L|403:270,1,85,0|2,0:0|1:2,0:0:0:0:
337,384,137951,1,0,0:0:0:0:
235,253,138122,6,0,L|324:240,1,85,2|0,0:0|0:0,0:0:0:0:
177,358,138463,2,0,P|134:358|97:338,1,85,2|0,0:0|0:0,0:0:0:0:
68,188,138804,2,0,B|156:171|138:222|234:200,1,170,10|2,0:0|0:0,0:0:0:0:
383,114,139315,2,0,P|400:101|420:94,1,42.5,0|0,0:0|0:0,0:0:0:0:
207,30,139485,6,0,L|79:20,1,127.5,6|0,1:2|0:0,0:0:0:0:
34,24,139826,2,0,P|46:79|52:135,1,85,2|0,1:2|0:0,0:0:0:0:
178,191,140167,2,0,P|184:149|194:107,1,85,10|0,0:0|0:0,0:0:0:0:
120,327,140508,2,0,P|87:273|48:253,1,85,2|0,1:2|0:0,0:0:0:0:
33,338,140849,6,0,L|209:333,1,170,2|2,0:0|0:0,0:0:0:0:
301,261,141360,1,0,0:0:0:0:
428,357,141531,2,0,L|434:267,1,85,10|0,0:0|0:0,0:0:0:0:
273,183,141872,2,0,L|278:267,1,85,2|0,0:0|0:0,0:0:0:0:
332,38,142213,6,0,B|236:41|279:92|144:91,1,170,6|2,1:2|0:0,0:0:0:0:
77,47,142724,1,0,0:0:0:0:
42,231,142895,2,0,P|83:184|145:177,1,127.5,10|0,0:0|0:0,0:0:0:0:
189,196,143235,2,0,L|272:182,1,85,2|0,1:2|0:0,0:0:0:0:
305,150,143491,1,0,0:0:0:0:
305,150,143576,5,2,0:0:0:0:
360,261,143747,1,0,0:0:0:0:
424,114,143917,1,2,0:0:0:0:
265,265,144088,1,0,0:0:0:0:
453,339,144258,2,0,L|458:240,1,85,10|0,0:0|0:0,0:0:0:0:
434,143,144599,1,2,0:0:0:0:
360,261,144770,1,0,0:0:0:0:
363,56,144940,6,0,P|398:32|439:26,1,85,6|0,1:2|0:0,0:0:0:0:
272,182,145281,2,0,P|230:175|195:152,1,85,2|0,1:2|0:0,0:0:0:0:
89,54,145622,2,0,L|94:198,1,127.5,10|0,0:0|0:0,0:0:0:0:
73,219,145963,1,2,1:2:0:0:
173,73,146133,1,0,0:0:0:0:
272,182,146304,6,0,L|276:280,1,85,2|0,0:0|0:0,0:0:0:0:
221,353,146645,1,2,0:0:0:0:
167,258,146815,1,0,0:0:0:0:
360,350,146985,2,0,P|421:356|464:311,1,127.5,10|0,0:0|0:0,0:0:0:0:
479,266,147326,2,0,L|472:181,1,85,2|0,0:0|0:0,0:0:0:0:
346,33,147667,6,0,P|393:54|444:58,1,85,2|0,1:2|0:0,0:0:0:0:
300,193,148008,2,0,P|338:174|379:167,1,85,2|0,1:2|0:0,0:0:0:0:
156,50,148349,2,0,P|203:71|254:75,1,85,2|0,1:2|0:0,0:0:0:0:
110,210,148690,2,0,P|148:191|189:184,1,85,2|0,1:2|0:0,0:0:0:0:
46,352,149031,6,0,L|41:248,1,85,2|0,1:2|0:0,0:0:0:0:
185,269,149372,2,0,L|190:165,1,85,2|0,1:2|0:0,0:0:0:0:
340,348,149713,2,0,L|335:244,1,85,2|0,1:2|0:0,0:0:0:0:
482,271,150054,2,0,L|487:167,1,85,2|0,1:2|0:0,0:0:0:0:
380,63,150395,5,2,1:2:0:0:
325,185,150565,1,0,0:0:0:0:
456,108,150735,1,2,1:2:0:0:
288,76,150906,1,0,0:0:0:0:
395,264,151076,1,2,1:2:0:0:
380,63,151247,1,0,0:0:0:0:
239,261,151417,5,2,1:2:0:0:
431,194,151588,1,0,0:0:0:0:
199,102,151758,1,2,1:2:0:0:
239,261,151929,1,8,3:0:0:0:
325,185,152099,1,0,0:0:0:0:
84,348,152610,1,0,0:0:0:0:
84,348,152781,2,0,P|83:308|79:264,1,82.8749962062838,0|0,0:0|0:0,0:0:0:0:
56,177,153122,6,0,P|106:192|159:199,1,106.25,6|0,1:2|0:0,0:0:0:0:
276,19,153463,2,0,P|223:25|172:41,1,106.25,2|0,0:0|0:0,0:0:0:0:
413,129,153804,2,0,L|417:8,1,106.25,10|0,0:0|0:0,0:0:0:0:
245,149,154145,2,0,L|248:255,1,106.25,2|0,1:2|0:0,0:0:0:0:
502,322,154485,6,0,P|439:241|337:247,1,212.5,2|2,0:0|0:0,0:0:0:0:
247,349,154997,1,0,0:0:0:0:
58,217,155167,2,0,B|154:210|107:175|203:160,1,159.375,10|0,0:0|0:0,0:0:0:0:
245,149,155508,2,0,P|296:159|349:152,1,106.25,2|0,0:0|0:0,0:0:0:0:
46,11,155849,6,0,P|64:88|70:167,1,159.375,6|0,1:2|0:0,0:0:0:0:
58,217,156190,2,0,P|45:268|38:321,1,106.25,2|0,1:2|0:0,0:0:0:0:
245,149,156531,2,0,P|237:96|225:44,1,106.25,10|0,0:0|0:0,0:0:0:0:
161,310,156872,2,0,P|202:277|253:262,1,106.25,2|0,1:2|0:0,0:0:0:0:
479,343,157213,6,0,P|379:325|343:229,1,212.5,2|2,0:0|0:0,0:0:0:0:
437,139,157724,1,0,0:0:0:0:
225,44,157895,2,0,L|66:56,1,159.375,10|0,0:0|0:0,0:0:0:0:
38,112,158235,2,0,P|49:163|57:216,1,106.25,2|0,0:0|0:0,0:0:0:0:
69,370,158576,6,0,P|125:313|206:308,1,159.375,6|0,1:2|0:0,0:0:0:0:
238,341,158917,1,2,0:0:0:0:
278,184,159088,1,0,0:0:0:0:
460,296,159258,2,0,L|342:287,1,106.25,10|0,0:0|0:0,0:0:0:0:
172,192,159599,2,0,L|290:183,1,106.25,2|0,1:2|0:0,0:0:0:0:
471,54,159940,6,0,P|403:19|342:65,1,159.375,2|0,0:0|0:0,0:0:0:0:
280,102,160281,2,0,P|227:97|175:83,1,106.25,2|0,0:0|0:0,0:0:0:0:
76,257,160622,1,10,0:0:0:0:
277,183,160792,1,0,0:0:0:0:
82,87,160963,1,2,0:0:0:0:
193,304,161133,1,0,0:0:0:0:
416,116,161304,6,0,L|421:285,1,159.375,6|0,1:2|0:0,0:0:0:0:
398,350,161645,2,0,P|352:323|300:314,1,106.25,2|0,1:2|0:0,0:0:0:0:
76,257,161985,2,0,P|128:247|173:221,1,106.25,10|0,0:0|0:0,0:0:0:0:
31,33,162326,2,0,L|25:155,1,106.25,2|0,1:2|0:0,0:0:0:0:
263,59,162667,6,0,P|207:41|153:41,1,106.25,2|0,0:0|0:0,0:0:0:0:
357,223,163008,2,0,P|413:205|467:205,1,106.25,2|0,0:0|0:0,0:0:0:0:
198,340,163349,2,0,P|123:357|66:306,1,159.375,10|0,0:0|0:0,0:0:0:0:
76,257,163690,2,0,P|87:205|92:152,1,106.25,2|0,0:0|0:0,0:0:0:0:
263,59,164031,6,0,P|268:111|279:163,1,106.25,6|0,1:2|0:0,0:0:0:0:
334,328,164372,1,0,0:0:0:0:
385,135,164542,1,0,0:0:0:0:
198,340,164713,2,0,B|219:232|161:251|171:132,1,212.5,10|2,0:0|1:2,0:0:0:0:
279,28,165224,1,0,0:0:0:0:
490,149,165395,6,0,L|384:134,1,106.25,2|0,0:0|0:0,0:0:0:0:
334,328,165735,2,0,L|439:313,1,106.25,2|0,0:0|0:0,0:0:0:0:
259,114,166076,2,0,P|266:166|270:219,1,106.25,10|0,0:0|0:0,0:0:0:0:
87,355,166417,2,0,P|91:302|98:249,1,106.25,2|0,0:0|0:0,0:0:0:0:
182,43,166758,6,0,P|123:66|70:73,1,106.25,6|0,1:2|0:0,0:0:0:0:
270,219,167099,2,0,P|221:198|168:189,1,106.25,2|0,1:2|0:0,0:0:0:0:
380,41,167440,2,0,P|455:38|490:105,1,159.375,10|0,0:0|0:0,0:0:0:0:
490,149,167781,2,0,P|475:200|466:252,1,106.25,2|0,1:2|0:0,0:0:0:0:
266,52,168122,6,0,P|284:125|292:218,1,159.375,2|0,0:0|0:0,0:0:0:0:
270,219,168463,2,0,P|221:198|168:189,1,106.25,2|0,0:0|0:0,0:0:0:0:
44,347,168804,2,0,P|108:300|186:288,1,159.375,10|0,0:0|0:0,0:0:0:0:
232,311,169145,2,0,P|280:331|333:340,1,106.25,2|0,0:0|0:0,0:0:0:0:
395,139,169485,5,2,1:2:0:0:
270,219,169656,1,0,0:0:0:0:
429,272,169826,1,2,1:2:0:0:
308,108,169997,1,0,0:0:0:0:
232,311,170167,1,2,1:2:0:0:
412,162,170338,1,0,0:0:0:0:
195,91,170508,1,2,1:2:0:0:
333,340,170679,1,0,0:0:0:0:
488,101,170849,6,0,L|499:222,1,106.25,2|0,1:2|0:0,0:0:0:0:
305,25,171190,2,0,L|294:146,1,106.25,2|0,1:2|0:0,0:0:0:0:
147,100,171531,2,0,L|156:205,1,106.25,2|0,1:2|0:0,0:0:0:0:
13,13,171872,2,0,L|3:118,1,106.25,2|0,1:2|0:0,0:0:0:0:
125,285,172213,5,2,1:2:0:0:
147,100,172383,1,0,0:0:0:0:
15,231,172554,1,2,1:2:0:0:
201,241,172724,1,0,0:0:0:0:
25,113,172895,1,2,1:2:0:0:
26,346,173065,1,0,0:0:0:0:
234,151,173235,1,2,1:2:0:0:
15,231,173406,1,0,0:0:0:0:
301,308,173576,5,2,1:2:0:0:
66,318,173747,1,8,3:0:0:0:
255,154,173917,1,4,3:0:0:0:
186,350,174088,1,4,3:0:0:0:
153,99,174258,1,0,1:0:0:0:
373,211,174429,1,8,3:0:0:0:
120,267,174599,1,4,3:0:0:0:
267,49,174770,1,4,3:0:0:0:
476,263,174940,6,0,L|486:172,1,85,6|0,1:2|0:0,0:0:0:0:
416,72,175281,1,2,0:0:0:0:
385,218,175451,1,0,0:0:0:0:
258,44,175622,2,0,P|175:45|124:109,1,170,10|2,0:0|1:2,0:0:0:0:
164,229,176133,1,0,0:0:0:0:
307,134,176304,6,0,P|295:175|287:217,1,85,2|0,0:0|0:0,0:0:0:0:
255,329,176645,1,2,0:0:0:0:
192,240,176815,1,0,0:0:0:0:
77,377,176985,2,0,P|88:336|96:294,1,85,10|0,0:0|0:0,0:0:0:0:
172,157,177326,2,0,P|179:198|191:239,1,85,2|0,0:0|0:0,0:0:0:0:
349,351,177667,6,0,P|390:351|424:327,1,85,6|0,1:2|0:0,0:0:0:0:
290,189,178008,1,2,1:2:0:0:
255,329,178179,1,0,0:0:0:0:
378,152,178349,2,0,P|334:106|272:97,1,127.5,10|0,0:0|0:0,0:0:0:0:
250,126,178690,2,0,P|212:146|171:156,1,85,2|0,1:2|0:0,0:0:0:0:
54,2,179031,6,0,P|95:12|132:32,1,85,2|0,0:0|0:0,0:0:0:0:
115,210,179372,1,2,0:0:0:0:
63,94,179542,1,0,0:0:0:0:
244,210,179713,2,0,L|250:110,1,85,10|0,0:0|0:0,0:0:0:0:
94,308,180054,2,0,L|88:208,1,85,2|0,0:0|0:0,0:0:0:0:
268,348,180395,6,0,P|310:347|349:332,1,85,6|0,1:2|0:0,0:0:0:0:
244,210,180735,1,2,0:0:0:0:
186,330,180906,1,0,0:0:0:0:
338,162,181076,2,0,L|347:257,1,85,10|0,0:0|0:0,0:0:0:0:
203,84,181417,1,2,1:2:0:0:
324,22,181588,1,0,0:0:0:0:
244,210,181758,6,0,L|146:197,1,85,2|0,0:0|0:0,0:0:0:0:
36,179,182099,1,2,0:0:0:0:
120,80,182270,1,0,0:0:0:0:
167,283,182440,2,0,L|158:198,1,85,10|0,0:0|0:0,0:0:0:0:
218,57,182781,1,2,0:0:0:0:
338,162,182951,1,0,0:0:0:0:
477,18,183122,6,0,L|387:8,1,85,6|0,1:2|0:0,0:0:0:0:
338,162,183463,1,2,1:2:0:0:
290,22,183633,1,0,0:0:0:0:
455,127,183804,2,0,L|448:219,1,85,10|0,0:0|0:0,0:0:0:0:
306,330,184145,2,0,L|299:245,1,85,2|0,1:2|0:0,0:0:0:0:
161,147,184485,5,2,0:0:0:0:
285,99,184656,1,0,0:0:0:0:
190,240,184826,1,2,0:0:0:0:
299,245,184997,1,0,0:0:0:0:
124,65,185167,1,10,0:0:0:0:
84,199,185338,1,0,0:0:0:0:
209,46,185508,2,0,P|247:28|289:21,1,85,2|0,0:0|0:0,0:0:0:0:
450,152,185849,6,0,P|436:236|430:321,1,170,6|2,1:2|0:0,0:0:0:0:
346,175,186360,1,0,0:0:0:0:
240,340,186531,2,0,B|142:331|186:296|75:292,1,170,10|2,0:0|1:2,0:0:0:0:
213,218,187042,1,0,0:0:0:0:
61,130,187213,5,2,0:0:0:0:
40,226,187383,1,0,0:0:0:0:
136,98,187554,1,2,0:0:0:0:
143,191,187724,1,0,0:0:0:0:
253,41,187895,2,0,P|335:32|392:91,1,170,10|2,0:0|0:0,0:0:0:0:
301,127,188406,1,0,0:0:0:0:
459,204,188576,6,0,L|361:192,1,85,6|0,1:2|0:0,0:0:0:0:
278,340,188917,2,0,L|376:328,1,85,2|0,1:2|0:0,0:0:0:0:
182,202,189258,1,10,0:0:0:0:
286,142,189429,1,0,0:0:0:0:
180,287,189599,1,2,1:2:0:0:
111,149,189770,1,0,0:0:0:0:
42,325,189940,6,0,P|58:275|63:239,1,85,2|0,0:0|0:0,0:0:0:0:
90,66,190281,2,0,P|96:107|110:148,1,85,2|0,0:0|0:0,0:0:0:0:
326,55,190622,2,0,P|245:28|160:25,1,170,10|2,0:0|0:0,0:0:0:0:
110,148,191133,1,0,0:0:0:0:
299,233,191304,6,0,L|302:140,1,85,2|0,1:2|0:0,0:0:0:0:
175,301,191645,2,0,L|172:208,1,85,2|0,1:2|0:0,0:0:0:0:
401,296,191985,2,0,L|398:203,1,85,2|0,1:2|0:0,0:0:0:0:
251,384,192326,2,0,L|254:291,1,85,2|0,1:2|0:0,0:0:0:0:
386,47,192667,6,0,P|424:29|466:21,1,85,2|0,1:2|0:0,0:0:0:0:
301,148,193008,2,0,P|339:165|381:173,1,85,2|0,1:2|0:0,0:0:0:0:
172,61,193349,2,0,P|210:43|252:35,1,85,2|0,1:2|0:0,0:0:0:0:
87,162,193690,2,0,P|125:179|167:187,1,85,2|0,1:2|0:0,0:0:0:0:
7,23,194031,6,0,P|18:73|22:116,1,85,2|0,1:2|0:0,0:0:0:0:
181,104,194372,2,0,P|170:154|166:197,1,85,2|0,1:2|0:0,0:0:0:0:
331,18,194713,2,0,P|342:68|346:111,1,85,2|0,1:2|0:0,0:0:0:0:
505,99,195054,2,0,P|494:149|490:192,1,85,2|0,1:2|0:0,0:0:0:0:
355,312,195395,5,2,1:2:0:0:
374,193,195565,1,8,3:0:0:0:
442,360,195735,1,4,3:0:0:0:
275,251,195906,1,0,1:0:0:0:
474,223,196076,1,0,1:0:0:0:
273,360,196247,1,0,1:0:0:0:
319,132,196417,1,0,1:0:0:0:
418,270,196588,1,0,1:0:0:0:
105,350,197440,6,0,B|112:281|83:286|85:225,1,127.5,8|0,0:0|0:0,0:0:0:0:
57,150,197781,2,0,P|99:145|139:133,1,85,0|0,1:0|0:0,0:0:0:0:
307,46,198122,5,2,0:0:0:0:
199,25,198292,1,0,0:0:0:0:
269,179,198463,1,2,0:0:0:0:
189,114,198633,1,0,0:0:0:0:
194,313,198804,2,0,P|261:263|345:256,1,170,10|2,0:0|0:0,0:0:0:0:
456,317,199315,1,0,0:0:0:0:
483,153,199485,6,0,L|496:253,1,85,6|0,1:2|0:0,0:0:0:0:
365,85,199826,2,0,L|352:185,1,85,2|0,1:2|0:0,0:0:0:0:
172,34,200167,1,10,0:0:0:0:
129,149,200338,1,0,0:0:0:0:
255,16,200508,1,2,1:2:0:0:
274,114,200679,1,0,0:0:0:0:
87,28,200849,6,0,P|21:79|9:161,1,170,2|2,0:0|0:0,0:0:0:0:
64,255,201360,1,0,0:0:0:0:
154,132,201531,2,0,P|168:185|174:221,1,85,10|0,0:0|0:0,0:0:0:0:
317,194,201872,2,0,P|303:247|297:283,1,85,2|0,0:0|0:0,0:0:0:0:
323,313,202127,1,0,0:0:0:0:
322,313,202213,6,0,P|362:298|404:291,1,85,6|0,1:2|0:0,0:0:0:0:
508,301,202554,1,2,0:0:0:0:
391,215,202724,1,0,0:0:0:0:
503,88,202895,2,0,L|514:187,1,85,10|0,0:0|0:0,0:0:0:0:
319,115,203235,2,0,L|328:30,1,85,2|0,1:2|0:0,0:0:0:0:
262,292,203576,5,2,0:0:0:0:
188,162,203747,1,0,0:0:0:0:
349,237,203917,1,2,0:0:0:0:
192,248,204088,1,0,0:0:0:0:
319,115,204258,2,0,P|280:98|238:92,1,85,10|0,0:0|0:0,0:0:0:0:
111,270,204599,2,0,P|149:253|191:247,1,85,2|0,0:0|0:0,0:0:0:0:
48,121,204940,6,0,L|38:27,1,85,6|0,1:2|0:0,0:0:0:0:
229,177,205281,2,0,L|239:83,1,85,2|0,1:2|0:0,0:0:0:0:
445,208,205622,1,10,0:0:0:0:
396,95,205792,1,0,0:0:0:0:
311,257,205963,1,2,1:2:0:0:
319,115,206133,1,0,0:0:0:0:
380,324,206304,6,0,P|308:279|224:280,1,170,2|2,0:0|0:0,0:0:0:0:
148,349,206815,1,0,0:0:0:0:
19,229,206985,2,0,P|29:270|36:312,1,85,10|0,0:0|0:0,0:0:0:0:
155,147,207326,2,0,P|144:188|137:230,1,85,2|0,0:0|0:0,0:0:0:0:
1,0,207667,5,6,1:2:0:0:
3,85,207838,2,0,B|80:76|48:50|120:41,1,127.5,0|0,0:0|0:0,0:0:0:0:
159,33,208179,1,0,0:0:0:0:
290,170,208349,2,0,P|355:160|389:61,1,170,8|2,0:0|1:2,0:0:0:0:
297,78,208860,1,0,0:0:0:0:
450,239,209031,5,2,0:0:0:0:
474,135,209201,1,0,0:0:0:0:
374,266,209372,1,2,0:0:0:0:
363,157,209542,1,0,0:0:0:0:
206,324,209713,2,0,B|110:320|149:280|44:280,1,170,10|2,0:0|0:0,0:0:0:0:
148,187,210224,1,0,0:0:0:0:
15,85,210395,6,0,P|28:126|36:168,1,85,6|0,1:2|0:0,0:0:0:0:
216,28,210735,2,0,P|203:68|195:110,1,85,2|0,1:2|0:0,0:0:0:0:
374,266,211076,1,10,0:0:0:0:
363,157,211247,1,0,0:0:0:0:
317,335,211417,1,2,1:2:0:0:
460,281,211588,1,0,0:0:0:0:
261,250,211758,6,0,P|271:196|279:82,1,170,2|2,0:0|0:0,0:0:0:0:
374,266,212270,1,0,0:0:0:0:
184,365,212440,2,0,P|104:364|68:291,1,170,10|2,0:0|0:0,0:0:0:0:
92,163,212951,1,0,0:0:0:0:
275,248,213122,6,0,L|284:139,1,85,2|0,1:2|0:0,0:0:0:0:
335,320,213463,1,2,1:2:0:0:
199,282,213633,1,0,0:0:0:0:
359,210,213804,1,2,1:2:0:0:
253,361,213974,1,0,0:0:0:0:
190,186,214144,1,2,1:2:0:0:
356,340,214315,1,0,0:0:0:0:
434,161,214485,6,0,P|471:141|513:133,1,85,2|0,1:2|0:0,0:0:0:0:
435,369,214826,2,0,P|394:362|357:341,1,85,2|0,1:2|0:0,0:0:0:0:
493,220,215167,2,0,L|501:315,1,85,2|0,1:2|0:0,0:0:0:0:
346,129,215508,2,0,L|354:45,1,85,2|0,1:2|0:0,0:0:0:0:
190,186,215849,5,2,1:2:0:0:
266,240,216019,1,0,0:0:0:0:
210,68,216190,1,2,1:2:0:0:
93,142,216360,1,0,0:0:0:0:
195,292,216531,1,2,1:2:0:0:
266,147,216701,1,0,0:0:0:0:
107,254,216872,1,2,1:2:0:0:
274,334,217042,1,0,0:0:0:0:
375,179,217213,6,0,L|385:270,1,85,0|8,1:2|3:0,0:0:0:0:
268,46,217554,1,4,3:0:0:0:
268,250,217724,1,0,1:0:0:0:
466,129,217894,1,0,1:0:0:0:
190,186,218065,1,8,3:0:0:0:
429,317,218235,1,4,3:0:0:0:
414,34,218406,1,0,1:0:0:0:
308,262,218576,5,4,1:2:0:0:
