osu file format v14

[General]
AudioFilename: audio.mp3
AudioLeadIn: 0
PreviewTime: 87582
Countdown: 0
SampleSet: Soft
StackLeniency: 0.7
Mode: 0
LetterboxInBreaks: 0
WidescreenStoryboard: 0

[Editor]
DistanceSpacing: 0.9
BeatDivisor: 4
GridSize: 16
TimelineZoom: 1

[Metadata]
Title:Mloda krew
TitleUnicode:Młoda krew
Artist:ZBUKU feat. Sliwa, Sztoss
ArtistUnicode:ZBUKU feat. Śliwa, Sztoss
Creator:Nikakis
Version:Normal
Source:
Tags:Hip-Hop Rap Polish Z.B.U.K.U Życie Szalonym Życiem browiec Reform Kujinn Onlybiscuit brotarks
BeatmapID:2083424
BeatmapSetID:996024

[Difficulty]
HPDrainRate:4
CircleSize:3.5
OverallDifficulty:4
ApproachRate:5.5
SliderMultiplier:1.1
SliderTickRate:1

[Events]
//Background and Video events
0,0,"bg.jpg",0,0
//Break Periods
//Storyboard Layer 0 (Background)
//Storyboard Layer 1 (Fail)
//Storyboard Layer 2 (Pass)
//Storyboard Layer 3 (Foreground)
//Storyboard Sound Samples

[TimingPoints]
395,340.909090909091,4,2,1,65,1,0
38576,-100,4,2,1,65,0,0
44032,-100,4,2,1,65,0,0
87667,-100,4,2,1,85,0,1
109485,-100,4,2,1,65,0,0
152099,-100,4,2,1,65,0,0
152781,-100,4,2,1,65,0,0
153122,-100,4,2,1,85,0,1
174940,-100,4,2,1,65,0,0

[Colours]
Combo1 : 0,97,193
Combo2 : 129,129,192
Combo3 : 255,176,98
Combo4 : 128,64,64

[HitObjects]
119,40,38576,5,0,1:0:0:0:
195,105,38917,1,0,1:0:0:0:
297,84,39258,2,0,P|350:70|403:85,1,110,0|0,1:0|1:0,0:0:0:0:
467,162,39939,1,0,1:0:0:0:
456,261,40280,1,0,1:0:0:0:
367,305,40622,2,0,P|314:319|262:305,1,110,0|0,1:0|1:0,0:0:0:0:
208,223,41303,5,0,1:0:0:0:
238,129,41644,1,0,1:0:0:0:
176,52,41986,2,0,L|67:61,1,110,0|0,1:0|1:0,0:0:0:0:
28,152,42667,6,0,L|21:213,2,55,0|0|8,1:0|1:0|3:0,0:0:0:0:
106,212,43349,2,0,L|100:266,2,55,4|4|4,3:0|3:0|3:0,0:0:0:0:
142,119,44031,6,0,P|176:97|260:112,1,110,6|2,1:2|0:0,0:0:0:0:
283,129,44542,1,0,0:0:0:0:
283,129,44713,1,10,0:0:0:0:
358,192,45054,1,2,1:2:0:0:
278,250,45395,2,0,L|148:238,1,110,2|2,0:0|0:0,0:0:0:0:
123,261,45906,1,0,0:0:0:0:
123,261,46076,2,0,P|107:321|128:370,1,110,10|2,0:0|0:0,0:0:0:0:
221,375,46758,6,0,L|337:368,1,110,6|2,1:2|1:2,0:0:0:0:
380,365,47270,1,0,0:0:0:0:
380,365,47440,1,10,0:0:0:0:
434,282,47781,1,2,1:2:0:0:
374,202,48122,2,0,P|333:186|261:198,1,110,2|2,0:0|0:0,0:0:0:0:
224,215,48633,1,0,0:0:0:0:
224,215,48804,2,0,L|214:94,1,110,10|2,0:0|0:0,0:0:0:0:
289,39,49485,6,0,P|355:19|406:41,1,110,6|2,1:2|0:0,0:0:0:0:
463,100,50167,2,0,L|454:229,1,110,10|2,0:0|1:2,0:0:0:0:
454,259,50679,1,0,0:0:0:0:
454,259,50849,1,2,0:0:0:0:
360,290,51190,1,2,0:0:0:0:
274,240,51531,2,0,P|258:188|276:136,1,110,10|2,0:0|0:0,0:0:0:0:
335,56,52213,6,0,L|214:48,1,110,6|2,1:2|1:2,0:0:0:0:
163,126,52895,2,0,P|145:177|168:239,1,110,10|2,0:0|1:2,0:0:0:0:
185,272,53406,1,0,0:0:0:0:
185,272,53576,1,2,0:0:0:0:
267,327,53917,1,2,0:0:0:0:
178,371,54258,2,0,L|69:365,1,110,10|2,0:0|0:2,0:0:0:0:
45,268,54940,6,0,P|33:200|53:146,1,110,6|2,1:2|0:0,0:0:0:0:
85,148,55451,1,0,0:0:0:0:
85,148,55622,2,0,L|220:141,1,110,10|2,0:0|1:2,0:0:0:0:
261,68,56304,2,0,L|370:73,1,110,2|2,0:0|0:0,0:0:0:0:
419,85,56815,1,0,0:0:0:0:
419,85,56985,1,10,0:0:0:0:
467,171,57326,1,2,0:0:0:0:
390,233,57667,6,0,L|273:225,1,110,6|2,1:2|1:2,0:0:0:0:
230,227,58179,1,0,0:0:0:0:
230,227,58349,1,10,0:0:0:0:
189,317,58690,1,2,1:2:0:0:
279,357,59031,1,2,0:0:0:0:
279,357,59201,2,0,P|336:370|401:345,1,110
427,331,59713,1,10,0:0:0:0:
356,261,60054,1,2,0:0:0:0:
445,219,60395,6,0,L|453:86,1,110,2|2,1:2|1:2,0:0:0:0:
371,50,61076,1,2,1:2:0:0:
275,24,61417,1,2,1:2:0:0:
197,85,61758,2,0,L|203:194,1,110,2|2,1:2|1:2,0:0:0:0:
167,287,62440,1,2,1:2:0:0:
70,309,62781,1,2,1:2:0:0:
3,235,63122,6,0,L|9:125,1,110,2|2,1:2|1:2,0:0:0:0:
72,48,63804,1,2,1:2:0:0:
167,20,64145,1,2,1:2:0:0:
254,64,64485,6,0,L|261:126,2,55,2|8|4,1:2|3:0|3:0,0:0:0:0:
352,54,65167,2,0,L|358:-1,2,55,0|0|0,1:0|1:0|1:0,0:0:0:0:
373,151,65849,6,0,L|379:280,1,110,6|0,1:2|0:0,0:0:0:0:
309,334,66531,2,0,P|275:356|191:341,1,110,10|2,0:0|1:2,0:0:0:0:
161,334,67042,1,0,0:0:0:0:
161,334,67213,1,2,0:0:0:0:
125,241,67554,1,2,0:0:0:0:
199,175,67895,2,0,L|318:187,1,110,10|2,0:0|0:0,0:0:0:0:
390,131,68576,6,0,P|408:59|394:21,1,110,6|2,1:2|1:2,0:0:0:0:
301,2,69258,2,0,L|182:14,1,110,10|2,0:0|1:2,0:0:0:0:
142,23,69770,1,0,0:0:0:0:
142,23,69940,1,2,0:0:0:0:
94,110,70281,1,2,0:0:0:0:
165,178,70622,2,0,P|227:193|289:164,1,110,10|2,0:0|0:0,0:0:0:0:
356,130,71304,6,0,P|408:115|460:131,1,110,6|2,1:2|0:0,0:0:0:0:
495,166,71815,1,0,0:0:0:0:
495,166,71985,2,0,L|500:288,1,110,10|2,0:0|1:2,0:0:0:0:
432,349,72667,2,0,P|389:365|320:346,1,110,2|2,0:0|0:0,0:0:0:0:
292,333,73179,1,0,0:0:0:0:
292,333,73349,1,10,0:0:0:0:
321,238,73690,1,2,0:0:0:0:
244,175,74031,6,0,P|193:157|131:180,1,110,6|2,1:2|1:2,0:0:0:0:
65,236,74713,2,0,L|56:364,1,110,10|2,0:0|1:2,0:0:0:0:
89,383,75224,1,0,0:0:0:0:
89,383,75395,1,2,0:0:0:0:
164,319,75735,1,2,0:0:0:0:
156,220,76076,2,0,L|153:94,1,110,10|2,0:0|0:0,0:0:0:0:
210,28,76758,6,0,P|259:11|335:38,1,110,6|2,1:2|0:0,0:0:0:0:
359,45,77270,1,0,0:0:0:0:
359,45,77440,1,10,0:0:0:0:
413,127,77781,1,2,1:2:0:0:
352,205,78122,2,0,P|285:222|246:211,1,110,2|2,0:0|0:0,0:0:0:0:
212,184,78633,1,0,0:0:0:0:
212,184,78804,1,10,0:0:0:0:
151,262,79145,1,2,0:0:0:0:
210,340,79485,6,0,L|341:332,1,110,6|2,1:2|1:2,0:0:0:0:
369,325,79997,1,0,0:0:0:0:
369,325,80167,1,10,0:0:0:0:
318,239,80508,1,2,1:2:0:0:
382,163,80849,2,0,P|396:116|370:52,1,110,2|2,0:0|0:0,0:0:0:0:
340,25,81360,1,0,0:0:0:0:
340,25,81531,2,0,L|205:17,1,110,10|0,0:0|0:0,0:0:0:0:
143,66,82213,5,2,1:2:0:0:
102,156,82553,1,2,1:2:0:0:
179,218,82895,2,0,P|231:232|283:216,1,110,2|2,1:2|1:2,0:0:0:0:
375,181,83576,1,2,1:2:0:0:
435,259,83917,1,2,1:2:0:0:
393,349,84259,2,0,P|343:371|290:359,1,110,2|2,1:2|1:2,0:0:0:0:
202,314,84940,5,2,1:2:0:0:
249,227,85281,1,2,1:2:0:0:
240,128,85622,2,0,L|231:18,1,110,2|2,1:2|1:2,0:0:0:0:
133,2,86303,1,2,1:2:0:0:
47,53,86644,1,8,3:0:0:0:
86,143,86985,1,0,1:2:0:0:
184,131,87326,1,4,3:0:0:0:
268,78,87667,6,0,B|316:48|316:48|387:60,1,110,6|2,1:2|0:0,0:0:0:0:
443,121,88349,1,10,0:0:0:0:
490,207,88690,1,2,1:2:0:0:
461,301,89031,2,0,L|335:297,1,110,2|2,0:0|0:0,0:0:0:0:
320,267,89542,1,0,0:0:0:0:
320,267,89713,2,0,P|300:211|310:153,1,110,10|2,0:0|0:0,0:0:0:0:
398,125,90395,6,0,P|418:69|408:11,1,110,6|2,1:2|1:2,0:0:0:0:
372,10,90906,1,0,0:0:0:0:
372,10,91076,1,10,0:0:0:0:
272,10,91417,1,2,1:2:0:0:
237,102,91758,2,0,L|246:232,1,110,2|2,0:0|0:0,0:0:0:0:
223,257,92270,1,0,0:0:0:0:
223,257,92440,2,0,P|174:277|100:261,1,110,10|2,0:0|0:0,0:0:0:0:
45,202,93122,6,0,L|52:92,1,110,6|2,1:2|0:0,0:0:0:0:
71,46,93633,1,0,0:0:0:0:
71,46,93804,2,0,L|184:54,1,110,10|2,0:0|1:2,0:0:0:0:
262,109,94485,1,2,0:0:0:0:
309,195,94826,1,2,0:0:0:0:
263,282,95167,2,0,L|197:287,2,55,10|0|2,0:0|0:0|0:0,0:0:0:0:
306,312,95679,1,0,0:0:0:0:
306,312,95849,6,0,P|351:328|427:305,1,110,6|0,1:2|1:0,0:0:0:0:
486,252,96531,2,0,L|492:130,1,110,10|2,0:0|1:2,0:0:0:0:
438,58,97213,1,2,0:0:0:0:
345,23,97554,1,2,0:0:0:0:
263,79,97895,2,0,P|197:101|144:76,1,110,10|2,0:0|0:0,0:0:0:0:
73,41,98576,6,0,L|62:170,1,110,6|0,1:2|0:0,0:0:0:0:
129,224,99258,2,0,P|182:240|232:222,1,110,10|2,0:0|1:2,0:0:0:0:
321,179,99940,2,0,L|332:308,1,110,2|2,0:0|0:0,0:0:0:0:
409,348,100622,2,0,L|468:353,2,55,10|0|2,0:0|0:0|0:0,0:0:0:0:
361,362,101133,1,0,0:0:0:0:
361,362,101304,6,0,L|247:372,1,110,6|2,1:2|1:2,0:0:0:0:
175,308,101985,2,0,P|156:243|177:187,1,110,10|2,0:0|1:2,0:0:0:0:
259,169,102667,1,2,0:0:0:0:
350,207,103008,1,2,0:0:0:0:
445,179,103349,2,0,L|456:48,1,110,10|2,0:0|0:0,0:0:0:0:
370,16,104031,5,2,1:2:0:0:
274,0,104372,1,2,1:2:0:0:
186,46,104713,2,0,L|195:155,1,110,2|2,1:2|1:2,0:0:0:0:
253,235,105395,1,2,1:2:0:0:
347,205,105735,1,2,1:2:0:0:
442,232,106076,2,0,L|432:341,1,110,2|2,1:2|1:2,0:0:0:0:
337,371,106758,5,2,1:2:0:0:
240,347,107099,1,2,1:2:0:0:
191,260,107440,2,0,L|181:150,1,110,2|2,1:2|1:2,0:0:0:0:
222,60,108122,2,0,L|229:-1,2,55,2|8|4,1:2|3:0|3:0,0:0:0:0:
123,69,108804,2,0,L|116:8,2,55,0|8|4,1:0|3:0|3:0,0:0:0:0:
63,151,109485,6,0,L|53:265,1,110,6|0,1:2|0:0,0:0:0:0:
61,309,109997,1,0,0:0:0:0:
61,309,110167,2,0,P|104:324|170:305,1,110,10|2,0:0|1:2,0:0:0:0:
237,241,110849,1,2,0:0:0:0:
195,150,111190,1,2,0:0:0:0:
224,55,111531,1,10,0:0:0:0:
309,4,111872,1,2,0:0:0:0:
403,34,112213,6,0,L|413:169,1,110,6|2,1:2|1:2,0:0:0:0:
388,187,112724,1,0,0:0:0:0:
388,187,112895,2,0,P|332:204|277:190,1,110,10|2,0:0|1:2,0:0:0:0:
207,129,113576,1,2,0:0:0:0:
136,58,113917,1,2,0:0:0:0:
61,123,114258,2,0,L|54:257,1,110,10|2,0:0|0:0,0:0:0:0:
108,321,114940,6,0,P|164:338|219:324,1,110,6|2,1:2|0:0,0:0:0:0:
258,307,115451,1,0,1:0:0:0:
258,307,115622,2,0,L|265:185,1,110,10|2,0:0|1:2,0:0:0:0:
267,154,116133,1,0,0:0:0:0:
267,154,116304,1,2,0:0:0:0:
176,195,116645,1,2,0:0:0:0:
86,158,116985,2,0,P|67:127|77:48,1,110,10|2,0:0|0:0,0:0:0:0:
110,23,117497,1,0,0:0:0:0:
110,23,117667,5,6,1:2:0:0:
198,68,118008,1,2,1:2:0:0:
200,166,118349,1,10,0:0:0:0:
134,239,118690,1,2,1:2:0:0:
182,325,119031,2,0,L|310:334,1,110,2|2,0:0|0:0,0:0:0:0:
336,311,119542,1,0,0:0:0:0:
336,311,119713,1,10,0:0:0:0:
358,214,120054,1,2,0:0:0:0:
304,130,120395,6,0,P|285:76|304:11,1,110,6|2,1:2|0:0,0:0:0:0:
392,8,121076,2,0,L|407:139,1,110,10|2,0:0|1:2,0:0:0:0:
348,199,121758,2,0,P|294:218|229:199,1,110,2|2,0:0|0:0,0:0:0:0:
201,181,122270,1,0,0:0:0:0:
201,181,122440,1,10,0:0:0:0:
153,267,122781,1,2,0:0:0:0:
210,347,123122,6,0,L|319:353,1,110,6|2,1:2|1:2,0:0:0:0:
403,299,123804,2,0,P|422:245|403:180,1,110,10|2,0:0|1:2,0:0:0:0:
316,178,124485,2,0,P|262:195|193:171,1,110,2|2,0:0|0:0,0:0:0:0:
172,164,124997,1,0,0:0:0:0:
172,164,125167,1,10,0:0:0:0:
170,64,125508,1,2,0:0:0:0:
259,17,125849,6,0,P|313:0|382:24,1,110,2|2,1:2|1:2,0:0:0:0:
428,86,126531,1,2,1:2:0:0:
451,182,126872,1,2,1:2:0:0:
374,244,127213,2,0,P|320:261|251:237,1,110,2|2,1:2|1:2,0:0:0:0:
177,210,127895,1,2,1:2:0:0:
130,297,128235,1,2,1:2:0:0:
211,353,128576,6,0,P|264:364|315:347,1,110,2|2,1:2|1:2,0:0:0:0:
405,304,129258,1,2,1:2:0:0:
406,204,129599,1,2,1:2:0:0:
342,127,129940,2,0,P|290:110|237:121,1,110,2|6,1:2|3:0,0:0:0:0:
146,161,130622,1,0,1:0:0:0:
124,257,130963,1,0,1:0:0:0:
194,326,131304,6,0,L|317:316,1,110,6|0,1:2|0:0,0:0:0:0:
322,271,131815,1,0,0:0:0:0:
322,271,131985,2,0,L|312:148,1,110,10|2,0:0|1:2,0:0:0:0:
344,66,132667,2,0,P|408:50|457:62,1,110,2|2,0:0|0:0,0:0:0:0:
510,137,133349,2,0,L|501:246,1,110,10|2,0:0|0:0,0:0:0:0:
411,290,134031,6,0,P|347:306|298:294,1,110,6|2,1:2|1:2,0:0:0:0:
268,272,134542,1,0,0:0:0:0:
268,272,134713,2,0,L|259:162,1,110,10|2,0:0|1:2,0:0:0:0:
253,112,135224,1,0,0:0:0:0:
253,112,135395,1,2,0:0:0:0:
172,55,135735,1,2,0:0:0:0:
80,92,136076,2,0,L|71:201,1,110,10|2,0:0|0:0,0:0:0:0:
124,285,136758,6,0,P|179:301|237:277,1,110,6|2,1:2|0:0,0:0:0:0:
297,214,137440,2,0,L|288:104,1,110,10|2,0:0|1:2,0:0:0:0:
352,28,138122,2,0,P|402:7|455:19,1,110,2|2,0:0|0:0,0:0:0:0:
491,52,138633,1,0,0:0:0:0:
491,52,138804,2,0,L|485:176,1,110,10|2,0:0|0:0,0:0:0:0:
423,238,139485,6,0,P|365:255|314:240,1,110,6|2,1:2|1:2,0:0:0:0:
281,216,139997,1,0,0:0:0:0:
281,216,140167,2,0,P|224:191|169:209,1,110,10|2,0:0|1:2,0:0:0:0:
95,256,140849,2,0,L|88:372,1,110,2|2,0:0|0:0,0:0:0:0:
183,384,141531,2,0,L|189:274,1,110,10|0,0:0|0:0,0:0:0:0:
179,229,142042,1,0,0:0:0:0:
179,229,142213,6,0,L|172:119,1,110,6|2,1:2|0:0,0:0:0:0:
243,46,142895,2,0,P|303:28|352:44,1,110,10|2,0:0|1:2,0:0:0:0:
387,69,143406,1,0,0:0:0:0:
387,69,143576,2,0,L|380:178,1,110,2|2,0:0|0:0,0:0:0:0:
288,216,144258,2,0,P|228:198|179:214,1,110,10|2,0:0|0:0,0:0:0:0:
141,236,144770,1,0,0:0:0:0:
141,236,144940,5,6,1:2:0:0:
103,327,145281,1,2,1:2:0:0:
190,373,145622,2,0,L|309:365,1,110,10|2,0:0|1:2,0:0:0:0:
341,339,146133,1,0,0:0:0:0:
341,339,146304,2,0,P|360:293|343:227,1,110,2|2,0:0|0:0,0:0:0:0:
277,165,146985,2,0,P|258:119|275:53,1,110,10|2,0:0|0:0,0:0:0:0:
356,14,147667,5,2,1:2:0:0:
455,12,148008,1,2,1:2:0:0:
507,96,148349,2,0,P|523:134|494:219,1,110,2|2,1:2|1:2,0:0:0:0:
420,243,149031,1,2,1:2:0:0:
325,213,149372,1,2,1:2:0:0:
232,178,149713,2,0,L|122:185,1,110,2|2,1:2|1:2,0:0:0:0:
44,123,150395,5,2,1:2:0:0:
81,31,150735,1,2,1:2:0:0:
177,51,151076,2,0,L|286:43,1,110,2|2,1:2|1:2,0:0:0:0:
378,80,151758,1,2,1:2:0:0:
378,80,151929,1,8,3:0:0:0:
198,285,153122,6,0,B|150:315|150:315|79:303,1,110,6|2,1:2|0:0,0:0:0:0:
30,234,153804,1,10,0:0:0:0:
2,140,154145,1,2,1:2:0:0:
50,54,154486,2,0,L|176:58,1,110,2|2,0:0|0:0,0:0:0:0:
194,85,154997,1,0,0:0:0:0:
194,85,155168,2,0,P|214:141|204:199,1,110,10|2,0:0|0:0,0:0:0:0:
141,264,155850,6,0,P|121:320|131:378,1,110,6|2,1:2|1:2,0:0:0:0:
175,381,156361,1,0,0:0:0:0:
175,381,156531,1,10,0:0:0:0:
264,340,156872,1,2,1:2:0:0:
254,242,157213,2,0,L|245:112,1,110,2|2,0:0|0:0,0:0:0:0:
265,86,157725,1,0,0:0:0:0:
265,86,157895,2,0,P|314:66|388:82,1,110,10|2,0:0|0:0,0:0:0:0:
425,155,158577,6,0,L|418:265,1,110,6|2,1:2|0:0,0:0:0:0:
413,310,159088,1,0,0:0:0:0:
413,310,159259,2,0,L|300:302,1,110,10|2,0:0|1:2,0:0:0:0:
217,254,159940,1,2,0:0:0:0:
188,159,160281,1,2,0:0:0:0:
254,85,160622,2,0,L|320:80,2,55,10|0|2,0:0|0:0|0:0,0:0:0:0:
206,72,161134,1,0,0:0:0:0:
206,72,161304,6,0,P|161:56|85:79,1,110,6|2,1:2|1:2,0:0:0:0:
26,132,161986,2,0,L|20:254,1,110,10|2,0:0|1:2,0:0:0:0:
74,326,162668,1,2,0:0:0:0:
167,361,163009,1,2,0:0:0:0:
249,305,163350,2,0,P|315:283|368:308,1,110,10|2,0:0|0:0,0:0:0:0:
439,343,164031,6,0,L|450:214,1,110,6|0,1:2|0:0,0:0:0:0:
383,160,164713,2,0,P|330:144|280:162,1,110,10|2,0:0|1:2,0:0:0:0:
191,205,165395,2,0,L|180:76,1,110,2|2,0:0|0:0,0:0:0:0:
103,36,166077,2,0,L|44:31,2,55,10|0|2,0:0|0:0|0:0,0:0:0:0:
151,22,166588,1,0,0:0:0:0:
151,22,166759,6,0,L|265:12,1,110,6|2,1:2|1:2,0:0:0:0:
337,76,167440,2,0,P|356:141|335:197,1,110,10|2,0:0|1:2,0:0:0:0:
253,215,168122,1,2,0:0:0:0:
162,177,168463,1,2,0:0:0:0:
67,205,168804,2,0,L|56:336,1,110,10|2,0:0|0:0,0:0:0:0:
141,368,169485,5,2,1:2:0:0:
236,384,169826,1,2,1:2:0:0:
324,340,170168,2,0,L|315:231,1,110,2|2,1:2|1:2,0:0:0:0:
245,161,170849,1,2,1:2:0:0:
151,195,171190,1,2,1:2:0:0:
59,157,171531,2,0,L|69:48,1,110,2|2,1:2|1:2,0:0:0:0:
163,16,172213,5,2,1:2:0:0:
260,31,172554,1,2,1:2:0:0:
334,97,172895,2,0,L|344:207,1,110,2|2,1:2|1:2,0:0:0:0:
301,289,173577,2,0,L|294:350,2,55,2|8|4,1:2|3:0|3:0,0:0:0:0:
397,266,174259,2,0,L|404:327,2,55,0|8|4,1:0|3:0|3:0,0:0:0:0:
355,175,174940,6,0,P|308:197|232:172,1,110,6|2,1:2|0:0,0:0:0:0:
209,161,175451,1,0,0:0:0:0:
209,161,175622,2,0,P|156:146|105:164,1,110,10|2,0:0|1:2,0:0:0:0:
36,235,176304,2,0,L|28:351,1,110,2|2,0:0|0:0,0:0:0:0:
76,368,176815,1,0,0:0:0:0:
76,368,176985,2,0,L|192:376,1,110,10|2,0:0|0:0,0:0:0:0:
260,310,177667,6,0,P|276:254|253:200,1,110,6|2,1:2|1:2,0:0:0:0:
230,175,178179,1,0,0:0:0:0:
230,175,178349,2,0,P|214:119|237:65,1,110,10|2,0:0|1:2,0:0:0:0:
308,9,179031,1,2,0:0:0:0:
371,85,179372,1,2,0:0:0:0:
318,169,179713,2,0,L|203:161,1,110,10|2,0:0|0:0,0:0:0:0:
167,189,180224,1,0,0:0:0:0:
167,189,180395,6,0,P|146:234|164:309,1,110,6|2,1:2|0:0,0:0:0:0:
214,370,181076,2,0,L|329:362,1,110,10|2,0:0|1:2,0:0:0:0:
394,292,181758,1,2,0:0:0:0:
321,224,182099,1,2,0:0:0:0:
402,168,182440,2,0,L|410:53,1,110,10|2,0:0|0:0,0:0:0:0:
384,15,182951,1,0,0:0:0:0:
384,15,183122,6,0,P|328:-2|262:23,1,110,6|2,1:2|1:2,0:0:0:0:
224,93,183804,2,0,L|231:202,1,110,10|2,0:0|1:2,0:0:0:0:
207,298,184485,1,2,0:0:0:0:
112,327,184826,1,2,0:0:0:0:
31,262,185167,2,0,L|38:152,1,110,10|2,0:0|0:0,0:0:0:0:
88,66,185849,6,0,P|144:49|210:74,1,110,6|2,1:2|0:0,0:0:0:0:
235,87,186360,1,0,0:0:0:0:
235,87,186531,2,0,P|287:99|339:82,1,110,10|2,0:0|1:2,0:0:0:0:
427,37,187213,2,0,L|422:156,1,110,2|2,0:0|0:0,0:0:0:0:
398,190,187724,1,0,0:0:0:0:
398,190,187895,2,0,L|403:309,1,110,10|2,0:0|0:0,0:0:0:0:
326,363,188576,6,0,P|274:379|221:367,1,110,6|2,1:2|1:2,0:0:0:0:
183,343,189088,1,0,0:0:0:0:
183,343,189258,2,0,L|176:218,1,110,10|2,0:0|1:2,0:0:0:0:
204,137,189940,1,2,0:0:0:0:
239,44,190281,1,2,0:0:0:0:
143,17,190622,2,0,P|100:3|26:21,1,110,10|2,0:0|0:0,0:0:0:0:
23,114,191304,5,2,1:2:0:0:
118,141,191645,1,2,1:2:0:0:
206,98,191985,2,0,L|315:102,1,110,2|2,1:2|1:2,0:0:0:0:
414,88,192667,1,2,1:2:0:0:
452,179,193008,1,2,1:2:0:0:
388,255,193349,2,0,L|278:259,1,110,2|2,1:2|1:2,0:0:0:0:
199,198,194031,5,2,1:2:0:0:
102,174,194372,1,2,1:2:0:0:
17,226,194713,2,0,P|-7:278|17:346,1,110,2|2,1:2|1:2,0:0:0:0:
103,367,195395,5,2,1:2:0:0:
153,281,195735,1,2,1:2:0:0:
95,200,196076,1,0,1:0:0:0:
38,117,196417,1,0,1:0:0:0:
286,144,197440,1,8,0:0:0:0:
378,109,197781,1,0,1:0:0:0:
463,158,198122,2,0,L|472:273,1,110,2|2,0:0|0:0,0:0:0:0:
440,306,198633,1,0,0:0:0:0:
440,306,198804,2,0,P|388:320|325:302,1,110,10|2,0:0|0:0,0:0:0:0:
248,257,199485,6,0,L|256:147,1,110,6|2,1:2|1:2,0:0:0:0:
236,110,199997,1,0,0:0:0:0:
236,110,200167,2,0,P|195:95|118:119,1,110,10|2,0:0|1:2,0:0:0:0:
58,175,200849,2,0,L|66:297,1,110,2|2,0:0|0:0,0:0:0:0:
90,327,201360,1,0,0:0:0:0:
90,327,201531,2,0,L|199:335,1,110,10|2,0:0|0:0,0:0:0:0:
267,262,202213,6,0,P|285:195|264:140,1,110,6|2,1:2|0:0,0:0:0:0:
248,119,202724,1,0,0:0:0:0:
248,119,202895,1,10,0:0:0:0:
324,56,203235,1,2,1:2:0:0:
408,107,203576,2,0,L|420:225,1,110,2|2,0:0|0:0,0:0:0:0:
426,265,204088,1,0,0:0:0:0:
426,265,204258,1,10,0:0:0:0:
356,335,204599,1,2,0:0:0:0:
259,311,204940,6,0,L|251:190,1,110,6|2,1:2|1:2,0:0:0:0:
289,109,205622,1,10,0:0:0:0:
245,24,205963,1,2,1:2:0:0:
168,86,206304,2,0,P|102:107|48:89,1,110,2|2,0:0|0:0,0:0:0:0:
30,79,206815,1,0,0:0:0:0:
30,79,206985,2,0,L|21:200,1,110,10|2,0:0|0:0,0:0:0:0:
95,255,207667,6,0,P|147:268|199:252,1,110,6|2,1:2|0:0,0:0:0:0:
244,229,208179,1,0,0:0:0:0:
244,229,208349,2,0,P|295:213|348:226,1,110,8|2,0:0|1:2,0:0:0:0:
417,297,209031,2,0,L|430:168,1,110,2|2,0:0|0:0,0:0:0:0:
406,142,209542,1,0,0:0:0:0:
406,142,209713,2,0,L|277:129,1,110,10|2,0:0|0:0,0:0:0:0:
207,175,210395,6,0,P|157:189|91:171,1,110,6|2,1:2|1:2,0:0:0:0:
61,151,210906,1,0,0:0:0:0:
61,151,211076,1,10,0:0:0:0:
98,59,211417,1,2,1:2:0:0:
193,84,211758,2,0,P|230:101|309:77,1,110,2|2,0:0|0:0,0:0:0:0:
334,55,212270,1,0,0:0:0:0:
334,55,212440,2,0,P|387:36|442:52,1,110,10|2,0:0|0:0,0:0:0:0:
489,133,213122,5,2,1:2:0:0:
499,231,213463,1,2,1:2:0:0:
421,292,213804,2,0,P|368:311|313:295,1,110,2|2,1:2|1:2,0:0:0:0:
229,251,214485,1,2,1:2:0:0:
261,157,214826,1,2,1:2:0:0:
198,79,215167,2,0,P|145:60|90:76,1,110,2|2,1:2|1:2,0:0:0:0:
26,142,215849,5,2,1:2:0:0:
11,240,216190,1,2,1:2:0:0:
83,307,216531,2,0,P|135:319|186:301,1,110,2|2,1:2|1:2,0:0:0:0:
263,236,217213,2,0,L|270:170,2,55,0|8|4,1:2|3:0|3:0,0:0:0:0:
330,308,217895,2,0,L|335:362,2,55,0|8|4,1:0|3:0|3:0,0:0:0:0:
375,220,218576,5,4,1:2:0:0:
