osu file format v14

[General]
AudioFilename: audio.mp3
AudioLeadIn: 0
PreviewTime: 765
Countdown: 0
SampleSet: Soft
StackLeniency: 0.7
Mode: 0
LetterboxInBreaks: 0
WidescreenStoryboard: 0

[Editor]
Bookmarks: 13758
DistanceSpacing: 1
BeatDivisor: 4
GridSize: 8
TimelineZoom: 1

[Metadata]
Title:KROL SZAMANOW (ARO BLEND)
TitleUnicode:KRÓL SZAMANÓW (ARO BLEND)
Artist:ZBUKU
ArtistUnicode:ZBUKU
Creator:XVoIR
Version:HARD
Source:
Tags:deadpon3 shaman king
BeatmapID:1188784
BeatmapSetID:561523

[Difficulty]
HPDrainRate:4.5
CircleSize:4
OverallDifficulty:6.5
ApproachRate:7.5
SliderMultiplier:1.5
SliderTickRate:1

[Events]
//Background and Video events
0,0,"bg.jpg",0,0
//Break Periods
//Storyboard Layer 0 (Background)
//Storyboard Layer 1 (Fail)
//Storyboard Layer 2 (Pass)
//Storyboard Layer 3 (Foreground)
//Storyboard Sound Samples

[TimingPoints]
765,333.170450002221,4,3,0,75,1,0
3430,-100,4,2,0,75,0,0

[Colours]
Combo1 : 255,87,0
Combo2 : 164,32,240
Combo3 : 37,185,239
Combo4 : 23,209,116

[HitObjects]
74,240,765,6,0,P|102:277|169:293,2,112.5,2|0|2,0:1|0:0|0:1,0:0:0:0:
61,90,1597,1,2,0:1:0:0:
61,90,1681,1,0,0:0:0:0:
61,90,1764,2,0,B|104:83|104:83|139:90,1,75,2|2,0:1|0:1,0:0:0:0:
207,108,2097,6,0,P|262:119|329:95,2,112.5,2|2|2,0:1|0:1|0:1,0:0:0:0:
384,60,2930,1,0,0:0:0:0:
384,60,3013,1,0,0:0:0:0:
384,60,3097,2,0,P|397:110|389:139,1,75,0|0,0:0|0:0,0:0:0:0:
361,200,3430,6,0,B|313:209|313:209|280:207,1,75,4|0,0:1|0:0,0:0:0:0:
212,200,3763,2,0,B|165:194|165:194|134:200,1,75,2|0,0:0|0:0,0:0:0:0:
80,247,4096,2,0,P|66:308|133:362,1,150,2|2,0:0|0:0,0:0:0:0:
196,337,4596,1,0,0:0:0:0:
278,333,4763,1,2,0:0:0:0:
278,333,5096,6,0,L|353:318,1,75,2|0,0:0|0:0,0:0:0:0:
422,292,5429,2,0,P|432:253|419:212,2,75,2|2|2,0:0|0:0|0:0,0:0:0:0:
357,253,5929,1,8,0:0:0:0:
357,253,6012,1,8,0:0:0:0:
357,253,6095,6,0,L|343:169,1,75,4|0,0:0|0:0,0:0:0:0:
270,187,6428,2,0,L|245:107,1,75,2|0,0:0|0:0,0:0:0:0:
177,143,6762,2,0,L|136:78,1,75,2|0,0:0|0:0,0:0:0:0:
77,125,7095,2,0,L|15:79,1,75,2|0,0:0|0:0,0:0:0:0:
15,180,7428,6,0,B|55:207|55:207|78:313,1,150,2|2,0:0|0:0,0:0:0:0:
136,352,7928,1,0,0:0:0:0:
189,299,8094,2,0,B|210:199|210:199,1,75,2|0,0:0|0:0,0:0:0:0:
183,153,8427,1,2,0:0:0:0:
249,118,8594,1,8,0:0:0:0:
249,118,8677,1,8,0:0:0:0:
249,118,8761,6,0,B|278:132|296:153|296:153|275:251,1,150,2|2,0:1|0:0,0:0:0:0:
267,316,9260,5,0,0:0:0:0:
339,334,9427,2,0,P|387:327|416:303,1,75,2|0,0:0|0:0,0:0:0:0:
429,240,9760,2,0,P|457:201|461:163,1,75,2|0,0:0|0:0,0:0:0:0:
428,108,10093,1,2,0:1:0:0:
288,153,10426,6,0,P|246:164|216:175,1,75,2|0,0:0|0:0,0:0:0:0:
188,245,10760,2,0,P|146:234|116:223,1,75,2|0,0:0|0:0,0:0:0:0:
57,176,11093,1,2,0:0:0:0:
115,129,11259,1,8,0:0:0:0:
115,129,11343,1,8,0:0:0:0:
115,129,11426,6,0,P|125:81|121:53,1,75,2|0,0:1|0:0,0:0:0:0:
51,81,11759,2,0,P|36:134|118:208,1,150,2|2,0:0|0:0,0:0:0:0:
164,217,12259,1,0,0:0:0:0:
238,216,12425,2,0,L|317:210,1,75,2|0,0:0|0:0,0:0:0:0:
380,243,12759,6,0,B|386:203|386:203|400:175|400:175|393:141|393:141|399:100,1,150,2|2,0:0|0:0,0:0:0:0:
335,60,13258,1,0,0:0:0:0:
265,84,13425,2,0,P|233:113|228:150,1,75,2|0,0:0|0:0,0:0:0:0:
238,216,13758,2,0,L|319:185,1,75,2|8,0:0|0:0,0:0:0:0:
343,122,14091,6,0,P|376:151|342:253,1,150,2|2,0:1|0:0,0:0:0:0:
299,293,14591,1,0,0:0:0:0:
299,293,14674,1,0,0:0:0:0:
299,293,14758,2,0,P|295:330|303:369,1,75,2|0,0:0|0:0,0:0:0:0:
436,340,15091,2,0,P|440:303|432:264,2,75,2|0|2,0:0|0:0|0:0,0:0:0:0:
362,353,15591,6,0,P|306:362|216:328,1,150,0|0,0:0|0:0,0:0:0:0:
154,294,16090,2,0,B|117:282|117:282|79:294,1,75,2|0,0:0|0:0,0:0:0:0:
150,215,16424,2,0,B|187:227|187:227|225:215,1,75,10|0,0:0|0:0,0:0:0:0:
291,187,16757,5,2,0:1:0:0:
248,125,16923,2,0,L|187:76,2,75,0|2|0,0:0|0:0|0:0,0:0:0:0:
323,120,17423,2,0,L|401:108,1,75,2|8,0:0|0:0,0:0:0:0:
449,200,17756,2,0,L|371:188,1,75,10|8,0:0|0:0,0:0:0:0:
309,225,18089,6,0,P|303:269|311:301,1,75,2|0,0:0|0:0,0:0:0:0:
405,348,18423,2,0,P|411:304|403:272,1,75,8|8,0:0|0:0,0:0:0:0:
309,225,18756,2,0,L|224:240,1,75,8|0,0:0|0:0,0:0:0:0:
200,304,19089,2,0,L|106:294,1,75,8|8,0:0|0:0,0:0:0:0:
84,233,19422,6,0,B|76:191|76:191|91:157|91:157|75:122|75:122|85:82,1,150,2|0,0:1|0:0,0:0:0:0:
142,45,19922,1,2,0:1:0:0:
203,87,20088,2,0,L|259:139,1,75,0|0,0:0|0:0,0:0:0:0:
250,213,20422,2,0,P|296:205|329:113,1,150,2|0,0:1|0:0,0:0:0:0:
78,290,22087,6,0,P|118:302|219:250,1,150,6|2,0:1|0:0,0:0:0:0:
253,197,22587,1,0,0:0:0:0:
268,123,22754,2,0,B|274:82|274:82|261:51,1,75,8|0,0:0|0:0,0:0:0:0:
167,119,23087,2,0,B|161:160|161:160|174:191,1,75,2|0,0:1|0:0,0:0:0:0:
253,197,23420,6,0,P|331:210|381:157,1,150,2|2,0:0|0:0,0:0:0:0:
403,93,23920,1,0,0:0:0:0:
368,26,24086,2,0,P|335:11|287:15,1,75,8|0,0:0|0:0,0:0:0:0:
229,48,24420,2,0,L|253:202,1,150,2|2,0:0|0:1,0:0:0:0:
472,335,25086,6,0,L|493:253,1,75,2|0,0:0|0:0,0:0:0:0:
370,239,25419,2,0,L|391:321,1,75,8|0,0:0|0:0,0:0:0:0:
297,335,25752,2,0,B|252:348|252:348|151:307,1,150,2|2,0:1|0:0,0:0:0:0:
99,260,26252,5,0,0:0:0:0:
67,191,26419,1,2,0:0:0:0:
91,120,26585,1,0,0:0:0:0:
150,74,26752,2,0,L|232:94,1,75,8|0,0:0|0:0,0:0:0:0:
289,126,27085,2,0,L|361:108,1,75,2|0,0:0|0:0,0:0:0:0:
434,88,27418,5,2,0:1:0:0:
422,162,27585,2,0,P|419:200|437:236,2,75,0|2|0,0:0|0:0|0:0,0:0:0:0:
492,186,28084,2,0,P|509:228|437:304,1,150,8|2,0:0|0:1,0:0:0:0:
376,313,28584,1,0,0:0:0:0:
302,297,28751,6,0,P|263:293|225:301,1,75,2|0,0:0|0:0,0:0:0:0:
160,332,29084,2,0,P|122:341|54:303,2,112.5,8|0|0,0:0|0:0|3:0,0:0:0:0:
216,282,29750,1,0,3:0:0:0:
207,207,29917,1,0,3:0:0:0:
176,138,30083,6,0,P|130:123|58:181,2,112.5,6|0|2,3:1|0:0|3:1,0:0:0:0:
243,171,30750,1,0,0:0:0:0:
314,149,30916,1,2,3:1:0:0:
314,149,31000,1,0,3:0:0:0:
314,149,31083,2,0,L|392:125,1,75,0|0,3:0|0:0,0:0:0:0:
457,105,31416,6,0,B|469:50|469:50|444:-2,2,112.5,2|2|2,3:1|3:1|3:1,0:0:0:0:
436,177,32083,1,2,0:1:0:0:
463,246,32249,1,8,0:0:0:0:
387,244,32416,2,0,L|294:231,1,75,8|0,0:0|0:0,0:0:0:0:
278,300,32749,6,0,P|245:271|268:172,1,150,4|0,0:0|3:0,0:0:0:0:
308,116,33249,1,0,3:0:0:0:
240,83,33415,2,0,L|164:64,1,75,0|2,0:0|3:1,0:0:0:0:
150,137,33748,2,0,L|77:155,1,75,8|2,0:0|0:1,0:0:0:0:
96,228,34082,6,0,L|45:286,1,75,2|0,0:1|0:0,0:0:0:0:
84,349,34415,2,0,P|128:358|158:349,1,75,0|2,0:0|0:1,0:0:0:0:
226,323,34748,1,0,0:0:0:0:
305,310,34914,1,0,0:0:0:0:
305,310,34998,1,0,0:0:0:0:
305,310,35081,2,0,P|349:297|383:307,1,75,0|0,3:0|3:0,0:0:0:0:
447,328,35414,6,0,P|471:285|444:172,1,150,4|2,0:0|0:0,0:0:0:0:
401,138,35914,1,0,0:0:0:0:
331,108,36081,2,0,P|306:76|304:39,1,75,8|0,0:0|0:0,0:0:0:0:
378,51,36414,2,0,P|404:89|353:181,1,150,2|2,0:0|0:0,0:0:0:0:
228,237,37080,5,2,0:0:0:0:
156,214,37247,1,0,0:0:0:0:
86,187,37413,2,0,P|75:139|82:109,1,75,8|0,0:0|0:0,0:0:0:0:
140,70,37746,2,0,P|151:118|144:148,1,75,2|0,0:0|0:0,0:0:0:0:
155,217,38080,6,0,L|135:294,1,75,6|0,0:1|0:0,0:0:0:0:
177,352,38413,1,2,0:0:0:0:
251,361,38579,1,0,0:0:0:0:
324,341,38746,2,0,P|366:352|406:345,1,75,8|0,0:0|0:0,0:0:0:0:
489,265,39079,2,0,P|445:259|407:269,1,75,2|0,0:0|0:0,0:0:0:0:
340,260,39412,6,0,P|330:219|340:184,1,75,2|0,0:0|0:0,0:0:0:0:
389,132,39745,2,0,L|448:75,1,75,0|2,0:0|0:0,0:0:0:0:
379,38,40079,2,0,L|296:29,1,75,8|0,0:0|0:0,0:0:0:0:
229,30,40412,1,0,0:0:0:0:
161,61,40578,1,0,3:0:0:0:
161,61,40662,1,0,3:0:0:0:
161,61,40745,6,0,P|153:111|229:173,1,150,6|2,1:0|0:0,0:0:0:0:
294,186,41245,1,2,0:1:0:0:
368,181,41411,2,0,L|451:166,1,75,0|0,0:0|0:0,0:0:0:0:
442,92,41744,2,0,L|359:77,1,75,2|0,0:1|0:0,0:0:0:0:
54,114,43410,6,0,B|65:163|65:163|61:201|61:201|84:269,1,150,6|2,0:1|0:0,0:0:0:0:
140,304,43910,1,2,0:1:0:0:
214,290,44077,2,0,L|297:279,1,75,0|0,0:0|0:0,0:0:0:0:
361,261,44410,2,0,P|390:219|358:122,1,150,2|8,0:1|0:0,0:0:0:0:
310,78,44910,5,8,0:0:0:0:
310,78,44993,1,8,0:0:0:0:
310,78,45076,2,0,L|235:88,1,75,8|8,0:0|0:0,0:0:0:0:
163,110,45409,1,0,0:3:0:0:
114,167,45576,1,8,0:0:0:0:
114,167,45659,1,8,0:0:0:0:
114,167,45743,2,0,P|114:212|129:243,1,75,8|8,0:0|0:0,0:0:0:0:
198,258,46076,6,0,B|249:261|249:261|321:234,2,112.5,2|2|2,0:1|0:1|0:1,0:0:0:0:
85,255,46825,2,0,B|63:286|63:286|76:360,1,112.5,2|2,0:1|0:1,0:0:0:0:
