osu file format v14

[General]
AudioFilename: audio.mp3
AudioLeadIn: 2000
PreviewTime: 52812
Countdown: 0
SampleSet: Soft
StackLeniency: 1
Mode: 0
LetterboxInBreaks: 0
WidescreenStoryboard: 1

[Editor]
DistanceSpacing: 1.2
BeatDivisor: 4
GridSize: 32
TimelineZoom: 1.2

[Metadata]
Title:VOICE (TV Size)
TitleUnicode:VOICE (TV Size)
Artist:ZAQ
ArtistUnicode:ZAQ
Creator:Syph
Version:Usaha's Insane
Source:中二病でも恋がしたい!戀
Tags:Season 2 two byou NOISY Lab. Ippei Egusa 江草一平 Koichiro Muroya Nijine japanese pop jpop j-pop op chuunibyou demo koi ga shitai ren Chu-2 byo anime opening usaha nana abe takekii hanasaka yui
BeatmapID:3966047
BeatmapSetID:1906618

[Difficulty]
HPDrainRate:5
CircleSize:4
OverallDifficulty:7
ApproachRate:9
SliderMultiplier:1.7
SliderTickRate:1

[Events]
//Background and Video events
0,0,"chuuuuuuuuuuuuu.jpg",0,0
//Break Periods
//Storyboard Layer 0 (Background)
//Storyboard Layer 1 (Fail)
//Storyboard Layer 2 (Pass)
//Storyboard Layer 3 (Foreground)
//Storyboard Layer 4 (Overlay)
//Storyboard Sound Samples

[TimingPoints]
720,326.086956521739,4,2,2,57,1,0
720,-100,4,2,2,57,0,0
3002,-100,4,2,2,60,0,0
3328,-100,4,2,2,63,0,0
4306,-100,4,2,2,68,0,0
8546,-100,4,2,2,72,0,0
21589,-111.111111111111,4,2,2,62,0,0
32024,-90.9090909090909,4,2,2,62,0,0
32350,-111.111111111111,4,2,2,62,0,0
34796,-111.111111111111,4,2,2,68,0,0
37241,-100,4,2,2,70,0,0
47676,-100,4,2,2,65,0,0
48981,-100,4,2,2,56,0,0
50285,-100,4,2,2,72,0,0
52893,-100,4,2,2,83,0,1
63328,-83.3333333333333,4,2,2,83,0,1
63655,-100,4,2,2,83,0,1
68546,-100,4,2,2,83,0,0
71806,-100,4,2,2,83,0,1
72459,-83.3333333333333,4,2,2,83,0,1
72785,-100,4,2,2,83,0,1
86806,-100,4,2,2,83,0,0
87296,-100,4,2,2,70,0,0
88274,-100,4,2,2,65,0,0
89415,-100,4,2,2,5,0,0

[Colours]
Combo1 : 187,103,229
Combo2 : 255,213,128
Combo3 : 242,121,97
Combo4 : 255,140,179

[HitObjects]
276,255,720,5,0,0:0:0:0:
276,255,1046,1,2,0:0:0:0:
202,231,1209,1,0,0:0:0:0:
202,152,1372,1,0,0:0:0:0:
276,128,1535,1,0,0:0:0:0:
322,192,1698,1,2,0:0:0:0:
276,255,1861,1,0,0:0:0:0:
202,231,2024,1,2,0:0:0:0:
202,231,3329,1,2,3:2:0:0:
276,255,3492,1,0,0:0:0:0:
322,192,3655,1,2,0:0:0:0:
276,128,3818,1,0,0:0:0:0:
202,152,3981,1,2,0:0:0:0:
202,231,4144,1,2,0:0:0:0:
276,255,4307,1,2,1:2:0:0:
128,199,4470,6,0,P|51:224|150:279,1,255,6|0,1:2|0:0,0:0:0:0:
128,199,5122,1,0,1:0:0:0:
128,199,5448,1,0,1:0:0:0:
128,199,5774,6,0,L|112:100,1,85,6|0,1:2|3:0,0:0:0:0:
227,78,6100,1,4,3:0:0:0:
304,212,6263,6,0,L|287:311,2,85,6|0|8,1:2|3:0|3:0,0:0:0:0:
196,264,6752,5,6,1:2:0:0:
255,155,6915,1,0,3:0:0:0:
293,353,7079,1,4,3:0:0:0:
101,275,7242,6,0,L|209:246,1,85,6|0,1:2|3:0,0:0:0:0:
227,78,7568,1,12,3:0:0:0:
286,242,7731,5,6,1:2:0:0:
105,169,7894,2,0,L|48:151,3,42.5,2|0|4|0,1:2|0:0|3:0|0:0,0:0:0:0:
177,145,8220,5,2,1:2:0:0:
195,108,8301,1,0,1:0:0:0:
189,67,8383,1,2,1:2:0:0:
159,37,8464,1,0,1:0:0:0:
118,31,8546,6,0,P|173:89|250:65,1,170,6|0,0:0|1:0,0:0:0:0:
381,18,9035,2,0,L|292:6,1,85,2|0,3:2|0:0,0:0:0:0:
297,168,9361,2,0,L|386:156,1,85,0|2,3:0|1:2,0:0:0:0:
381,156,9687,6,0,P|315:187|333:269,1,170,0|2,0:0|3:2,0:0:0:0:
511,310,10176,2,0,B|510:247|455:220|455:220|386:245,1,170,0|0,1:0|0:0,0:0:0:0:
270,311,10665,1,2,3:2:0:0:
186,207,10829,1,2,1:2:0:0:
270,311,10992,1,4,3:0:0:0:
312,180,11155,6,0,P|318:133|304:98,1,85,0|2,3:0|3:2,0:0:0:0:
111,73,11481,1,2,1:2:0:0:
208,134,11644,1,8,3:0:0:0:
248,20,11807,1,4,1:3:0:0:
261,205,11970,5,2,1:2:0:0:
261,205,12133,1,2,3:2:0:0:
401,158,12296,1,4,3:0:0:0:
287,292,12459,5,6,1:2:0:0:
185,160,12622,1,0,1:0:0:0:
171,345,12785,1,12,1:3:0:0:
370,313,12948,5,6,1:2:0:0:
195,264,13111,1,4,3:0:0:0:
370,313,13274,1,2,1:2:0:0:
354,214,13437,6,0,L|261:224,1,85,2|0,1:2|3:0,0:0:0:0:
99,235,13763,6,0,P|48:225|65:111,1,170,6|0,1:2|1:0,0:0:0:0:
170,56,14252,2,0,P|151:93|148:135,1,85,2|0,3:2|0:0,0:0:0:0:
274,198,14579,1,2,3:2:0:0:
324,113,14742,2,0,L|233:125,1,85,2|0,1:2|0:0,0:0:0:0:
189,262,15068,5,2,3:0:0:0:
189,262,15231,1,4,3:0:0:0:
330,314,15394,2,0,P|349:276|346:234,1,85,2|0,1:2|3:0,0:0:0:0:
189,180,15720,6,0,L|90:196,1,85,2|0,1:2|0:0,0:0:0:0:
12,134,16046,2,0,P|48:113|91:110,1,85,2|4,1:2|3:0,0:0:0:0:
200,66,16372,5,6,0:0:0:0:
200,66,16535,1,0,3:0:0:0:
271,216,16698,2,0,L|246:310,1,85,4|0,1:3|0:0,0:0:0:0:
249,298,17024,6,0,P|317:251|397:271,1,170,6|0,1:2|3:0,0:0:0:0:
295,368,17513,1,8,3:0:0:0:
168,276,17676,6,0,L|71:289,1,85,6|0,1:2|0:0,0:0:0:0:
278,186,18002,2,0,L|375:199,1,85,0|0,1:0|3:0,0:0:0:0:
466,128,18329,5,6,0:0:0:0:
328,151,18492,1,4,3:0:0:0:
267,34,18655,1,0,1:0:0:0:
292,237,18818,1,4,3:0:0:0:
489,236,18981,6,0,L|392:223,1,85,6|0,0:0|0:0,0:0:0:0:
256,192,19307,12,0,21426,0:0:0:0:
197,310,21590,6,0,L|45:291,1,152.999995330811,6|0,3:2|1:0,0:0:0:0:
10,207,22079,2,0,P|37:159|147:164,1,152.999995330811,0|8,0:0|3:0,0:0:0:0:
127,147,22731,2,0,B|171:192|171:192|204:90,1,152.999995330811,2|4,1:2|3:0,0:0:0:0:
279,35,23220,1,0,1:0:0:0:
279,35,23383,2,0,L|285:120,1,76.4999976654053,0|4,0:0|3:0,0:0:0:0:
386,128,23709,2,0,L|380:213,1,76.4999976654053,8|2,3:0|1:2,0:0:0:0:
285,231,24035,1,8,3:0:0:0:
334,311,24198,6,0,P|279:261|208:279,1,152.999995330811,2|4,0:0|1:3,0:0:0:0:
97,329,24687,1,0,0:0:0:0:
41,258,24850,2,0,L|0:247,2,38.2499988327027,2|0|8,3:2|0:0|3:0,0:0:0:0:
126,197,25176,5,0,1:0:0:0:
126,197,25339,2,0,P|145:150|80:70,1,152.999995330811,2|2,3:2|3:2,0:0:0:0:
175,132,25829,2,0,L|267:122,1,76.4999976654053,2|4,1:2|3:0,0:0:0:0:
89,234,26155,2,0,L|-3:244,1,76.4999976654053,0|4,0:0|3:0,0:0:0:0:
188,304,26481,5,2,1:2:0:0:
207,306,26562,1,0,3:0:0:0:
226,308,26644,1,0,1:2:0:0:
245,310,26725,1,0,3:0:0:0:
264,312,26807,1,6,3:2:0:0:
346,293,26970,6,0,P|357:251|344:209,1,76.4999976654053,0|0,0:0|1:0,0:0:0:0:
280,116,27296,2,0,P|269:158|282:200,1,76.4999976654053,0|2,3:0|0:0,0:0:0:0:
276,189,27785,2,0,P|283:151|272:115,1,76.4999976654053,2|2,1:2|0:0,0:0:0:0:
161,93,28111,2,0,L|72:103,1,76.4999976654053,2|8,3:2|3:0,0:0:0:0:
30,257,28437,6,0,P|81:265|146:183,1,152.999995330811,0|4,1:0|3:0,0:0:0:0:
238,259,28926,1,2,3:2:0:0:
238,259,29089,2,0,L|224:347,1,76.4999976654053,0|8,1:0|3:0,0:0:0:0:
359,343,29415,6,0,P|387:293|323:215,1,152.999995330811,0|2,0:0|1:2,0:0:0:0:
266,149,29905,2,0,L|359:137,1,76.4999976654053,4|2,3:0|0:0,0:0:0:0:
452,178,30231,1,4,3:0:0:0:
506,105,30394,2,0,L|413:93,1,76.4999976654053,0|2,1:0|0:0,0:0:0:0:
430,95,30883,5,4,3:0:0:0:
358,30,31046,2,0,P|339:62|339:99,1,76.4999976654053,0|0,1:0|0:0,0:0:0:0:
225,235,31372,2,0,P|244:202|244:165,1,76.4999976654053,8|2,1:3|0:0,0:0:0:0:
122,133,31698,2,0,L|34:143,1,76.4999976654053,6|2,1:2|3:0,0:0:0:0:
162,306,32025,6,0,B|213:334|213:334|345:304,1,187.000005706787,6|0,1:2|1:0,0:0:0:0:
338,305,32676,2,0,P|351:269|347:231,1,76.4999976654053,4|2,3:0|3:2,0:0:0:0:
226,119,33002,5,0,1:0:0:0:
174,187,33165,2,0,P|246:200|304:153,1,152.999995330811,2|2,3:2|3:2,0:0:0:0:
140,106,33655,1,0,1:0:0:0:
164,270,33818,1,0,1:0:0:0:
140,106,33981,1,2,3:2:0:0:
28,214,34144,1,0,1:0:0:0:
209,187,34307,1,8,1:3:0:0:
475,176,34633,6,0,L|374:165,1,76.4999976654053,6|0,3:2|1:0,0:0:0:0:
398,167,35122,2,0,P|357:106|394:44,1,152.999995330811,6|0,3:2|0:0,0:0:0:0:
491,34,35611,2,0,P|479:83|452:100,1,76.4999976654053,2|0,3:2|1:0,0:0:0:0:
262,90,35937,6,0,L|244:15,1,76.4999976654053,6|2,3:2|1:2,0:0:0:0:
170,272,36426,6,0,L|152:346,1,76.4999976654053,0|2,1:0|0:0,0:0:0:0:
104,209,36752,1,0,1:0:0:0:
256,257,36915,1,8,3:0:0:0:
341,136,37079,1,0,1:0:0:0:
256,257,37242,6,0,L|216:89,1,170,6|0,3:2|1:0,0:0:0:0:
152,243,37731,1,2,3:2:0:0:
152,243,37812,1,0,3:0:0:0:
152,243,37894,1,0,3:0:0:0:
313,209,38057,2,0,P|280:182|239:182,1,85,2|2,3:2|1:2,0:0:0:0:
315,318,38383,6,0,P|380:318|436:217,1,170,2|8,3:2|3:0,0:0:0:0:
386,92,38872,1,2,1:2:0:0:
304,124,39035,2,0,L|314:218,1,85,2|0,3:2|3:0,0:0:0:0:
454,132,39361,2,0,P|465:81|442:34,1,85,2|0,3:2|1:0,0:0:0:0:
284,29,39687,1,4,3:0:0:0:
238,199,39850,6,0,L|205:368,1,170,2|2,3:2|0:0,0:0:0:0:
205,365,40339,2,0,P|192:315|203:276,1,85,2|0,1:2|0:0,0:0:0:0:
231,117,40665,2,0,P|244:167|233:206,1,85,2|2,3:2|1:2,0:0:0:0:
81,266,40992,6,0,L|17:280,2,42.5,2|0|8,0:0|0:0|3:0,0:0:0:0:
283,289,41318,1,2,3:2:0:0:
343,237,41481,2,0,L|364:62,1,170,2|2,1:2|3:2,0:0:0:0:
265,0,41970,1,8,3:0:0:0:
276,145,42133,1,0,1:0:0:0:
422,109,42296,1,2,0:0:0:0:
276,145,42459,6,0,B|172:121|189:173|81:146,1,170,4|2,3:0|1:2,0:0:0:0:
28,97,42948,2,0,P|74:70|119:72,1,85,8|2,3:0|3:2,0:0:0:0:
175,172,43274,1,2,1:2:0:0:
253,14,43437,1,0,1:0:0:0:
175,172,43600,6,0,L|198:263,1,85,2|0,3:2|0:0,0:0:0:0:
350,193,43926,2,0,P|367:154|364:112,1,85,2|0,3:2|1:0,0:0:0:0:
291,81,44252,1,8,3:0:0:0:
355,274,44415,2,0,P|395:264|427:236,1,85,2|8,3:2|3:0,0:0:0:0:
275,216,44742,1,2,1:2:0:0:
275,216,44905,1,0,3:0:0:0:
197,353,45068,6,0,P|116:347|84:272,1,170,2|0,3:2|1:0,0:0:0:0:
184,217,45557,2,0,L|192:265,2,42.5,0|0|2,3:0|1:0|3:2,0:0:0:0:
72,162,45883,1,2,1:2:0:0:
139,46,46046,5,2,1:2:0:0:
139,46,46127,1,0,1:0:0:0:
139,46,46209,1,8,1:3:0:0:
139,46,46290,1,0,0:0:0:0:
139,46,46372,2,0,L|158:146,1,85,2|0,3:2|3:0,0:0:0:0:
243,173,46698,1,8,1:3:0:0:
70,149,46861,1,2,1:2:0:0:
262,161,47024,1,2,1:2:0:0:
50,169,47187,1,0,1:0:0:0:
283,157,47350,1,8,1:3:0:0:
303,161,47431,1,0,1:0:0:0:
324,165,47513,1,0,1:0:0:0:
155,299,49796,6,0,L|144:206,2,85,0|2|2,0:0|3:2|0:0,0:0:0:0:
155,299,50285,1,12,1:3:0:0:
360,207,50448,1,2,1:2:0:0:
272,351,50611,1,2,1:2:0:0:
223,148,50774,1,6,1:2:0:0:
229,128,51263,5,12,1:3:0:0:
278,331,51426,1,2,1:2:0:0:
366,187,51589,1,2,1:2:0:0:
161,279,51752,1,6,1:2:0:0:
144,269,52079,5,12,1:3:0:0:
258,226,52242,2,0,P|268:179|253:135,1,85,2|4,3:2|3:0,0:0:0:0:
99,87,52568,2,0,L|190:102,1,85,2|4,1:2|3:0,0:0:0:0:
320,81,52894,5,6,1:2:0:0:
320,81,53057,1,2,0:0:0:0:
372,167,53220,1,2,1:2:0:0:
237,112,53383,1,2,0:0:0:0:
392,11,53546,6,0,P|402:60|394:94,1,85,6|0,3:3|0:0,0:0:0:0:
475,99,53790,1,2,1:2:0:0:
475,99,53872,2,0,P|454:144|427:167,1,85,0|2,0:0|1:2,0:0:0:0:
262,219,54198,6,0,L|94:192,1,170,4|0,1:3|1:0,0:0:0:0:
239,138,54687,2,0,L|302:126,2,42.5,2|0|0,0:0|0:0|3:0,0:0:0:0:
78,76,55013,1,2,1:2:0:0:
21,240,55176,2,0,P|64:272|104:270,1,85,8|0,1:3|0:0,0:0:0:0:
294,252,55502,6,0,L|182:231,1,85,2|2,1:2|3:2,0:0:0:0:
257,108,55829,1,2,1:2:0:0:
383,287,55992,6,0,P|434:234|368:201,1,170,6|2,3:2|3:2,0:0:0:0:
263,330,56481,1,8,3:0:0:0:
131,269,56644,6,0,P|119:228|124:186,1,85,6|2,3:2|0:0,0:0:0:0:
262,121,56970,1,8,3:0:0:0:
262,121,57133,2,0,L|236:213,1,85,4|2,3:0|0:0,0:0:0:0:
282,348,57459,2,0,B|343:366|343:366|394:328,2,127.5,2|0|2,3:2|3:0|0:0,0:0:0:0:
154,277,58111,6,0,P|115:250|25:310,1,170,6|0,3:2|1:2,0:0:0:0:
244,262,58600,1,0,0:0:0:0:
244,262,58763,2,0,P|263:218|257:169,1,85,2|0,3:2|3:0,0:0:0:0:
335,157,59008,2,0,P|363:195|409:214,1,85,0|0,3:0|0:0,0:0:0:0:
365,288,59252,2,0,P|344:290|327:303,1,42.5,2|0,3:2|0:0,0:0:0:0:
258,346,59415,6,0,B|161:319|180:370|84:346,1,170,2|4,3:2|1:3,0:0:0:0:
25,261,59905,2,0,P|62:242|104:242,1,85,2|8,3:2|3:0,0:0:0:0:
266,190,60231,2,0,P|223:189|186:171,1,85,2|0,0:0|1:0,0:0:0:0:
78,93,60557,1,2,0:0:0:0:
256,108,60720,6,0,L|277:286,1,170,2|2,3:2|1:2,0:0:0:0:
192,339,61209,1,0,3:0:0:0:
192,339,61290,1,0,0:0:0:0:
192,339,61372,1,2,1:2:0:0:
358,294,61535,1,8,3:0:0:0:
156,233,61698,1,2,1:2:0:0:
287,80,61861,1,0,1:0:0:0:
293,233,62024,6,0,P|269:189|192:166,1,127.5,6|6,1:2|1:2,0:0:0:0:
104,329,62513,1,6,1:2:0:0:
104,329,62676,1,2,1:2:0:0:
99,297,62759,1,0,3:0:0:0:
95,265,62839,1,8,3:0:0:0:
90,234,62922,1,0,3:0:0:0:
86,202,63002,1,4,1:3:0:0:
114,177,63084,5,0,3:0:0:0:
109,145,63166,1,4,3:0:0:0:
105,113,63247,1,0,3:0:0:0:
100,82,63329,6,0,B|235:64|235:64|194:125,1,203.999993774414,6|2,1:2|1:2,0:0:0:0:
237,266,63818,2,0,P|237:224|262:190,1,85,0|0,3:0|3:0,0:0:0:0:
428,197,64144,2,0,P|391:217|349:213,1,85,2|0,3:2|1:0,0:0:0:0:
301,8,64470,6,0,P|363:57|332:130,1,170,2|0,3:2|0:0,0:0:0:0:
118,119,64959,1,0,1:3:0:0:
221,164,65122,2,0,L|207:62,1,85,2|8,3:2|3:0,0:0:0:0:
29,112,65448,1,2,3:2:0:0:
111,154,65611,2,0,L|97:256,1,85,4|0,1:3|3:0,0:0:0:0:
130,365,65937,6,0,P|190:310|270:328,1,170,4|2,3:0|1:2,0:0:0:0:
393,238,66426,2,0,P|401:279|390:320,1,85,2|8,3:2|3:0,0:0:0:0:
425,161,66752,2,0,P|464:174|494:204,1,85,2|4,0:0|3:0,0:0:0:0:
304,252,67079,1,2,3:2:0:0:
249,89,67242,6,0,P|290:77|329:179,1,170,2|2,1:2|1:2,0:0:0:0:
223,197,67731,2,0,L|132:168,1,85,2|8,0:0|3:0,0:0:0:0:
33,266,68057,2,0,P|74:271|112:254,1,85,2|4,0:0|3:0,0:0:0:0:
225,308,68383,1,2,3:2:0:0:
323,238,68546,5,6,3:2:0:0:
225,308,68709,1,0,3:0:0:0:
398,276,68872,1,2,1:2:0:0:
321,112,69035,1,6,3:2:0:0:
321,112,69361,5,2,1:2:0:0:
289,243,69524,1,0,3:0:0:0:
234,34,69687,1,6,3:2:0:0:
234,33,70013,6,0,P|220:73|227:115,1,85,4|2,3:0|1:2,0:0:0:0:
301,286,70339,5,2,3:2:0:0:
193,207,70502,1,0,3:0:0:0:
140,324,70665,5,2,1:2:0:0:
140,324,70829,1,2,1:2:0:0:
76,154,70992,1,8,3:0:0:0:
276,214,71155,2,0,L|384:196,1,85,2|2,3:2|0:0,0:0:0:0:
191,179,71481,6,0,P|152:129|158:68,1,127.5,6|0,1:2|0:0,0:0:0:0:
212,17,71807,1,6,1:2:0:0:
313,290,72051,1,2,3:2:0:0:
272,129,72296,1,2,1:2:0:0:
219,276,72460,6,0,B|149:277|105:217|105:217|117:254|98:291,1,203.999993774414,6|2,1:2|1:2,0:0:0:0:
4,210,72948,2,0,P|4:167|26:132,1,85,0|2,0:0|0:0,0:0:0:0:
143,120,73274,1,0,3:0:0:0:
143,120,73356,2,0,L|240:104,1,85,0|0,3:0|0:0,0:0:0:0:
302,105,73600,2,0,L|295:152,1,42.5,0|0,3:0|3:0,0:0:0:0:
293,234,73763,6,0,P|357:183|437:202,1,170,6|0,1:2|1:0,0:0:0:0:
289,311,74252,2,0,L|192:291,1,85,2|0,0:0|3:0,0:0:0:0:
73,308,74579,1,2,3:2:0:0:
39,193,74742,1,4,3:0:0:0:
140,221,74905,6,0,P|160:172|156:132,1,85,2|2,3:2|1:2,0:0:0:0:
11,66,75231,2,0,L|108:89,1,85,2|0,0:0|1:0,0:0:0:0:
269,59,75557,2,0,L|186:39,1,85,0|4,0:0|3:0,0:0:0:0:
224,217,75883,1,0,3:0:0:0:
303,199,76046,2,0,P|330:145|321:108,1,85,4|2,3:0|3:2,0:0:0:0:
223,301,76372,6,0,L|412:278,1,170,6|0,1:2|1:0,0:0:0:0:
193,335,76861,6,0,L|382:312,1,170,6|2,3:2|0:0,0:0:0:0:
385,175,77350,2,0,P|429:196|438:246,1,85,4|2,3:0|0:0,0:0:0:0:
234,191,77676,6,0,L|208:10,1,170,6|0,1:2|1:0,0:0:0:0:
49,132,78165,1,6,3:2:0:0:
49,132,78329,2,0,L|145:154,1,85,2|0,3:2|0:0,0:0:0:0:
179,97,78573,1,2,0:0:0:0:
179,97,78655,2,0,L|275:119,1,85,0|2,1:0|0:0,0:0:0:0:
236,314,78981,6,0,P|214:277|210:235,1,85,12|2,1:3|3:2,0:0:0:0:
370,188,79307,2,0,P|391:224|395:266,1,85,2|8,1:2|3:0,0:0:0:0:
341,310,79551,1,0,0:0:0:0:
341,310,79633,2,0,L|236:293,1,85,2|8,3:2|3:0,0:0:0:0:
130,211,79959,2,0,L|25:194,1,85,2|2,1:2|3:2,0:0:0:0:
101,106,80285,5,2,1:2:0:0:
231,175,80448,1,4,3:0:0:0:
266,23,80611,1,2,1:2:0:0:
231,175,80774,2,0,L|424:137,1,170,4|4,1:3|3:0,0:0:0:0:
310,97,81263,2,0,P|297:148|316:178,1,85,2|2,1:2|3:2,0:0:0:0:
413,364,81589,6,0,P|428:324|323:277,1,170,6|8,1:2|1:3,0:0:0:0:
262,329,82079,1,2,0:0:0:0:
181,295,82242,2,0,L|81:278,1,85,8|2,3:0|0:0,0:0:0:0:
240,226,82568,2,0,P|237:182|207:147,1,85,2|0,1:2|0:0,0:0:0:0:
93,152,82894,6,0,P|40:156|58:66,1,170,2|2,1:2|1:2,0:0:0:0:
238,64,83383,2,0,L|217:156,1,85,2|2,0:0|3:2,0:0:0:0:
181,295,83709,2,0,L|160:203,1,85,0|0,3:0|1:0,0:0:0:0:
367,203,84035,5,2,0:0:0:0:
416,272,84198,2,0,P|361:290|283:202,1,170,6|0,1:2|1:0,0:0:0:0:
429,143,84687,5,4,3:0:0:0:
471,225,84850,2,0,L|449:321,1,85,2|8,1:2|3:0,0:0:0:0:
281,172,85176,2,0,L|303:76,1,85,2|0,1:2|3:0,0:0:0:0:
179,219,85502,5,2,1:2:0:0:
366,189,85665,1,0,1:0:0:0:
179,219,85829,2,0,P|119:211|84:183,1,85,2|0,1:2|1:0,0:0:0:0:
219,103,86155,1,2,1:2:0:0:
267,273,86318,1,2,1:2:0:0:
219,103,86481,1,2,1:2:0:0:
149,306,86644,1,2,1:2:0:0:
97,101,86806,1,6,2:0:0:0:
256,192,86970,12,0,89415,0:0:0:0:
