osu file format v14

[General]
AudioFilename: audio.mp3
AudioLeadIn: 2000
PreviewTime: 52812
Countdown: 0
SampleSet: Soft
StackLeniency: 0.4
Mode: 0
LetterboxInBreaks: 0
WidescreenStoryboard: 1

[Editor]
DistanceSpacing: 1.2
BeatDivisor: 4
GridSize: 4
TimelineZoom: 1.2

[Metadata]
Title:VOICE (TV Size)
TitleUnicode:VOICE (TV Size)
Artist:ZAQ
ArtistUnicode:ZAQ
Creator:Syph
Version:Normal
Source:中二病でも恋がしたい!戀
Tags:Season 2 two byou NOISY Lab. Ippei Egusa 江草一平 Koichiro Muroya Nijine japanese pop jpop j-pop op chuunibyou demo koi ga shitai ren Chu-2 byo anime opening usaha nana abe takekii hanasaka yui
BeatmapID:3931693
BeatmapSetID:1906618

[Difficulty]
HPDrainRate:3
CircleSize:3
OverallDifficulty:4.5
ApproachRate:5.5
SliderMultiplier:0.999999999999999
SliderTickRate:1

[Events]
//Background and Video events
0,0,"chuuuuuuuuuuuuu.jpg",0,0
//Break Periods
//Storyboard Layer 0 (Background)
//Storyboard Layer 1 (Fail)
//Storyboard Layer 2 (Pass)
//Storyboard Layer 3 (Foreground)
//Storyboard Layer 4 (Overlay)
//Storyboard Sound Samples

[TimingPoints]
720,326.086956521739,4,2,2,57,1,0
720,-125,4,2,2,57,0,0
3002,-125,4,2,2,60,0,0
3328,-125,4,2,2,63,0,0
4306,-125,4,2,2,68,0,0
8546,-100,4,2,2,72,0,0
21589,-125,4,2,2,62,0,0
34796,-125,4,2,2,68,0,0
37242,-111.111111111111,4,2,2,70,0,0
47676,-142.857142857143,4,2,2,65,0,0
48981,-125,4,2,2,56,0,0
50285,-100,4,2,2,72,0,0
52893,-90.9090909090909,4,2,2,83,0,1
68546,-100,4,2,2,83,0,0
71806,-100,4,2,2,83,0,1
72459,-90.9090909090909,4,2,2,83,0,1
78980,-86.9565217391304,4,2,2,83,0,1
81263,-90.9090909090909,4,2,2,83,0,1
86806,-90.9090909090909,4,2,2,83,0,0
87296,-125,4,2,2,70,0,0
88274,-125,4,2,2,65,0,0
89415,-125,4,2,2,5,0,0

[Colours]
Combo1 : 187,103,229
Combo2 : 255,213,128
Combo3 : 242,121,97
Combo4 : 255,140,179

[HitObjects]
134,154,720,6,0,L|226:174,1,79.9999999999999,0|2,0:0|0:0,0:0:0:0:
250,192,1209,2,0,P|254:213|247:239,2,40
291,176,1698,2,0,P|312:172|338:179,2,40,2|0|2,0:0|0:0|0:0,0:0:0:0:
243,6,2676,2,0,P|208:10|172:82,1,120,2|2,0:0|0:0,0:0:0:0:
177,118,3329,5,2,3:2:0:0:
431,39,4307,1,2,1:2:0:0:
431,39,4470,2,0,L|414:117,1,79.9999999999999,6|0,1:2|0:0,0:0:0:0:
448,189,5122,2,0,L|435:244,1,40,0|0,1:0|0:0,0:0:0:0:
432,267,5448,1,0,1:0:0:0:
380,328,5774,6,0,P|384:349|377:375,2,40,6|0|4,1:2|3:0|3:0,0:0:0:0:
341,317,6263,2,0,L|262:333,1,79.9999999999999,6|8,1:2|3:0,0:0:0:0:
223,325,6752,2,0,L|144:341,1,79.9999999999999,6|4,1:2|3:0,0:0:0:0:
107,326,7242,1,6,1:2:0:0:
50,269,7568,1,12,3:0:0:0:
50,269,7731,2,0,P|45:230|70:199,1,79.9999999999999,6|4,1:2|3:0,0:0:0:0:
90,166,8220,2,0,L|129:157,1,40,2|2,1:2|1:2,0:0:0:0:
161,127,8546,6,0,P|208:119|246:149,1,99.9999999999999,6|0,0:0|1:0,0:0:0:0:
342,194,9198,1,0,0:0:0:0:
342,194,9361,2,0,L|391:182,1,50,0|2,3:0|1:2,0:0:0:0:
422,143,9687,2,0,P|466:160|485:205,1,99.9999999999999,0|2,0:0|3:2,0:0:0:0:
451,243,10176,1,0,1:0:0:0:
458,347,10502,1,0,0:0:0:0:
458,347,10665,2,0,L|507:358,2,50,2|2|4,3:2|1:2|3:0,0:0:0:0:
408,353,11155,5,0,3:0:0:0:
308,364,11481,2,0,L|203:341,1,99.9999999999999,2|4,1:2|1:3,0:0:0:0:
166,365,11970,2,0,L|117:354,1,50,2|2,1:2|3:2,0:0:0:0:
71,361,12296,1,4,3:0:0:0:
71,361,12459,2,0,L|93:263,1,99.9999999999999,6|12,1:2|1:3,0:0:0:0:
127,227,12948,2,0,L|176:237,2,50,6|4|2,1:2|3:0|1:2,0:0:0:0:
97,186,13437,1,2,1:2:0:0:
25,115,13763,6,0,P|19:67|49:29,1,99.9999999999999,6|0,1:2|1:0,0:0:0:0:
97,13,14252,1,2,3:2:0:0:
176,91,14579,1,2,3:2:0:0:
176,91,14742,2,0,P|223:83|261:114,1,99.9999999999999,2|2,1:2|3:0,0:0:0:0:
264,213,15393,1,2,1:2:0:0:
363,225,15719,1,2,1:2:0:0:
410,137,16046,2,0,L|460:125,1,50,2|4,1:2|3:0,0:0:0:0:
497,156,16372,6,0,L|451:360,2,200,6|6|6,0:0|1:2|1:2,0:0:0:0:
450,67,18002,2,0,L|439:18,1,50,0|0,1:0|3:0,0:0:0:0:
388,16,18329,2,0,L|234:50,1,150,6|4,0:0|3:0,0:0:0:0:
212,88,18980,1,6,0:0:0:0:
256,192,19062,12,0,20937,0:0:0:0:
120,30,21589,6,0,P|81:25|50:50,1,79.9999999999999,6|0,3:2|1:0,0:0:0:0:
29,83,22079,2,0,L|65:244,1,160,0|2,0:0|1:2,0:0:0:0:
23,308,23057,2,0,P|19:335|36:356,1,40,4|0,3:0|1:0,0:0:0:0:
59,365,23383,2,0,L|154:343,1,79.9999999999999,0|8,0:0|3:0,0:0:0:0:
175,359,23872,1,2,1:2:0:0:
222,294,24198,6,0,P|220:274|227:248,2,40,2|2|4,0:0|1:2|1:3,0:0:0:0:
295,326,24850,2,0,L|279:399,2,59.9999999999999,2|2|2,3:2|0:0|3:2,0:0:0:0:
363,282,25665,1,2,3:2:0:0:
363,282,25829,2,0,L|416:269,1,40,2|4,1:2|3:0,0:0:0:0:
439,285,26155,1,0,0:0:0:0:
494,227,26481,1,2,1:2:0:0:
466,151,26807,6,0,L|479:92,2,59.9999999999999,6|2|0,3:2|0:0|3:0,0:0:0:0:
429,167,27459,1,2,0:0:0:0:
368,114,27785,2,0,L|287:131,1,79.9999999999999,2|2,1:2|3:2,0:0:0:0:
255,122,28274,1,8,3:0:0:0:
255,122,28437,1,0,1:0:0:0:
194,174,28763,2,0,P|156:180|126:155,1,79.9999999999999,4|0,3:0|1:0,0:0:0:0:
97,126,29252,6,0,P|59:120|29:145,1,79.9999999999999,8|2,3:0|1:2,0:0:0:0:
1,174,29742,1,2,1:2:0:0:
12,253,30068,2,0,L|-4:326,2,59.9999999999999,2|2|2,0:0|0:0|0:0,0:0:0:0:
94,240,30883,1,4,3:0:0:0:
94,240,31046,2,0,P|132:234|162:259,1,79.9999999999999,0|8,1:0|1:3,0:0:0:0:
177,337,31698,1,6,1:2:0:0:
249,371,32024,6,0,L|410:335,1,160,6|4,1:2|3:0,0:0:0:0:
432,307,32839,2,0,L|472:298,2,40,2|0|2,3:2|1:0|3:2,0:0:0:0:
372,253,33492,2,0,L|363:213,1,40,2|0,3:2|1:0,0:0:0:0:
334,187,33818,2,0,L|314:97,1,79.9999999999999,0|0,1:0|1:0,0:0:0:0:
335,73,34307,1,8,1:3:0:0:
399,26,34633,6,0,P|437:20|491:80,2,120,6|6|2,3:2|3:2|3:2,0:0:0:0:
329,66,35937,2,0,P|291:72|237:12,2,120,6|0|8,3:2|1:0|3:0,0:0:0:0:
398,105,37242,6,0,L|419:204,1,89.999997253418,6|0,3:2|1:0,0:0:0:0:
445,227,37731,1,2,3:2:0:0:
420,313,38057,2,0,L|374:322,1,44.999998626709,2|2,3:2|1:2,0:0:0:0:
335,340,38383,2,0,P|291:346|257:318,1,89.999997253418,2|8,3:2|3:0,0:0:0:0:
243,281,38872,1,2,1:2:0:0:
243,281,39035,1,2,3:2:0:0:
197,203,39361,2,0,L|206:154,2,44.999998626709,2|0|4,3:2|1:0|3:0,0:0:0:0:
162,231,39850,6,0,P|119:237|86:209,1,89.999997253418,2|2,3:2|0:0,0:0:0:0:
51,178,40339,2,0,L|70:89,1,89.999997253418,2|2,1:2|3:2,0:0:0:0:
105,62,40828,1,2,1:2:0:0:
105,62,40991,1,2,0:0:0:0:
185,102,41317,2,0,L|229:92,1,44.999998626709,2|2,3:2|1:2,0:0:0:0:
264,64,41644,2,0,L|355:44,1,89.999997253418,4|8,3:0|3:0,0:0:0:0:
375,6,42133,1,0,1:0:0:0:
464,12,42459,5,4,3:0:0:0:
469,101,42785,2,0,L|523:89,2,44.999998626709,2|8|2,1:2|3:0|3:2,0:0:0:0:
433,128,43274,1,2,1:2:0:0:
489,198,43600,2,0,L|469:288,1,89.999997253418,2|2,3:2|3:2,0:0:0:0:
485,328,44089,2,0,P|451:355|408:349,1,89.999997253418,0|2,1:0|3:2,0:0:0:0:
375,381,44579,1,8,3:0:0:0:
302,337,44905,1,0,3:0:0:0:
302,337,45068,6,0,P|258:342|225:314,1,89.999997253418,2|0,3:2|1:0,0:0:0:0:
194,281,45557,2,0,L|103:300,1,89.999997253418,0|2,3:0|1:2,0:0:0:0:
83,338,46046,1,2,1:2:0:0:
22,271,46372,2,0,P|-6:236|-1:194,1,89.999997253418,2|8,3:2|1:3,0:0:0:0:
28,108,47024,2,0,P|42:72|89:55,1,89.999997253418,2|8,1:2|1:3,0:0:0:0:
135,49,47513,1,0,1:0:0:0:
135,49,47676,6,0,L|280:80,2,139.999995727539,2|2|2,3:2|0:0|3:2,0:0:0:0:
358,275,50285,6,0,L|407:263,2,50,12|2|2,1:3|1:2|1:2,0:0:0:0:
319,265,50774,1,6,1:2:0:0:
220,196,51263,2,0,L|206:134,2,50,12|2|2,1:3|1:2|1:2,0:0:0:0:
210,235,51752,1,6,1:2:0:0:
135,265,52079,1,12,1:3:0:0:
135,265,52242,2,0,P|103:302|110:349,1,99.9999999999999,2|2,3:2|1:2,0:0:0:0:
193,379,52894,6,0,L|246:366,1,55.0000016784668,6|2,1:2|0:0,0:0:0:0:
294,379,53220,2,0,L|347:366,1,55.0000016784668,2|2,1:2|0:0,0:0:0:0:
349,316,53546,2,0,P|344:274|371:243,2,82.5000025177002,6|2|2,3:3|1:2|1:2,0:0:0:0:
392,340,54198,1,4,1:3:0:0:
476,286,54524,1,0,1:0:0:0:
476,286,54687,2,0,L|499:175,1,110.000003356934,2|2,0:0|1:2,0:0:0:0:
458,149,55176,1,8,1:3:0:0:
506,62,55502,6,0,P|460:32|408:41,1,110.000003356934,2|2,1:2|1:2,0:0:0:0:
359,30,55992,2,0,P|311:53|292:104,1,110.000003356934,6|2,3:2|3:2,0:0:0:0:
261,142,56481,2,0,L|197:127,1,55.0000016784668,8|6,3:0|3:2,0:0:0:0:
159,116,56807,1,2,0:0:0:0:
103,197,57133,1,4,3:0:0:0:
4,205,57459,2,0,P|-1:247|26:278,2,82.5000025177002,2|0|2,3:2|3:0|0:0,0:0:0:0:
1,155,58111,5,6,3:2:0:0:
35,62,58437,1,0,1:2:0:0:
125,20,58763,2,0,P|162:15|201:50,2,82.5000025177002,2|0|2,3:2|3:0|3:2,0:0:0:0:
125,69,59415,2,0,L|148:180,1,110.000003356934,2|4,3:2|1:3,0:0:0:0:
121,218,59904,2,0,L|144:329,1,110.000003356934,2|2,3:2|0:0,0:0:0:0:
152,374,60394,2,0,L|210:362,1,55.0000016784668,0|2,1:0|0:0,0:0:0:0:
243,330,60720,5,2,3:2:0:0:
327,383,61046,1,2,1:2:0:0:
343,285,61372,2,0,P|395:276|440:305,1,110.000003356934,2|2,1:2|1:2,0:0:0:0:
490,330,61861,1,0,1:0:0:0:
490,330,62024,2,0,L|509:239,2,82.5000025177002,6|6|6,1:2|1:2|1:2,0:0:0:0:
483,379,62676,1,2,1:2:0:0:
386,208,63329,6,0,P|333:199|288:228,1,110.000003356934,6|2,1:2|1:2,0:0:0:0:
244,207,63818,2,0,P|234:150|266:102,2,110.000003356934,0|2|2,3:0|3:2|3:2,0:0:0:0:
207,240,64633,1,2,1:2:0:0:
126,193,64959,1,0,1:3:0:0:
126,193,65122,2,0,L|102:302,1,110.000003356934,2|2,3:2|3:2,0:0:0:0:
119,346,65611,1,4,1:3:0:0:
213,374,65937,6,0,P|265:382|310:353,1,110.000003356934,4|2,3:0|1:2,0:0:0:0:
323,303,66426,2,0,P|375:294|420:323,1,110.000003356934,2|2,3:2|0:0,0:0:0:0:
448,366,66915,1,4,3:0:0:0:
490,276,67242,2,0,P|498:223|469:178,1,110.000003356934,2|2,1:2|1:2,0:0:0:0:
490,133,67731,2,0,P|470:82|423:58,1,110.000003356934,2|2,0:0|0:0,0:0:0:0:
382,28,68220,1,4,3:0:0:0:
336,105,68546,6,0,B|345:152|345:152|354:165|354:165|362:203,1,99.9999999999999,6|2,3:2|1:2,0:0:0:0:
343,241,69035,2,0,P|295:249|254:222,1,99.9999999999999,6|2,3:2|1:2,0:0:0:0:
226,193,69524,1,0,3:0:0:0:
226,193,69687,1,6,3:2:0:0:
217,103,70013,2,0,L|207:54,1,50,4|2,3:0|1:2,0:0:0:0:
177,20,70339,1,2,3:2:0:0:
101,69,70665,2,0,L|52:58,2,50,2|2|8,1:2|1:2|3:0,0:0:0:0:
117,111,71155,1,2,3:2:0:0:
64,184,71481,5,6,1:2:0:0:
117,256,71807,2,0,L|136:347,2,74.9999999999999,6|2|2,1:2|3:2|1:2,0:0:0:0:
158,229,72459,5,6,1:2:0:0:
250,263,72785,1,2,1:2:0:0:
284,355,73111,2,0,L|185:375,2,82.5000025177002,2|0|0,0:0|3:0|0:0,0:0:0:0:
332,367,73763,6,0,P|360:321|351:268,1,110.000003356934,6|0,1:2|1:0,0:0:0:0:
330,222,74252,1,2,0:0:0:0:
421,184,74579,2,0,L|475:172,1,55.0000016784668,2|4,3:2|3:0,0:0:0:0:
505,133,74905,2,0,P|512:79|484:35,1,110.000003356934,2|2,3:2|0:0,0:0:0:0:
434,27,75394,1,0,1:0:0:0:
340,58,75720,1,4,3:0:0:0:
258,2,76046,1,4,3:0:0:0:
171,49,76372,6,0,L|62:72,1,110.000003356934,6|0,1:2|1:0,0:0:0:0:
22,46,76861,2,0,P|-9:90|0:143,1,110.000003356934,6|2,3:2|0:0,0:0:0:0:
29,182,77350,1,4,3:0:0:0:
102,247,77676,2,0,L|215:222,1,110.000003356934,6|0,1:2|1:0,0:0:0:0:
252,257,78165,1,6,3:2:0:0:
252,257,78328,2,0,L|366:232,1,110.000003356934,2|0,3:2|1:0,0:0:0:0:
448,180,78981,6,0,L|504:167,2,57.5000010967254,12|2|2,1:3|3:2|1:2,0:0:0:0:
412,151,79470,1,8,3:0:0:0:
412,151,79633,2,0,L|353:137,2,57.5000010967254,2|8|2,3:2|3:0|1:2,0:0:0:0:
443,111,80122,1,2,3:2:0:0:
443,111,80285,2,0,L|455:54,1,57.5000010967254,2|4,1:2|3:0,0:0:0:0:
426,18,80611,1,2,1:2:0:0:
426,18,80774,1,4,1:3:0:0:
330,50,81100,1,4,3:0:0:0:
330,50,81263,2,0,L|276:62,1,55.0000016784668,2|2,1:2|3:2,0:0:0:0:
252,105,81589,6,0,P|200:114|155:84,1,110.000003356934,6|8,1:2|1:3,0:0:0:0:
73,26,82242,1,8,3:0:0:0:
0,92,82568,1,2,1:2:0:0:
59,173,82894,2,0,L|35:281,1,110.000003356934,2|2,1:2|1:2,0:0:0:0:
22,328,83383,2,0,P|72:340|119:313,1,110.000003356934,2|0,0:0|3:0,0:0:0:0:
155,277,83872,1,0,1:0:0:0:
235,335,84198,6,0,B|286:324|286:324|301:313|301:313|344:304,1,110.000003356934,6|0,1:2|1:0,0:0:0:0:
384,281,84687,1,4,3:0:0:0:
384,281,84850,2,0,P|394:224|361:175,1,110.000003356934,2|2,1:2|1:2,0:0:0:0:
316,91,85502,2,0,L|261:78,1,55.0000016784668,2|0,1:2|1:0,0:0:0:0:
229,115,85828,2,0,L|174:102,1,55.0000016784668,2|0,1:2|1:0,0:0:0:0:
134,131,86155,2,0,L|121:185,1,55.0000016784668,2|2,1:2|1:2,0:0:0:0:
150,223,86481,2,0,L|137:277,1,55.0000016784668,2|2,1:2|1:2,0:0:0:0:
161,319,86807,1,6,2:0:0:0:
256,192,86969,12,0,89415,0:0:0:0:
