osu file format v14

[General]
AudioFilename: audio.mp3
AudioLeadIn: 2000
PreviewTime: 52812
Countdown: 0
SampleSet: Soft
StackLeniency: 0.4
Mode: 0
LetterboxInBreaks: 0
WidescreenStoryboard: 1

[Editor]
DistanceSpacing: 1.2
BeatDivisor: 4
GridSize: 4
TimelineZoom: 1.6

[Metadata]
Title:VOICE (TV Size)
TitleUnicode:VOICE (TV Size)
Artist:ZAQ
ArtistUnicode:ZAQ
Creator:Syph
Version:Extra
Source:中二病でも恋がしたい!戀
Tags:Season 2 two byou NOISY Lab. Ippei Egusa 江草一平 Koichiro Muroya Nijine japanese pop jpop j-pop op chuunibyou demo koi ga shitai ren Chu-2 byo anime opening usaha nana abe takekii hanasaka yui
BeatmapID:3966046
BeatmapSetID:1906618

[Difficulty]
HPDrainRate:5.4
CircleSize:4
OverallDifficulty:8.6
ApproachRate:9.3
SliderMultiplier:1.8
SliderTickRate:1

[Events]
//Background and Video events
0,0,"chuuuuuuuuuuuuu.jpg",0,0
//Break Periods
//Storyboard Layer 0 (Background)
//Storyboard Layer 1 (Fail)
//Storyboard Layer 2 (Pass)
//Storyboard Layer 3 (Foreground)
//Storyboard Layer 4 (Overlay)
//Storyboard Sound Samples

[TimingPoints]
720,326.086956521739,4,2,2,57,1,0
720,-126.582278481013,4,2,2,57,0,0
964,-112.359550561798,4,2,2,5,0,0
1046,-112.359550561798,4,2,2,57,0,0
3002,-112.359550561798,4,2,2,60,0,0
3328,-112.359550561798,4,2,2,63,0,0
4306,-101.010101010101,4,2,2,68,0,0
8546,-91.743119266055,4,2,2,72,0,0
8790,-91.743119266055,4,2,2,5,0,0
8872,-91.743119266055,4,2,2,72,0,0
14986,-91.743119266055,4,2,2,5,0,0
15067,-91.743119266055,4,2,2,72,0,0
17349,-91.743119266055,4,2,2,72,0,0
17921,-91.743119266055,4,2,2,5,0,0
18002,-91.743119266055,4,2,2,72,0,0
21589,-112.359550561798,4,2,2,62,0,0
29497,-112.359550561798,4,2,2,5,0,0
29578,-112.359550561798,4,2,2,62,0,0
34796,-91.7431192660552,4,2,2,68,0,0
35040,-91.7431192660552,4,2,2,5,0,0
35122,-91.7431192660552,4,2,2,68,0,0
35285,-67.1140939597315,4,2,2,68,0,0
35529,-67.1140939597315,4,2,2,5,0,0
35611,-67.1140939597315,4,2,2,68,0,0
36100,-84.0336134453781,4,2,2,68,0,0
37242,-91.743119266055,4,2,2,70,0,0
47676,-91.743119266055,4,2,2,65,0,0
48981,-344.827586206897,4,2,2,56,0,0
50203,-344.827586206897,4,2,2,5,0,0
50285,-344.827586206897,4,2,2,72,0,0
52242,-84.0336134453781,4,2,2,72,0,0
52893,-81.3008130081301,4,2,2,83,0,1
54442,-81.3008130081301,4,2,2,5,0,1
54524,-81.3008130081301,4,2,2,83,0,1
56236,-81.3008130081301,4,2,2,5,0,1
56318,-81.3008130081301,4,2,2,83,0,1
58355,-81.3008130081301,4,2,2,5,0,1
58437,-81.3008130081301,4,2,2,83,0,1
59415,-69.9300699300699,4,2,2,83,0,1
59660,-69.9300699300699,4,2,2,5,0,1
59741,-69.9300699300699,4,2,2,83,0,1
61046,-81.3008130081301,4,2,2,83,0,1
62024,-69.9300699300699,4,2,2,83,0,1
63329,-81.3008130081301,4,2,2,83,0,1
63573,-81.3008130081301,4,2,2,5,0,1
63654,-81.3008130081301,4,2,2,83,0,1
64877,-81.3008130081301,4,2,2,5,0,1
64958,-81.3008130081301,4,2,2,83,0,1
68546,-87.719298245614,4,2,2,83,0,0
69931,-87.719298245614,4,2,2,5,0,0
70013,-87.719298245614,4,2,2,83,0,0
71806,-81.3008130081301,4,2,2,83,0,1
72459,-97.0873786407767,4,2,2,83,0,1
73437,-81.3008130081301,4,2,2,83,0,1
74008,-81.3008130081301,4,2,2,5,0,1
74089,-81.3008130081301,4,2,2,83,0,1
78084,-81.3008130081301,4,2,2,5,0,1
78165,-81.3008130081301,4,2,2,83,0,1
81834,-81.3008130081301,4,2,2,5,0,1
81915,-81.3008130081301,4,2,2,83,0,1
83138,-81.3008130081301,4,2,2,5,0,1
83219,-81.3008130081301,4,2,2,83,0,1
86806,-136.986301369863,4,2,2,83,0,0
87296,-136.986301369863,4,2,2,70,0,0
87785,-136.986301369863,4,2,2,70,0,0
88274,-136.986301369863,4,2,2,65,0,0
89415,-136.986301369863,4,2,2,5,0,0

[Colours]
Combo1 : 187,103,229
Combo2 : 255,213,128
Combo3 : 242,121,97
Combo4 : 255,140,179

[HitObjects]
62,120,720,6,0,L|178:150,1,106.65000260376
181,160,1046,1,2,0:0:0:0:
266,120,1209,1,0,0:0:0:0:
340,179,1372,2,0,P|353:216|338:258,1,80.1000000611114
372,83,1698,1,2,0:0:0:0:
372,83,1861,1,0,0:0:0:0:
259,219,2024,1,2,0:0:0:0:
61,300,2676,5,2,0:0:0:0:
72,286,2758,1,0,0:0:0:0:
94,276,2839,1,2,0:0:0:0:
127,283,2921,1,0,0:0:0:0:
155,303,3002,2,0,L|229:283,1,40.0500000305557,2|0,0:0|0:0,0:0:0:0:
290,312,3165,2,0,L|328:301,1,40.0500000305557,2|0,0:0|0:0,0:0:0:0:
163,210,3329,5,2,3:2:0:0:
225,366,3492,1,0,0:0:0:0:
283,145,3655,1,2,0:0:0:0:
283,145,3736,1,0,0:0:0:0:
283,145,3818,1,0,0:0:0:0:
255,234,3981,1,2,0:0:0:0:
163,210,4144,1,2,0:0:0:0:
414,135,4307,1,2,1:2:0:0:
147,220,4470,6,0,B|27:186|27:186|83:163,1,178.199999456177,6|0,1:2|0:0,0:0:0:0:
170,134,4959,1,0,0:0:0:0:
178,383,5122,6,0,L|200:294,1,89.0999997280884,0|0,1:0|0:0,0:0:0:0:
170,134,5448,2,0,L|147:220,1,89.0999997280884,0|0,1:0|0:0,0:0:0:0:
273,62,5774,5,6,1:2:0:0:
273,62,5937,1,0,3:0:0:0:
315,257,6100,1,4,3:0:0:0:
396,9,6263,5,6,1:2:0:0:
345,160,6426,1,0,3:0:0:0:
192,88,6589,1,8,3:0:0:0:
441,259,6752,5,6,1:2:0:0:
252,184,6915,1,0,3:0:0:0:
369,155,7079,1,4,3:0:0:0:
97,57,7242,5,6,1:2:0:0:
393,150,7405,1,0,3:0:0:0:
183,248,7568,1,12,3:0:0:0:
253,0,7731,5,6,1:2:0:0:
10,101,7894,1,2,1:2:0:0:
255,311,8057,1,4,3:0:0:0:
40,315,8220,5,2,1:2:0:0:
59,353,8301,1,0,1:0:0:0:
97,372,8383,1,2,1:2:0:0:
138,373,8464,1,0,1:0:0:0:
170,352,8546,6,0,L|132:203,1,147.150001571732,6|0,0:0|0:0,0:0:0:0:
207,146,8872,1,0,1:0:0:0:
41,92,9035,2,0,P|69:53|116:41,1,98.1000010478211,2|0,0:0|0:0,0:0:0:0:
227,237,9361,1,0,3:0:0:0:
120,126,9524,1,2,1:2:0:0:
120,126,9687,1,0,0:0:0:0:
242,256,9850,5,0,1:0:0:0:
287,67,10013,1,2,3:2:0:0:
257,274,10176,1,0,1:0:0:0:
302,47,10339,2,0,P|340:76|352:123,1,98.1000010478211,2|0,0:0|0:0,0:0:0:0:
141,225,10665,5,2,3:2:0:0:
243,145,10829,1,2,1:2:0:0:
166,328,10992,1,4,3:0:0:0:
166,328,11155,2,0,L|62:300,1,98.1000010478211,0|2,3:0|3:2,0:0:0:0:
406,212,11481,5,2,1:2:0:0:
163,127,11644,1,8,3:0:0:0:
345,66,11807,1,4,1:3:0:0:
89,204,11970,5,2,1:2:0:0:
437,124,12133,1,2,3:2:0:0:
167,43,12296,1,4,3:0:0:0:
255,335,12459,5,6,1:2:0:0:
167,43,12622,1,0,1:0:0:0:
104,288,12785,1,12,1:3:0:0:
248,3,12948,5,6,1:2:0:0:
168,351,13111,1,4,3:0:0:0:
87,81,13274,1,2,1:2:0:0:
172,372,13437,1,2,1:2:0:0:
253,156,13600,1,0,3:0:0:0:
0,248,13763,6,0,B|80:236|80:236|111:252|111:252|202:240,1,196.200002095642,6|0,1:2|1:0,0:0:0:0:
229,75,14252,2,0,P|318:99|327:191,1,196.200002095642,2|2,3:2|3:2,0:0:0:0:
210,323,14741,2,0,L|253:151,1,147.150001571732,2|0,1:2|0:0,0:0:0:0:
253,156,15068,5,2,3:0:0:0:
326,331,15231,1,4,3:0:0:0:
428,239,15394,5,2,1:2:0:0:
312,348,15557,1,0,3:0:0:0:
474,164,15720,2,0,P|507:198|512:245,1,98.1000010478211,2|0,1:2|0:0,0:0:0:0:
363,127,16046,1,2,1:2:0:0:
461,317,16209,1,4,3:0:0:0:
508,52,16372,5,6,0:0:0:0:
223,158,16535,1,0,3:0:0:0:
357,0,16698,1,4,1:3:0:0:
353,11,17024,6,0,L|396:183,1,147.150001571732,6|0,1:2|3:0,0:0:0:0:
326,219,17350,1,0,3:0:0:0:
187,83,17513,1,8,3:0:0:0:
129,350,17676,6,0,L|93:207,1,147.150001571732,6|0,1:2|0:0,0:0:0:0:
15,145,18002,1,0,1:0:0:0:
192,249,18165,1,0,3:0:0:0:
220,2,18329,5,6,0:0:0:0:
91,101,18492,1,4,3:0:0:0:
241,161,18655,1,0,1:0:0:0:
187,83,18818,5,4,3:0:0:0:
187,83,18981,1,6,0:0:0:0:
256,192,19062,12,0,21426,0:0:0:0:
406,365,21589,6,0,L|374:249,1,120.150000091667,6|2,3:2|0:0,0:0:0:0:
386,226,21915,1,0,1:0:0:0:
488,307,22242,5,0,3:0:0:0:
305,359,22405,1,8,3:0:0:0:
453,46,22731,5,2,1:2:0:0:
385,227,23057,5,4,3:0:0:0:
316,154,23220,1,0,1:0:0:0:
413,130,23383,1,0,0:0:0:0:
413,130,23464,1,0,3:0:0:0:
413,130,23546,1,4,3:0:0:0:
385,227,23709,1,8,3:0:0:0:
335,65,23872,5,2,1:2:0:0:
335,65,24035,1,8,3:0:0:0:
284,247,24198,5,2,0:0:0:0:
203,192,24361,2,0,L|132:212,1,40.0500000305557,2|0,1:2|0:0,0:0:0:0:
351,318,24524,6,0,L|455:346,1,80.1000000611114,4|0,1:3|0:0,0:0:0:0:
442,331,24769,1,0,3:0:0:0:
454,321,24850,2,0,P|460:279|439:243,1,80.1000000611114,2|8,3:2|3:0,0:0:0:0:
373,179,25095,1,2,0:0:0:0:
360,170,25176,1,0,1:0:0:0:
512,127,25339,1,2,3:2:0:0:
220,6,25665,5,2,3:2:0:0:
289,72,25828,2,0,L|185:100,1,80.1000000611114,2|4,1:2|3:0,0:0:0:0:
188,81,26073,2,0,L|117:101,1,40.0500000305557,0|0,1:0|0:0,0:0:0:0:
22,42,26318,5,4,3:0:0:0:
38,37,26399,1,4,3:0:0:0:
51,34,26481,1,2,1:2:0:0:
77,61,26562,1,0,3:0:0:0:
73,102,26644,1,0,1:2:0:0:
37,124,26725,1,0,3:0:0:0:
0,112,26807,6,0,L|31:227,1,120.150000091667,6|2,3:2|0:0,0:0:0:0:
19,248,27133,1,0,1:0:0:0:
311,30,27622,5,4,3:0:0:0:
188,81,27785,1,2,1:2:0:0:
129,369,28274,5,8,3:0:0:0:
110,284,28438,2,0,L|187:304,1,80.1000000611114,0|0,1:0|3:0,0:0:0:0:
198,318,28682,1,0,3:0:0:0:
209,333,28763,5,4,3:0:0:0:
161,172,28926,1,2,3:2:0:0:
324,210,29089,1,0,1:0:0:0:
231,238,29252,2,0,L|271:87,1,120.150000091667,8|0,3:0|0:0,0:0:0:0:
248,100,29579,6,0,L|268:24,1,40.0500000305557,2|0,1:2|0:0,0:0:0:0:
300,293,29741,2,0,P|341:299|378:279,1,80.1000000611114,2|4,1:2|3:0,0:0:0:0:
496,189,30068,2,0,L|419:209,1,80.1000000611114,2|4,0:0|3:0,0:0:0:0:
372,124,30312,1,2,0:0:0:0:
382,111,30394,1,0,1:0:0:0:
461,287,30557,1,2,0:0:0:0:
393,23,30883,5,4,3:0:0:0:
459,90,31046,2,0,L|382:110,1,80.1000000611114,0|0,1:0|0:0,0:0:0:0:
237,52,31290,1,0,3:0:0:0:
232,35,31372,2,0,L|309:55,1,80.1000000611114,8|2,1:3|0:0,0:0:0:0:
393,23,31617,1,0,3:0:0:0:
408,17,31698,1,6,1:2:0:0:
164,88,31861,1,2,3:0:0:0:
338,223,32024,6,0,L|204:258,1,120.150000091667,6|2,1:2|0:0,0:0:0:0:
194,245,32350,1,0,1:0:0:0:
297,143,32676,5,4,3:0:0:0:
251,332,32840,1,2,3:2:0:0:
304,125,33002,1,0,1:0:0:0:
182,157,33165,1,2,3:2:0:0:
347,212,33492,6,0,L|399:226,1,40.0500000305557,2|0,3:2|0:0,0:0:0:0:
236,72,33655,1,0,1:0:0:0:
278,265,33818,1,0,1:0:0:0:
326,42,33980,6,0,L|340:-10,1,40.0500000305557,2|0,3:2|0:0,0:0:0:0:
272,286,34144,1,0,1:0:0:0:
304,125,34307,1,8,1:3:0:0:
70,144,34633,5,6,3:2:0:0:
0,181,34796,2,0,B|59:173|59:173|82:184|82:184|143:176,1,147.150001571732,0|0,1:0|0:0,0:0:0:0:
224,231,35122,5,6,3:2:0:0:
158,305,35285,2,0,L|213:91,1,201.149989103966,0|0,1:0|0:0,0:0:0:0:
235,18,35611,5,2,3:2:0:0:
301,170,35774,1,0,1:0:0:0:
215,0,35937,5,6,3:2:0:0:
314,189,36100,2,0,B|369:198|369:198|410:167,1,107.099997875519,2|0,1:2|0:0,0:0:0:0:
208,110,36426,2,0,B|177:151|177:151|187:205,1,107.099997875519,0|2,1:0|0:0,0:0:0:0:
315,68,36752,1,0,1:0:0:0:
443,291,36915,1,8,3:0:0:0:
471,291,36997,1,0,3:0:0:0:
493,277,37079,1,0,1:0:0:0:
504,258,37160,1,0,3:0:0:0:
503,238,37242,6,0,L|289:182,1,196.200002095642,6|0,3:2|1:0,0:0:0:0:
256,274,37731,1,2,3:2:0:0:
256,274,37812,1,0,3:0:0:0:
256,274,37894,1,0,3:0:0:0:
212,179,38057,1,2,3:2:0:0:
212,179,38220,1,2,1:2:0:0:
161,368,38383,1,2,3:2:0:0:
161,368,38709,5,8,3:0:0:0:
119,276,38872,1,2,1:2:0:0:
252,367,39035,2,0,P|258:326|222:285,1,98.1000010478211,2|0,3:2|3:0,0:0:0:0:
69,363,39361,1,2,3:2:0:0:
222,285,39524,1,0,1:0:0:0:
13,204,39687,1,4,3:0:0:0:
109,291,39850,6,0,L|165:77,1,196.200002095642,2|2,3:2|0:0,0:0:0:0:
321,135,40339,2,0,P|312:44|223:19,1,196.200002095642,2|2,1:2|3:2,0:0:0:0:
123,0,40828,1,2,1:2:0:0:
123,0,40992,1,2,0:0:0:0:
173,181,41155,6,0,P|126:185|92:152,1,98.1000010478211,8|2,3:0|3:2,0:0:0:0:
248,107,41481,1,2,1:2:0:0:
154,91,41644,1,4,3:0:0:0:
154,91,41725,1,0,3:0:0:0:
154,91,41807,1,2,3:2:0:0:
186,181,41970,1,8,3:0:0:0:
216,22,42133,1,0,1:0:0:0:
216,22,42296,1,2,0:0:0:0:
345,122,42459,6,0,P|392:126|426:93,1,98.1000010478211,4|2,3:0|3:2,0:0:0:0:
477,7,42785,1,2,1:2:0:0:
349,32,42948,1,8,3:0:0:0:
349,32,43111,1,2,3:2:0:0:
444,184,43274,1,2,1:2:0:0:
426,93,43437,1,0,1:0:0:0:
500,297,43600,6,0,P|469:242|331:227,1,196.200002095642,2|2,3:2|3:2,0:0:0:0:
262,363,44089,2,0,B|231:322|231:322|241:270,1,98.1000010478211,0|8,1:0|3:0,0:0:0:0:
272,145,44415,1,2,3:2:0:0:
333,306,44579,1,8,3:0:0:0:
266,127,44742,1,2,1:2:0:0:
127,251,44905,5,0,3:0:0:0:
127,251,44986,1,0,3:0:0:0:
127,251,45068,2,0,P|79:255|45:222,1,98.1000010478211,2|2,3:2|0:0,0:0:0:0:
140,58,45394,2,0,P|173:92|168:139,1,98.1000010478211,0|0,1:0|3:0,0:0:0:0:
161,151,45638,1,0,1:0:0:0:
149,161,45720,1,2,3:2:0:0:
54,117,45883,1,2,1:2:0:0:
118,343,46046,1,2,1:2:0:0:
118,343,46127,1,0,1:0:0:0:
118,343,46209,1,8,1:3:0:0:
308,275,46372,6,0,B|268:245|268:245|221:254,1,98.1000010478211,2|0,3:2|3:0,0:0:0:0:
249,372,46698,1,8,1:3:0:0:
113,234,46861,1,2,1:2:0:0:
262,384,47024,1,2,1:2:0:0:
331,176,47187,1,0,1:0:0:0:
229,262,47350,1,8,1:3:0:0:
229,262,47432,1,0,1:0:0:0:
229,262,47513,1,0,1:0:0:0:
207,128,47676,1,2,3:2:0:0:
421,367,48981,6,0,B|392:259|507:302|466:184,1,195.750005973816,2|0,3:2|0:0,0:0:0:0:
401,153,50285,5,12,1:3:0:0:
505,351,50448,1,2,1:2:0:0:
395,136,50611,1,2,1:2:0:0:
188,284,50774,1,6,1:2:0:0:
188,284,51263,5,12,1:3:0:0:
486,189,51426,1,2,1:2:0:0:
208,111,51589,1,2,1:2:0:0:
312,373,51752,1,6,1:2:0:0:
403,41,52079,5,12,1:3:0:0:
358,198,52242,1,2,3:2:0:0:
358,198,52323,1,2,0:0:0:0:
358,198,52404,1,4,3:0:0:0:
269,99,52568,6,0,L|218:112,1,53.5499989377594,2|0,1:2|0:0,0:0:0:0:
442,155,52731,2,0,L|493:167,1,53.5499989377594,4|0,3:0|0:0,0:0:0:0:
294,4,52894,5,6,1:2:0:0:
357,115,53057,1,2,0:0:0:0:
434,8,53219,1,2,1:2:0:0:
213,119,53383,1,2,0:0:0:0:
443,5,53546,6,0,B|477:50|477:50|466:104,1,110.700001689148,6|0,3:3|0:0,0:0:0:0:
436,284,53790,2,0,B|402:239|402:239|413:185,1,110.700001689148,2|0,1:2|0:0,0:0:0:0:
351,109,54035,1,2,1:2:0:0:
503,336,54198,6,0,L|300:283,1,166.050002533722,4|0,1:3|0:0,0:0:0:0:
261,352,54524,1,0,1:0:0:0:
212,175,54687,2,0,L|198:231,1,55.350000844574,2|0,0:0|0:0,0:0:0:0:
271,366,54850,1,0,3:0:0:0:
206,161,55013,1,2,1:2:0:0:
96,353,55176,2,0,P|48:358|5:318,1,110.700001689148,8|0,1:3|0:0,0:0:0:0:
172,80,55502,5,2,1:2:0:0:
91,265,55665,1,2,3:2:0:0:
1,37,55829,1,2,1:2:0:0:
101,275,55992,2,0,L|48:72,1,166.050002533722,6|0,3:2|0:0,0:0:0:0:
96,28,56318,1,2,3:2:0:0:
0,241,56481,1,8,3:0:0:0:
279,172,56644,5,6,3:2:0:0:
59,114,56805,1,2,0:2:0:0:
279,172,56969,1,8,3:0:0:0:
147,337,57133,2,0,P|195:342|238:302,1,110.700001689148,4|2,3:0|0:0,0:0:0:0:
186,111,57459,2,0,L|158:218,1,110.700001689148,2|8,3:2|3:0,0:0:0:0:
165,229,57704,1,0,3:0:0:0:
173,242,57785,1,2,3:2:0:0:
365,163,57948,1,2,0:0:0:0:
321,373,58111,6,0,B|436:340|436:340|382:318,1,166.050002533722,6|0,3:2|0:0,0:0:0:0:
323,249,58437,2,0,P|320:195|359:158,1,110.700001689148,0|0,1:2|0:0,0:0:0:0:
486,117,58763,2,0,L|458:224,1,110.700001689148,2|0,3:2|3:0,0:0:0:0:
453,237,59008,1,0,3:0:0:0:
449,250,59089,1,2,1:2:0:0:
388,65,59252,1,2,3:2:0:0:
479,350,59415,6,0,P|448:295|310:280,1,193.050002651138,2|0,3:2|0:0,0:0:0:0:
242,230,59742,1,4,1:3:0:0:
297,379,59905,1,2,3:2:0:0:
297,379,59986,1,0,3:0:0:0:
297,379,60068,1,8,3:0:0:0:
330,174,60231,1,2,0:0:0:0:
97,270,60394,1,0,1:0:0:0:
97,270,60557,1,2,0:0:0:0:
345,170,60720,5,2,3:2:0:0:
149,117,60883,1,0,3:0:0:0:
386,60,61046,2,0,L|358:167,1,110.700001689148,2|0,1:2|3:0,0:0:0:0:
97,263,61372,1,2,1:2:0:0:
251,213,61535,1,8,3:0:0:0:
33,156,61698,1,2,1:2:0:0:
239,324,61861,1,0,1:0:0:0:
254,25,62024,6,0,B|191:12|191:12|139:51,1,128.700001767426,6|0,1:2|0:0,0:0:0:0:
39,162,62269,2,0,B|101:174|101:174|153:135,1,128.700001767426,6|0,1:2|0:0,0:0:0:0:
67,23,62513,1,6,1:2:0:0:
269,220,62676,5,2,1:2:0:0:
307,241,62758,1,0,3:0:0:0:
350,240,62839,1,8,3:0:0:0:
386,226,62921,1,0,3:0:0:0:
414,196,63002,1,4,1:3:0:0:
410,185,63084,1,0,3:0:0:0:
403,178,63165,1,4,3:0:0:0:
393,174,63247,1,0,3:0:0:0:
383,172,63329,6,0,L|424:332,1,166.050002533722,6|0,1:2|0:0,0:0:0:0:
345,384,63655,1,2,1:2:0:0:
215,276,63818,2,0,P|252:237|306:240,1,110.700001689148,0|0,3:0|3:0,0:0:0:0:
506,289,64143,1,2,3:2:0:0:
506,289,64307,1,0,1:0:0:0:
424,332,64470,1,2,3:2:0:0:
512,114,64633,6,0,L|352:155,1,166.050002533722,2|0,1:2|0:0,0:0:0:0:
306,240,64959,1,0,1:3:0:0:
279,71,65122,2,0,P|240:108|243:162,1,110.700001689148,2|8,3:2|3:0,0:0:0:0:
309,256,65448,1,2,3:2:0:0:
396,91,65611,2,0,P|399:37|360:0,1,110.700001689148,4|0,1:3|3:0,0:0:0:0:
153,84,65937,5,4,3:0:0:0:
153,84,66100,1,0,0:0:0:0:
337,171,66263,1,2,1:2:0:0:
139,79,66426,2,0,L|246:51,1,110.700001689148,2|8,3:2|3:0,0:0:0:0:
396,91,66752,2,0,L|503:63,2,110.700001689148,2|4|2,0:0|3:0|3:2,0:0:0:0:
181,15,67242,5,2,1:2:0:0:
181,15,67404,1,0,0:0:0:0:
235,197,67568,1,2,1:2:0:0:
290,34,67731,2,0,L|318:141,1,110.700001689148,2|8,0:0|3:0,0:0:0:0:
417,243,68057,2,0,L|445:350,2,110.700001689148,2|4|2,0:0|3:0|3:2,0:0:0:0:
216,369,68546,5,6,3:2:0:0:
313,225,68709,1,0,3:0:0:0:
95,314,68872,1,2,1:2:0:0:
322,234,69035,2,0,L|223:208,1,102.599998747559,6|0,3:2|0:0,0:0:0:0:
62,153,69361,5,2,1:2:0:0:
102,330,69524,1,0,3:0:0:0:
218,69,69687,2,0,B|250:112|250:112|217:223,1,153.899998121338,6|0,3:2|0:0,0:0:0:0:
137,249,70013,5,4,3:0:0:0:
351,192,70176,1,2,1:2:0:0:
153,135,70339,1,2,3:2:0:0:
153,135,70421,1,0,3:0:0:0:
153,135,70502,1,0,3:0:0:0:
368,198,70665,5,2,1:2:0:0:
119,250,70829,1,2,1:2:0:0:
273,300,70992,1,8,3:0:0:0:
79,345,71155,5,2,3:2:0:0:
79,345,71318,1,2,0:0:0:0:
209,218,71480,5,6,1:2:0:0:
260,384,71644,1,2,0:0:0:0:
62,77,71807,6,0,B|28:122|28:122|39:176,1,110.700001689148,6|0,1:2|0:0,0:0:0:0:
69,356,72051,2,0,B|103:311|103:311|92:257,1,110.700001689148,2|0,3:2|0:0,0:0:0:0:
0,297,72296,1,2,1:2:0:0:
308,122,72459,6,0,L|113:171,2,185.399998444061,6|2|2,1:2|1:2|0:0,0:0:0:0:
410,223,73274,1,0,3:0:0:0:
410,223,73356,1,0,3:0:0:0:
410,223,73437,2,0,P|463:225|500:186,1,110.700001689148,2|0,1:2|0:0,0:0:0:0:
349,34,73763,6,0,L|300:222,1,166.050002533722,6|0,1:2|0:0,0:0:0:0:
241,255,74089,1,0,1:0:0:0:
365,373,74252,2,0,P|367:320|328:283,1,110.700001689148,2|0,0:0|3:0,0:0:0:0:
158,195,74579,1,2,3:2:0:0:
269,353,74742,1,4,3:0:0:0:
149,183,74905,1,2,3:2:0:0:
82,367,75068,6,0,L|54:259,1,110.700001689148,2|2,1:2|0:0,0:0:0:0:
227,129,75393,2,0,P|190:89|136:91,1,110.700001689148,0|0,1:0|0:0,0:0:0:0:
1,173,75720,1,4,3:0:0:0:
1,173,75801,1,2,3:2:0:0:
1,173,75883,1,0,3:0:0:0:
192,298,76046,1,4,3:0:0:0:
107,182,76209,1,2,3:2:0:0:
49,384,76372,6,0,L|282:324,1,221.400003378296,6|0,1:2|1:0,0:0:0:0:
435,131,76861,2,0,P|332:140|313:241,1,221.400003378296,6|2,3:2|0:0,0:0:0:0:
434,309,77350,1,4,3:0:0:0:
217,252,77513,1,2,0:0:0:0:
386,384,77676,5,6,1:2:0:0:
386,384,77839,2,0,L|429:214,1,166.050002533722,2|0,0:0|0:0,0:0:0:0:
511,181,78165,1,6,3:2:0:0:
330,100,78329,2,0,L|504:55,2,166.050002533722,2|2|2,3:2|0:0|0:0,0:0:0:0:
234,71,78899,1,2,3:2:0:0:
223,67,78981,5,12,1:3:0:0:
213,359,79144,1,2,3:2:0:0:
49,116,79307,1,2,1:2:0:0:
324,216,79470,2,0,L|405:236,1,55.350000844574,8|0,3:0|0:0,0:0:0:0:
43,297,79633,1,2,3:2:0:0:
330,100,79796,1,8,3:0:0:0:
42,124,79959,1,2,1:2:0:0:
225,375,80122,1,2,3:2:0:0:
225,375,80204,1,0,3:0:0:0:
225,375,80285,5,2,1:2:0:0:
125,39,80448,1,4,3:0:0:0:
375,229,80611,1,2,1:2:0:0:
117,379,80774,2,0,P|115:326|154:289,1,110.700001689148,4|0,1:3|3:0,0:0:0:0:
331,336,81100,1,4,3:0:0:0:
331,336,81182,1,0,3:0:0:0:
331,336,81263,1,2,1:2:0:0:
119,192,81426,1,2,3:2:0:0:
225,384,81589,6,0,L|268:214,1,166.050002533722,6|0,1:2|0:0,0:0:0:0:
204,141,81915,1,8,1:3:0:0:
204,141,82079,1,2,0:0:0:0:
368,250,82242,2,0,P|421:252|458:213,1,110.700001689148,8|2,3:0|0:0,0:0:0:0:
369,47,82568,2,0,L|341:154,1,110.700001689148,2|0,1:2|0:0,0:0:0:0:
306,384,82893,6,0,L|263:214,1,166.050002533722,2|0,1:2|0:0,0:0:0:0:
345,158,83219,1,2,1:2:0:0:
345,158,83383,1,2,0:0:0:0:
182,286,83546,2,0,P|129:288|92:249,1,110.700001689148,2|0,3:2|3:0,0:0:0:0:
151,79,83872,2,0,L|179:186,1,110.700001689148,0|2,1:0|0:0,0:0:0:0:
370,0,84198,6,0,P|470:25|444:125,1,221.400003378296,6|0,1:2|1:0,0:0:0:0:
155,62,84687,1,4,3:0:0:0:
351,105,84850,1,2,1:2:0:0:
351,105,85013,1,8,3:0:0:0:
226,170,85176,1,2,1:2:0:0:
226,170,85339,1,0,3:0:0:0:
471,270,85502,5,2,1:2:0:0:
226,359,85665,1,0,1:0:0:0:
488,267,85829,1,2,1:2:0:0:
212,163,85991,1,0,1:0:0:0:
336,319,86155,1,2,1:2:0:0:
438,104,86318,1,2,1:2:0:0:
330,334,86480,1,2,1:2:0:0:
286,46,86644,1,2,1:2:0:0:
323,353,86807,6,0,B|294:245|409:288|368:170,3,197.100005413513,6|2|6|2,2:0|0:0|0:0|0:0,0:0:0:0:
256,192,88356,12,0,89415,0:0:0:0:
