osu file format v14

[General]
AudioFilename: bg.mp3
AudioLeadIn: 0
PreviewTime: 52721
Countdown: 0
SampleSet: Soft
StackLeniency: 0.7
Mode: 2
LetterboxInBreaks: 0
WidescreenStoryboard: 1

[Editor]
Bookmarks: 8537,47667,80602
DistanceSpacing: 1
BeatDivisor: 4
GridSize: 16
TimelineZoom: 2.799999

[Metadata]
Title:VOICE (TV Size)
TitleUnicode:VOICE (TV Size)
Artist:ZAQ
ArtistUnicode:ZAQ
Creator:Nakano Ichika
Version:Salad
Source:中二病でも恋がしたい!戀
Tags:Chuunibyou demo koi ga shitai! Ren Season 2 opening Rikka takanashi Chu-2 byou NOISY Lab. Ippei Egusa 江草一平 Koichiro Muroya Nijine Lantis -[ Asuna ]- Realmas AlexDemon- anime japanese
BeatmapID:3178325
BeatmapSetID:265875

[Difficulty]
HPDrainRate:3
CircleSize:3.3
OverallDifficulty:7
ApproachRate:7
SliderMultiplier:1.4
SliderTickRate:1

[Events]
//Background and Video events
0,0,"BG.jpg",0,0
//Break Periods
//Storyboard Layer 0 (Background)
//Storyboard Layer 1 (Fail)
//Storyboard Layer 2 (Pass)
//Storyboard Layer 3 (Foreground)
//Storyboard Layer 4 (Overlay)
//Storyboard Sound Samples

[TimingPoints]
711,326.086956521739,4,2,0,40,1,0
3319,-100,4,2,0,50,0,0
4297,-100,4,2,2,50,0,0
4460,-100,4,2,2,65,0,0
8537,-100,4,2,2,75,0,0
16363,-100,4,2,2,65,0,0
18971,-100,4,2,2,60,0,0
20439,-100,4,3,2,50,0,0
21254,-100,4,3,2,35,0,0
21580,-100,4,2,2,55,0,0
23374,-100,4,2,2,55,0,0
23455,-100,4,2,2,55,0,0
37232,-100,4,2,2,75,0,0
47667,-100,4,2,0,55,0,0
50276,-100,4,2,2,75,0,0
52884,-100,4,2,2,90,0,1
63319,-100,4,2,2,90,0,0
72450,-100,4,2,2,90,0,1
84189,-100,4,2,2,75,0,0
88428,-100,4,2,2,45,0,0
88917,-100,4,2,2,30,0,0
89243,-100,4,2,2,20,0,0

[Colours]
Combo1 : 255,191,164
Combo2 : 128,128,255
Combo3 : 255,47,52

[HitObjects]
196,347,711,6,0,P|175:287|211:222,1,140,0|2,0:0|0:0,0:0:0:0:
278,211,1200,1,2,0:0:0:0:
333,168,1363,1,2,0:0:0:0:
348,99,1526,1,2,0:0:0:0:
310,39,1689,1,2,0:0:0:0:
242,19,1852,1,2,0:0:0:0:
72,57,2015,6,0,P|44:192|83:325,1,280,2|2,0:0|0:0,0:0:0:0:
363,341,3319,5,2,0:0:0:0:
388,277,3482,1,2,0:0:0:0:
362,214,3645,1,2,0:0:0:0:
300,186,3808,1,2,0:0:0:0:
236,209,3971,1,2,0:0:0:0:
205,270,4134,1,2,0:0:0:0:
226,336,4297,1,10,0:0:0:0:
402,145,4460,5,14,0:0:0:0:
261,145,5113,1,10,0:0:0:0:
121,143,5439,1,10,0:0:0:0:
262,287,5765,6,0,L|334:286,1,70,14|2,0:0|0:0,0:0:0:0:
193,282,6254,2,0,L|122:282,1,70,12|2,0:0|0:0,0:0:0:0:
263,200,6743,2,0,L|335:201,1,70,12|2,0:0|0:0,0:0:0:0:
194,115,7232,6,0,L|121:116,1,70,12|2,0:0|0:0,0:0:0:0:
266,167,7721,2,0,L|338:165,2,70,12|10|10,0:0|0:0|0:0,0:0:0:0:
196,284,8210,2,0,L|269:281,1,70,10|10,0:0|0:0,0:0:0:0:
442,277,8537,6,0,P|463:211|427:155,1,140,6|8,0:0|0:0,0:0:0:0:
357,131,9026,1,2,0:0:0:0:
217,116,9352,2,0,L|141:112,1,70,2|8,0:0|0:0,0:0:0:0:
231,39,9678,6,0,L|379:51,2,140,2|2|2,0:0|0:0|0:0,0:0:0:0:
93,208,10656,2,0,L|22:192,2,70,2|10|2,0:0|0:0|0:0,0:0:0:0:
304,300,11471,6,0,P|352:243|304:197,1,140,10|2,0:0|0:0,0:0:0:0:
236,187,11960,2,0,L|101:133,1,140,10|2,0:0|0:0,0:0:0:0:
190,129,12450,6,0,P|235:178|202:235,1,140,10|2,0:0|0:0,0:0:0:0:
121,245,12939,2,0,L|263:241,1,140,10|2,0:0|0:0,0:0:0:0:
345,239,13428,1,0,0:0:0:0:
88,82,13754,6,0,P|53:143|80:202,1,140,6|8,0:0|0:0,0:0:0:0:
149,210,14243,2,0,L|290:217,1,140,2|2,0:0|0:0,0:0:0:0:
203,214,14732,6,0,L|58:208,2,140,8|2|8,0:0|0:0|0:0,0:0:0:0:
344,147,15710,1,2,0:0:0:0:
203,88,16037,1,8,0:0:0:0:
460,150,16363,6,0,L|453:289,1,140,2|8,0:0|0:0,0:0:0:0:
200,292,17015,2,0,P|160:244|207:201,1,140,2|8,0:0|0:0,0:0:0:0:
462,176,17667,6,0,L|319:151,1,140,2|8,0:0|0:0,0:0:0:0:
66,167,18319,2,0,L|205:140,1,140,2|2,0:0|0:0,0:0:0:0:
256,192,18971,12,2,21254,0:2:0:0:
441,238,21580,6,0,P|470:176|453:109,1,140,6|8,0:0|0:0,0:0:0:0:
386,103,22069,1,0,0:0:0:0:
246,101,22395,2,0,L|171:101,1,70,2|0,0:0|0:0,0:0:0:0:
92,101,22721,1,8,0:0:0:0:
232,94,23047,5,2,0:0:0:0:
301,95,23210,1,2,0:0:0:0:
232,94,23374,1,0,0:0:0:0:
92,140,23700,1,2,0:0:0:0:
22,138,23863,1,8,0:0:0:0:
92,140,24026,6,0,L|235:139,1,140,2|8,0:0|0:0,0:0:0:0:
316,140,24515,2,0,L|173:141,2,140,8|8|8,0:0|0:0|0:0,0:0:0:0:
385,145,25330,1,8,0:0:0:0:
245,305,25656,6,0,L|232:234,1,70,2|8,0:0|0:0,0:0:0:0:
162,232,25982,2,0,L|150:161,1,70,2|2,0:0|0:0,0:0:0:0:
290,134,26471,2,0,L|349:97,1,70,10|2,0:0|0:0,0:0:0:0:
173,56,26797,6,0,P|142:115|179:170,1,140,6|8,0:0|0:0,0:0:0:0:
250,176,27287,1,0,0:0:0:0:
179,170,27450,1,2,0:0:0:0:
321,244,27776,2,0,L|328:171,1,70,8|0,0:0|0:0,0:0:0:0:
397,170,28102,6,0,L|404:97,1,70,2|2,0:0|0:0,0:0:0:0:
264,220,28591,1,0,0:0:0:0:
194,116,28754,2,0,L|202:186,1,70,2|2,0:0|0:0,0:0:0:0:
266,159,29080,2,0,L|259:90,1,70,8|2,0:0|0:0,0:0:0:0:
176,105,29406,6,0,P|101:106|46:64,2,140,0|8|8,0:0|0:0|0:0,0:0:0:0:
316,156,30384,2,0,L|323:225,1,70,8|2,0:0|0:0,0:0:0:0:
185,242,30874,5,2,0:0:0:0:
254,243,31037,1,8,0:0:0:0:
324,248,31200,2,0,L|331:210,2,35,0|2|8,0:0|0:0|0:0,0:0:0:0:
184,261,31689,1,12,0:0:0:0:
443,285,32015,6,0,P|486:244|431:223,1,140,6|8,0:0|0:0,0:0:0:0:
291,206,32667,2,0,L|215:211,2,70,2|2|8,0:0|0:0|0:0,0:0:0:0:
360,115,33156,6,0,L|220:110,1,140,2|10,0:0|0:0,0:0:0:0:
150,107,33645,1,0,0:0:0:0:
290,66,33971,2,0,L|361:66,2,70,2|2|8,0:0|0:0|0:0,0:0:0:0:
23,231,34624,6,0,L|241:252,2,210,6|0|0,0:0|0:0|0:0,0:0:0:0:
293,153,35928,6,0,L|414:239,1,140,6|0,0:0|0:0,0:0:0:0:
337,202,36417,1,2,0:0:0:0:
267,198,36580,1,2,0:0:0:0:
129,172,36906,1,2,0:0:0:0:
381,256,37232,6,0,P|407:195|372:138,1,140,6|8,0:0|0:0,0:0:0:0:
300,130,37721,2,0,L|163:98,1,140,2|2,0:0|0:0,0:0:0:0:
100,68,38210,1,8,0:0:0:0:
184,63,38374,6,0,L|327:51,1,140,2|2,0:0|0:0,0:0:0:0:
393,46,38863,1,8,0:0:0:0:
184,209,39352,2,0,L|114:209,2,70,2|8|2,0:0|0:0|0:0,0:0:0:0:
360,252,39841,6,0,P|388:192|337:150,1,140,2|0,0:0|0:0,0:0:0:0:
254,145,40330,2,0,L|108:144,1,140,8|2,0:0|0:0,0:0:0:0:
68,91,40819,1,8,0:0:0:0:
124,49,40982,1,0,0:0:0:0:
264,150,41308,6,0,L|337:150,1,70,2|8,0:0|0:0,0:0:0:0:
264,150,41634,1,2,0:0:0:0:
124,143,41960,2,0,L|47:142,2,70,2|8|2,0:0|0:0|0:0,0:0:0:0:
194,143,42450,6,0,L|334:144,1,140,2|8,0:0|0:0,0:0:0:0:
264,144,42939,2,0,L|191:141,1,70,2|0,0:0|0:0,0:0:0:0:
124,143,43265,1,2,0:0:0:0:
382,220,43591,6,0,P|426:170|372:157,1,140,2|2,0:0|0:0,0:0:0:0:
309,96,44080,1,8,0:0:0:0:
169,170,44406,2,0,L|95:172,2,70,2|0|8,0:0|0:0|0:0,0:0:0:0:
251,169,44896,6,0,P|287:226|251:282,1,140,0|0,0:0|0:0,0:0:0:0:
182,283,45384,2,0,L|113:285,1,70,8|2,0:0|0:0,0:0:0:0:
323,261,46037,1,8,0:0:0:0:
392,264,46200,1,0,0:0:0:0:
476,226,46363,6,0,L|333:224,1,140,2|8,0:0|0:0,0:0:0:0:
61,59,47015,2,0,P|37:124|72:183,1,140,2|10,0:0|0:0,0:0:0:0:
139,187,47504,1,2,0:0:0:0:
316,178,47667,5,2,0:0:0:0:
256,192,47993,12,2,48971,0:0:0:0:
276,300,49787,6,0,L|273:227,1,70,0|2,0:0|0:0,0:0:0:0:
272,160,50113,1,0,0:0:0:0:
375,154,50276,6,0,L|445:161,2,70,2|2|8,0:0|0:0|0:0,0:0:0:0:
199,124,50765,1,2,0:0:0:0:
168,127,51254,6,0,L|98:134,2,70,2|2|8,0:0|0:0|0:0,0:0:0:0:
344,97,51743,1,2,0:0:0:0:
344,97,52232,2,0,L|351:240,1,140,8|2,0:0|0:0,0:0:0:0:
93,288,52884,6,0,L|20:294,2,70,6|0|8,0:0|0:0|0:0,0:0:0:0:
163,283,53374,1,0,0:0:0:0:
340,278,53537,2,0,L|449:276,2,105,2|2|2,0:0|0:0|0:0,0:0:0:0:
150,151,54189,6,0,P|116:93|157:41,1,140,6|8,0:0|0:0,0:0:0:0:
227,47,54678,2,0,L|370:50,1,140,2|2,0:0|0:0,0:0:0:0:
436,53,55167,1,8,0:0:0:0:
184,169,55493,6,0,P|141:218|172:276,1,140,6|8,0:0|0:0,0:0:0:0:
349,290,55982,2,0,L|487:250,1,140,6|2,0:0|0:0,0:0:0:0:
413,244,56471,1,8,0:0:0:0:
330,240,56634,1,6,0:0:0:0:
154,237,56797,6,0,P|138:168|177:110,1,140,2|8,0:0|0:0,0:0:0:0:
312,97,57450,2,0,L|417:90,2,105,2|2|0,0:0|0:0|0:0,0:0:0:0:
133,92,58102,6,0,P|96:147|127:207,1,140,6|8,0:0|0:0,0:0:0:0:
268,205,58754,2,0,L|158:200,2,105,2|2|2,0:0|0:0|0:0,0:0:0:0:
443,202,59406,6,0,P|468:135|432:81,1,140,2|8,0:0|0:0,0:0:0:0:
363,83,59895,2,0,L|218:103,2,140,2|2|0,0:0|0:0|0:0,0:0:0:0:
446,161,60710,6,0,L|432:300,1,140,2|8,0:0|0:0,0:0:0:0:
292,298,61363,2,0,L|219:295,1,70,2|2,0:0|0:0,0:0:0:0:
152,294,61689,1,10,0:0:0:0:
404,220,62015,6,0,L|508:216,2,105,2|2|2,0:0|0:0|0:0,0:0:0:0:
301,232,62667,1,8,0:0:0:0:
241,194,62830,1,2,0:0:0:0:
225,125,62993,1,8,0:0:0:0:
257,63,63156,1,2,0:0:0:0:
431,58,63319,6,0,P|472:107|434:160,1,140,6|8,0:0|0:0,0:0:0:0:
363,179,63808,2,0,L|219:180,2,140,2|2|2,0:0|0:0|0:0,0:0:0:0:
448,212,64624,6,0,L|304:213,1,140,2|8,0:0|0:0,0:0:0:0:
238,213,65113,1,2,0:0:0:0:
378,186,65439,2,0,L|372:114,1,70,2|8,0:0|0:0,0:0:0:0:
120,165,65928,6,0,P|88:228|123:281,1,140,2|8,0:0|0:0,0:0:0:0:
192,283,66417,2,0,L|333:264,1,140,2|2,0:0|0:0,0:0:0:0:
400,255,66906,1,8,0:0:0:0:
149,210,67232,6,0,P|120:149|164:92,1,140,2|8,0:0|0:0,0:0:0:0:
227,96,67721,2,0,L|75:88,1,140,2|2,0:0|0:0,0:0:0:0:
17,84,68210,1,8,0:0:0:0:
270,52,68537,6,0,L|341:55,2,70,6|2|8,0:0|0:0|0:0,0:0:0:0:
94,46,69026,2,0,P|56:100|94:160,1,140,6|2,0:0|0:0,0:0:0:0:
158,167,69515,1,8,0:0:0:0:
333,206,69678,6,0,P|363:264|325:320,1,140,6|2,0:0|0:0,0:0:0:0:
254,320,70167,1,8,0:0:0:0:
77,318,70330,2,0,P|45:258|81:199,1,140,6|2,0:0|0:0,0:0:0:0:
148,191,70819,2,0,L|220:187,1,70,8|2,0:0|0:0,0:0:0:0:
393,280,71145,6,0,P|423:221|374:178,1,140,2|12,0:0|0:0,0:0:0:0:
235,197,71797,2,0,L|350:199,2,105,2|2|2,0:0|0:0|0:0,0:0:0:0:
43,195,72450,6,0,L|36:56,1,140,6|8,0:0|0:0,0:0:0:0:
176,158,73102,2,0,L|316:153,1,140,0|8,0:0|0:0,0:0:0:0:
247,155,73591,1,0,0:0:0:0:
71,313,73754,6,0,P|41:252|70:190,1,140,2|8,0:0|0:0,0:0:0:0:
154,180,74243,2,0,L|309:167,1,140,2|2,0:0|0:0,0:0:0:0:
225,189,74732,1,8,0:0:0:0:
224,258,74895,1,0,0:0:0:0:
329,276,75058,6,0,L|439:286,2,105,2|0|2,0:0|0:0|0:0,0:0:0:0:
259,269,75710,1,0,0:0:0:0:
118,265,76037,2,0,L|189:259,1,70,8|0,0:0|0:0,0:0:0:0:
363,71,76363,6,0,P|396:129|372:192,1,140,6|8,0:0|0:0,0:0:0:0:
268,230,76852,2,0,L|133:177,1,140,6|2,0:0|0:0,0:0:0:0:
68,148,77341,1,8,0:0:0:0:
317,53,77667,6,0,P|354:109|322:167,1,140,6|8,0:0|0:0,0:0:0:0:
217,170,78156,2,0,P|175:228|205:287,1,140,6|2,0:0|0:0,0:0:0:0:
271,302,78645,2,0,L|345:290,1,70,8|0,0:0|0:0,0:0:0:0:
445,303,78971,6,0,L|450:233,1,70,2|2,0:0|0:0,0:0:0:0:
363,210,79297,1,2,0:0:0:0:
294,196,79460,2,0,L|286:123,1,70,2|2,0:0|0:0,0:0:0:0:
374,107,79787,1,2,0:0:0:0:
443,117,79950,2,0,L|453:46,1,70,2|2,0:0|0:0,0:0:0:0:
364,39,80276,6,0,L|289:45,2,70,2|2|2,0:0|0:0|0:0,0:0:0:0:
449,35,80765,1,2,0:0:0:0:
239,30,81254,2,0,P|225:63|229:96,1,70,8|2,0:0|0:0,0:0:0:0:
403,26,81580,6,0,P|437:83|404:141,1,140,6|8,0:0|0:0,0:0:0:0:
336,161,82069,1,0,0:0:0:0:
252,183,82232,2,0,L|116:153,1,140,2|8,0:0|0:0,0:0:0:0:
367,312,82884,6,0,P|403:250|366:194,1,140,2|8,0:0|0:0,0:0:0:0:
287,196,83374,2,0,L|423:158,1,140,2|2,0:0|0:0,0:0:0:0:
339,165,83863,1,8,0:0:0:0:
87,322,84189,6,0,P|58:266|101:203,1,140,6|8,0:0|0:0,0:0:0:0:
165,209,84678,1,2,0:0:0:0:
249,220,84841,2,0,L|106:195,1,140,2|8,0:0|0:0,0:0:0:0:
253,125,85493,6,0,L|327:132,2,70,2|2|8,0:0|0:0|0:0,0:0:0:0:
183,118,85982,1,2,0:0:0:0:
253,125,86145,2,0,L|263:52,1,70,2|2,0:0|0:0,0:0:0:0:
175,38,86471,5,8,0:0:0:0:
256,192,86797,12,0,89325,0:0:0:0:
