osu file format v14

[General]
AudioFilename: Chuunibyou demo Koi ga Shitai! - Sparkling Daydream.mp3
AudioLeadIn: 1000
PreviewTime: 58642
Countdown: 0
SampleSet: Soft
StackLeniency: 0.9
Mode: 0
LetterboxInBreaks: 0
WidescreenStoryboard: 0

[Editor]
DistanceSpacing: 1.2
BeatDivisor: 4
GridSize: 4
TimelineZoom: 1.8

[Metadata]
Title:Sparkling Daydream
TitleUnicode:Sparkling Daydream
Artist:ZAQ
ArtistUnicode:ZAQ
Creator:Chloe
Version:Regraz's Hard
Source:中二病でも恋がしたい!
Tags:opening Chu-2 byo demo KOI ga shitai Natsu Regraz CSAQ
BeatmapID:928209
BeatmapSetID:389192

[Difficulty]
HPDrainRate:5
CircleSize:3.5
OverallDifficulty:6
ApproachRate:8
SliderMultiplier:1.3
SliderTickRate:1

[Events]
//Background and Video events
0,0,"bg.jpg",0,0
//Break Periods
2,14956,22084
2,86270,96142
2,168555,169513
2,187070,197284
2,204555,206541
2,235070,239455
//Storyboard Layer 0 (Background)
//Storyboard Layer 1 (Fail)
//Storyboard Layer 2 (Pass)
//Storyboard Layer 3 (Foreground)
//Storyboard Sound Samples

[TimingPoints]
1042,342.857142857143,4,2,0,40,1,0
1042,-100,4,2,0,40,0,0
3784,-100,4,2,0,65,0,0
15099,-100,4,2,0,35,0,0
22984,-100,4,2,0,40,0,0
23327,-100,4,2,0,45,0,0
23670,-100,4,2,0,50,0,0
24013,-100,4,2,0,55,0,0
24356,-100,4,2,0,60,0,0
25556,-100,4,2,0,65,0,0
26070,-100,4,2,0,65,0,0
28984,-100,4,2,0,35,0,0
29156,-100,4,2,0,65,0,0
29242,-100,4,2,0,35,0,0
29670,-100,4,2,0,45,0,0
29842,-100,4,2,0,65,0,0
36356,-100,4,2,0,65,0,0
36699,-100,4,2,0,65,0,0
40642,-100,4,2,0,65,0,0
40984,-100,4,2,0,65,0,0
42356,-100,4,2,0,80,0,0
42527,-100,4,2,0,65,0,0
42699,-100,4,2,0,80,0,0
42870,-100,4,2,0,65,0,0
58299,-100,4,2,0,65,0,0
58642,-100,4,2,0,80,0,0
63442,-100,4,2,0,85,0,0
64127,-100,4,2,0,80,0,0
84870,-100,4,2,0,85,0,0
85042,-100,4,2,0,90,0,0
85213,-100,4,2,0,80,0,0
86070,-100,4,2,0,80,0,0
97042,-100,4,2,0,45,0,0
106642,-100,4,2,0,45,0,0
117784,-100,4,2,0,60,0,0
119156,-100,4,2,0,50,0,0
127727,-100,4,2,0,60,0,0
140927,-100,4,2,0,80,0,0
145727,-100,4,2,0,85,0,0
146413,-100,4,2,0,80,0,0
157042,-100,4,2,0,80,0,0
157384,-100,4,2,0,80,0,0
165699,-100,4,2,0,70,0,0
170413,342.857142857143,4,2,0,75,1,0
181384,-100,4,2,0,65,0,0
198184,-100,4,2,0,75,0,0
201613,-100,4,2,0,75,0,0
201955,-100,4,2,0,75,0,0
203498,-100,4,2,0,75,0,0
203670,-100,4,2,0,75,0,0
203841,-100,4,2,0,75,0,0
204698,-100,4,2,0,24,0,0
207441,-100,4,2,0,90,0,0
212241,-100,4,2,0,90,0,0
212927,-100,4,2,0,90,0,0
232127,-100,4,2,0,85,0,0
240870,-100,4,2,0,90,0,0
241384,-100,4,2,0,95,0,0
241898,-100,4,2,0,100,0,0
242927,-100,4,2,0,100,0,0
243013,-100,4,2,0,5,0,0

[Colours]
Combo1 : 239,27,27
Combo2 : 23,145,255

[HitObjects]
295,45,1042,5,2,0:0:0:0:
367,73,1213,2,0,P|407:66|444:70,1,65,0|2,0:0|0:0,0:0:0:0:
476,131,1556,1,0,0:0:0:0:
404,159,1727,2,0,P|364:152|327:156,1,65,2|2,0:0|0:0,0:0:0:0:
291,215,2070,5,0,0:0:0:0:
363,243,2241,2,0,P|403:236|440:240,1,65,2|2,0:0|0:0,0:0:0:0:
472,301,2584,1,0,0:0:0:0:
400,329,2755,2,0,P|360:322|323:326,1,65,2|0,0:0|0:0,0:0:0:0:
258,337,3099,2,0,L|204:333,5,32.5,0|0|0|0|0|0,0:0|0:0|0:0|0:0|0:0|0:0,0:0:0:0:
189,320,3613,6,0,P|159:255|187:188,1,130,4|0,1:0|0:0,0:0:0:0:
253,198,4127,2,0,L|340:220,1,65,8|0,1:2|0:0,0:0:0:0:
329,291,4470,2,0,L|416:313,1,65,0|0,1:0|0:0,0:0:0:0:
457,263,4813,2,0,P|469:197|448:157,1,97.5,8|0,1:2|1:0,1:1:0:0:
430,142,5156,6,0,B|392:148|392:148|336:136|336:136|283:139,1,130,0|8,1:0|0:0,0:0:0:0:
254,75,5670,1,0,0:0:0:0:
177,91,5842,2,0,L|86:83,1,65,0|0,1:0|1:0,0:0:0:0:
56,139,6184,2,0,L|50:218,1,65,8|0,1:2|3:0,0:0:0:0:
74,278,6527,6,0,P|159:298|212:262,1,130,0|8,0:0|1:2,0:0:0:0:
247,219,7042,1,0,0:0:0:0:
303,272,7213,2,0,L|300:357,1,65,0|0,1:0|0:0,0:0:0:0:
378,330,7556,2,0,L|380:265,1,65,8|0,1:2|3:0,0:0:0:0:
441,215,7899,6,0,P|427:179|429:79,1,130,4|8,1:0|1:2,0:0:0:0:
405,13,8413,1,0,0:0:0:0:
326,27,8584,2,0,L|234:19,1,65,0|0,1:0|1:0,0:0:0:0:
199,69,8927,1,0,1:2:0:0:
135,22,9099,5,4,0:0:0:0:
68,64,9270,2,0,P|61:119|65:145,1,65,4|0,1:0|0:0,0:0:0:0:
127,169,9613,2,0,P|134:226|130:252,1,65,8|0,1:0|0:0,0:0:0:0:
85,294,9956,2,0,P|161:258|220:275,1,130,0|8,1:0|1:0,0:0:0:0:
225,341,10470,1,0,0:0:0:0:
299,322,10642,6,0,L|388:314,1,65,0|0,1:0|0:0,0:0:0:0:
390,243,10984,2,0,L|301:235,1,65,8|0,1:0|0:0,0:0:0:0:
270,181,11327,2,0,P|261:141|272:98,2,65,0|0|8,1:0|3:0|1:0,3:3:0:0:
336,138,11842,6,0,P|332:83|254:40,1,130,4|2,1:2|0:0,0:0:0:0:
199,60,12356,2,0,P|159:72|117:62,1,65,8|2,1:0|0:0,0:0:0:0:
99,138,12699,2,0,P|139:150|181:140,1,65,2|2,1:2|0:0,0:0:0:0:
233,178,13042,2,0,P|279:173|312:184,1,65,8|2,1:0|0:0,0:0:0:0:
338,242,13384,6,0,L|329:90,1,130,0|8,1:0|1:0,0:0:0:0:
397,70,13899,1,0,0:0:0:0:
397,70,14070,2,0,P|442:87|471:78,1,65,0|4,1:0|1:2,0:0:0:0:
472,318,14756,5,4,0:0:0:0:
256,192,22984,12,0,24356,0:0:0:0:
158,110,25042,6,0,P|108:97|50:111,2,97.5,0|0|4,1:0|1:0|1:0,1:1:0:0:
68,326,26070,5,4,1:0:0:0:
132,282,26242,2,0,P|183:278|218:287,2,65,2|0|0,0:0|1:0|0:0,0:0:0:0:
59,253,26756,2,0,P|43:202|47:169,1,65,0|0,1:0|0:0,0:0:0:0:
104,142,27099,1,0,1:0:0:0:
249,86,27442,6,0,L|332:83,1,65,0|2,1:0|0:0,0:0:0:0:
348,102,27699,1,0,0:0:0:0:
348,102,27784,2,0,P|400:112|435:101,1,65,0|0,1:0|0:0,0:0:0:0:
467,56,28127,1,0,1:0:0:0:
492,129,28299,6,0,L|497:217,1,65,0|0,0:0|1:0,0:0:0:0:
417,188,28642,2,0,L|422:276,1,65,2|0,0:0|1:0,0:0:0:0:
342,249,28984,2,0,L|347:337,1,65,2|0,0:0|0:0,0:0:0:0:
268,298,29327,1,0,0:0:0:0:
196,328,29499,2,0,P|158:317|125:324,1,65,0|4,1:0|1:0,0:0:0:0:
63,356,29842,6,0,P|105:291|105:210,1,130,0|0,1:0|1:0,0:0:0:0:
64,176,30356,1,0,0:0:0:0:
28,107,30527,2,0,P|19:68|34:30,2,65,0|0|0,1:0|1:0|1:0,0:0:0:0:
98,71,31042,1,0,1:0:0:0:
172,47,31213,6,0,P|237:59|308:40,1,130,0|0,1:0|1:0,0:0:0:0:
375,29,31727,1,2,0:0:0:0:
375,29,31899,2,0,L|372:117,1,65,0|2,1:0|0:0,0:0:0:0:
426,151,32242,2,0,L|425:237,1,65,0|4,1:0|1:2,0:0:0:0:
406,250,32499,1,0,0:0:0:0:
406,250,32584,6,4,P|352:286|281:283,1,130,0|0,0:0|1:3,0:0:0:0:
220,246,33099,1,2,0:0:0:0:
155,203,33270,2,0,L|148:156,2,32.5,0|0|0,1:0|0:0|0:0,0:0:0:0:
93,251,33613,2,0,P|82:304|83:331,1,65,0|2,1:0|0:0,0:0:0:0:
97,350,33870,1,0,0:0:0:0:
97,350,33956,6,0,P|173:347|239:360,1,130,4|0,1:2|1:0,0:0:0:0:
300,332,34470,1,6,0:2:0:0:
300,332,34642,2,0,P|352:349|388:345,1,65,0|4,1:0|0:2,0:0:0:0:
419,297,34984,2,0,L|428:211,1,65,4|0,1:2|0:0,0:0:0:0:
484,184,35327,6,0,L|477:34,1,130,4|4,1:2|1:2,0:0:0:0:
404,29,35842,1,2,0:0:0:0:
404,29,36013,2,0,P|359:18|326:20,1,65,0|2,1:0|0:0,0:0:0:0:
270,53,36356,2,0,P|207:60|181:57,1,65,4|0,1:2|0:0,0:0:0:0:
135,24,36699,6,0,P|70:45|41:117,1,130,4|4,1:2|1:2,0:0:0:0:
69,169,37213,1,0,3:0:0:0:
127,220,37384,2,0,B|139:257|139:257|132:355,1,130,4|0,1:2|1:0,0:0:0:0:
288,335,38070,6,0,P|348:313|423:344,1,130,4|4,1:2|1:2,0:0:0:0:
485,350,38584,1,2,3:2:0:0:
408,331,38756,2,0,L|394:178,1,130,0|0,1:0|1:0,0:0:0:0:
427,129,39270,1,0,0:0:0:0:
379,66,39442,6,0,P|346:64|304:71,1,65,4|0,1:2|0:0,0:0:0:0:
238,51,39784,2,0,P|205:55|173:53,1,65,4|0,1:2|0:0,0:0:0:0:
99,80,40127,2,0,L|36:75,2,32.5,0|2|2,1:0|0:0|0:0,0:0:0:0:
149,139,40470,1,0,1:0:0:0:
124,213,40642,1,4,0:0:0:0:
196,241,40813,6,0,L|197:335,1,65,0|4,0:0|0:0,0:0:0:0:
273,319,41156,2,0,L|272:170,1,130,0|8,1:0|1:3,0:0:0:0:
326,133,41670,1,8,1:3:0:0:
280,69,41842,2,0,P|223:65|195:68,1,65,4|2,1:2|0:0,0:0:0:0:
179,81,42099,1,0,0:0:0:0:
179,81,42184,6,2,L|88:78,1,65,4|0,1:2|0:1,0:0:0:0:
95,154,42527,2,0,L|175:157,1,65,0|2,1:1|0:1,0:0:0:0:
225,198,42870,2,2,P|234:241|219:287,2,65,0|2|2,1:0|0:1|1:1,0:0:0:0:
156,235,43384,1,2,0:0:0:0:
171,311,43556,6,0,L|332:301,1,130,4|0,1:2|1:2,0:0:0:0:
369,339,44070,1,6,0:0:0:0:
369,339,44242,2,0,L|459:350,1,65,0|2,1:0|0:0,0:0:0:0:
459,273,44584,2,0,P|469:236|456:193,1,65,4|0,1:2|0:0,0:0:0:0:
398,169,44927,6,0,P|352:108|370:42,1,130,4|4,1:2|1:2,0:0:0:0:
432,95,45442,1,4,0:2:0:0:
432,95,45613,2,0,L|510:102,1,65,0|2,1:2|0:0,0:0:0:0:
491,178,45956,2,0,L|426:172,1,65,0|0,1:0|0:2,0:0:0:0:
353,201,46299,5,4,1:2:0:0:
282,167,46470,2,0,L|277:115,2,32.5,2|2|0,0:0|0:0|1:0,0:0:0:0:
214,207,46813,2,0,L|209:259,2,32.5,2|2|0,0:0|0:0|1:0,0:0:0:0:
145,168,47156,2,0,L|140:116,2,32.5,2|0|0,0:0|0:0|1:0,1:1:0:0:
79,210,47499,1,0,1:0:0:0:
79,210,47670,6,0,P|65:271|110:328,1,130,4|6,1:0|1:0,0:0:0:0:
173,293,48184,1,2,0:1:0:0:
240,332,48356,2,0,L|313:337,1,65,0|0,1:0|1:1,0:0:0:0:
372,296,48699,2,2,L|436:291,1,65,2|0,1:1|0:0,0:0:0:0:
477,224,49042,6,0,P|479:180|475:145,2,65,4|2|0,1:2|0:1|1:0,0:0:0:0:
399,214,49556,1,2,0:1:0:0:
399,214,49727,2,0,P|353:221|313:210,1,65,2|0,1:0|3:0,0:0:0:0:
264,185,50070,2,0,P|218:175|176:179,1,65,2|2,1:1|0:1,0:0:0:0:
138,222,50413,5,2,1:1:0:0:
70,261,50584,1,2,3:1:0:0:
13,206,50756,2,0,L|9:126,1,65,0|0,1:0|3:0,0:0:0:0:
34,110,51013,1,0,3:0:0:0:
34,110,51099,2,0,P|90:131|182:114,1,130,0|2,1:0|1:0,0:0:0:0:
209,65,51613,1,2,0:1:0:0:
283,41,51784,6,0,P|346:38|374:50,1,65,2|0,1:0|0:0,0:0:0:0:
411,81,52127,2,0,L|408:169,1,65,2|2,1:0|0:1,0:0:0:0:
358,205,52470,2,0,L|303:209,2,32.5,4|0|0,1:0|3:0|3:0,0:0:0:0:
407,265,52813,2,0,L|462:269,2,32.5,4|0|0,1:0|3:0|3:0,0:0:0:0:
348,316,53156,6,0,P|297:308|260:318,1,65,4|2,1:0|0:3,0:0:0:0:
206,317,53499,1,0,1:0:0:0:
133,344,53670,1,2,0:3:0:0:
96,249,53842,2,0,P|127:256|159:255,1,65,0|2,1:0|0:3,0:0:0:0:
237,247,54185,1,0,1:0:0:0:
310,220,54356,1,2,0:3:0:0:
378,256,54527,6,0,L|468:273,1,65,4|0,1:2|0:0,0:0:0:0:
485,202,54870,1,4,1:2:0:0:
430,146,55042,1,0,0:0:0:0:
430,146,55213,2,0,P|423:102|428:60,1,65,4|0,1:2|0:0,0:0:0:0:
362,33,55556,2,0,L|269:26,1,65,4|0,1:2|0:0,0:0:0:0:
229,67,55899,6,0,L|144:76,1,65,0|8,1:0|1:3,0:0:0:0:
95,35,56242,1,0,1:0:0:0:
29,76,56413,1,0,0:0:0:0:
29,76,56499,1,0,0:0:0:0:
29,76,56584,2,0,P|25:121|30:166,1,65,0|0,1:0|1:0,0:0:0:0:
103,155,56927,1,0,1:0:0:0:
89,232,57099,1,0,1:0:0:0:
163,208,57270,6,0,L|207:208,4,32.5,8|0|8|0|4,1:3|0:0|1:3|0:0|1:0,0:0:0:0:
384,283,58127,1,8,1:3:0:0:
419,213,58299,2,0,L|419:168,2,32.5,8|0|0,1:2|0:0|0:0,0:0:0:0:
306,192,58642,6,0,P|254:179|224:185,1,65,4|0,1:0|0:0,0:0:0:0:
183,229,58984,1,0,1:0:0:0:
106,244,59156,1,0,3:0:0:0:
106,244,59327,2,0,L|101:160,1,65,0|0,1:0|0:0,0:0:0:0:
167,136,59670,2,0,L|172:52,1,65,0|0,1:0|0:0,0:0:0:0:
240,34,60013,6,0,P|303:36|330:43,1,65,0|0,1:0|0:0,0:0:0:0:
382,29,60356,1,0,1:0:0:0:
446,72,60527,1,0,0:0:0:0:
446,72,60613,1,0,0:0:0:0:
446,72,60699,2,0,P|443:111|454:157,1,65,0|0,1:0|0:0,0:0:0:0:
508,185,61042,2,0,L|492:308,1,97.5,0|0,1:0|0:0,0:0:0:0:
475,314,61384,6,0,P|418:298|388:303,1,65,0|0,1:0|0:0,0:0:0:0:
336,315,61727,2,0,P|279:331|249:326,1,65,0|0,1:0|0:0,0:0:0:0:
216,277,62070,2,0,P|159:261|129:266,1,65,0|0,1:0|0:0,0:0:0:0:
77,278,62413,2,0,P|20:294|-10:289,1,65,0|0,1:0|0:0,0:0:0:0:
26,216,62756,5,2,1:3:0:0:
66,149,62927,1,2,1:3:0:0:
139,121,63099,1,0,1:0:0:0:
216,125,63270,1,0,0:0:0:0:
284,163,63442,2,0,P|290:226|282:280,1,97.5,4|4,1:2|1:2,0:0:0:0:
172,284,63956,1,4,1:2:0:0:
108,239,64127,6,0,L|28:251,1,65,0|2,1:0|0:0,0:0:0:0:
48,162,64470,1,0,1:0:0:0:
142,169,64642,1,0,0:0:0:0:
142,169,64727,1,0,0:0:0:0:
142,169,64813,2,0,P|174:130|179:105,1,65,0|2,1:2|0:0,0:0:0:0:
190,39,65156,2,0,L|266:49,1,65,0|0,1:0|0:0,0:0:0:0:
316,95,65499,6,0,P|376:100|443:68,1,130,4|0,1:0|1:0,0:0:0:0:
487,132,66013,2,0,L|496:197,1,65,0|2,1:0|0:0,0:0:0:0:
417,200,66356,2,0,L|425:264,1,65,0|0,1:0|0:0,0:0:0:0:
347,271,66698,1,0,0:0:0:0:
303,205,66870,6,0,B|243:191|243:191|205:218|153:204,1,130,4|0,1:0|1:0,0:0:0:0:
112,165,67384,1,0,1:0:0:0:
36,159,67556,2,0,P|25:224|45:296,1,130,0|0,0:0|1:0,0:0:0:0:
115,304,68070,1,0,0:0:0:0:
182,265,68242,6,0,L|185:179,2,65,4|0|0,1:0|0:0|1:0,0:0:0:0:
252,298,68756,1,0,0:0:0:0:
252,298,68842,1,0,0:0:0:0:
252,298,68927,2,0,P|299:309|328:308,1,65,0|2,1:0|0:0,0:0:0:0:
351,293,69184,2,0,P|398:304|427:303,1,65,0|0,0:0|0:0,0:0:0:0:
448,284,69442,1,4,1:0:0:0:
466,208,69613,6,0,L|470:133,2,65,4|0|0,1:0|0:0|1:0,0:0:0:0:
395,173,70127,1,0,0:0:0:0:
395,173,70213,1,0,0:0:0:0:
395,173,70299,2,0,P|350:168|310:175,1,65,0|0,1:0|0:0,0:0:0:0:
262,208,70642,2,0,P|220:218|168:210,1,65,0|0,1:0|0:0,0:0:0:0:
127,185,70984,5,0,1:0:0:0:
54,213,71156,1,0,0:0:0:0:
20,142,71327,2,0,P|46:101|47:66,1,65,0|0,1:0|0:0,0:0:0:0:
107,34,71670,1,0,1:0:0:0:
107,34,71756,1,2,0:0:0:0:
107,34,71842,2,0,L|192:38,1,65,2|0,0:0|1:0,0:0:0:0:
243,67,72184,1,2,0:0:0:0:
316,41,72356,6,0,P|378:38|394:42,1,65,0|0,1:0|0:0,0:0:0:0:
448,77,72699,2,0,L|437:169,1,65,0|0,1:0|0:0,0:0:0:0:
462,216,73042,2,0,L|473:308,1,65,4|0,1:2|0:0,0:0:0:0:
425,344,73384,1,4,1:0:0:0:
269,329,73727,6,0,P|221:313|140:340,1,130,0|0,1:0|1:0,0:0:0:0:
77,296,74242,1,2,0:0:0:0:
25,238,74413,2,0,L|14:148,1,65,0|0,1:0|1:0,0:0:0:0:
76,122,74756,1,0,0:0:0:0:
132,175,74927,1,0,0:0:0:0:
132,175,75099,6,0,P|182:186|219:184,1,65,4|0,1:2|0:0,0:0:0:0:
258,140,75442,1,4,1:2:0:0:
319,188,75613,2,0,P|331:111|293:66,1,130,2|2,0:0|0:0,0:0:0:0:
224,68,76127,1,4,1:2:0:0:
258,140,76299,6,0,L|405:147,1,130,0|0,0:0|0:0,0:0:0:0:
455,185,76813,2,0,L|442:258,1,65,4|0,1:2|0:0,0:0:0:0:
365,245,77156,2,0,L|356:333,1,65,0|2,1:0|0:0,0:0:0:0:
283,331,77499,1,4,1:2:0:0:
136,272,77842,6,0,P|105:264|65:269,1,65,4|0,1:2|0:0,0:0:0:0:
20,322,78184,1,4,1:2:0:0:
95,342,78356,2,0,L|94:188,1,130,2|0,0:0|0:0,0:0:0:0:
136,146,78870,1,4,1:2:0:0:
195,197,79042,6,0,P|263:214|323:178,1,130,2|0,0:0|0:0,0:0:0:0:
353,120,79556,2,0,L|427:128,1,65,4|2,1:2|0:0,0:0:0:0:
455,195,79899,2,0,L|381:203,1,65,0|0,1:2|0:0,0:0:0:0:
360,274,80242,1,4,1:2:0:0:
204,274,80584,6,0,P|114:289|68:254,1,130,4|0,1:2|1:2,0:0:0:0:
48,201,81099,1,2,0:0:0:0:
83,131,81270,2,0,L|235:152,1,130,0|0,1:0|1:0,0:0:0:0:
280,112,81784,1,2,0:0:0:0:
354,88,81956,5,4,1:2:0:0:
428,110,82127,1,4,1:2:0:0:
500,140,82299,1,4,1:2:0:0:
428,278,82642,2,0,P|377:298|350:298,1,65,0|0,1:0|1:0,0:0:0:0:
309,247,82984,2,0,L|308:200,2,32.5,0|2|2,1:0|0:0|0:0,0:0:0:0:
247,295,83327,5,4,1:0:0:0:
256,192,83413,12,4,86070,1:2:0:0:
100,57,97042,5,4,1:0:0:0:
138,124,97213,2,0,P|195:98|276:113,1,130,0|8,0:0|0:0,0:0:0:0:
313,162,97727,2,0,L|310:251,1,65,0|0,0:0|0:0,0:0:0:0:
388,223,98070,1,0,0:0:0:0:
388,223,98156,1,0,0:0:0:0:
388,223,98242,6,0,P|439:230|489:311,1,130,0|0,0:0|0:0,0:0:0:0:
433,345,98756,1,0,0:0:0:0:
360,316,98927,1,0,0:0:0:0:
360,316,99099,2,0,L|222:333,1,130,0|0,0:0|0:0,0:0:0:0:
171,281,99613,1,0,0:0:0:0:
107,326,99784,6,0,L|30:326,1,65,0|0,0:0|0:0,0:0:0:0:
52,169,100299,2,0,P|125:173|187:126,1,130,8|0,0:0|0:0,0:0:0:0:
218,81,100813,1,0,0:0:0:0:
218,81,100899,1,0,0:0:0:0:
218,81,100984,6,0,B|261:77|261:77|310:92|310:92|357:89,1,130,0|0,0:0|0:0,0:0:0:0:
415,53,101499,1,0,0:0:0:0:
415,53,101670,2,0,P|419:115|367:164,1,130,0|0,0:0|0:0,0:0:0:0:
304,196,102184,2,0,L|237:181,1,65,0|0,0:0|0:0,0:0:0:0:
173,221,102527,5,0,0:0:0:0:
173,221,102699,1,0,0:0:0:0:
309,297,103042,2,0,P|386:276|455:308,1,130,8|0,0:0|0:0,0:0:0:0:
484,348,103556,1,0,0:0:0:0:
431,290,103727,6,0,L|426:129,1,130,0|0,0:0|0:0,0:0:0:0:
377,98,104242,1,0,0:0:0:0:
327,158,104413,2,0,L|331:287,1,130,0|0,0:0|0:0,0:0:0:0:
254,303,104927,2,0,P|211:300|172:309,1,65,0|0,0:0|0:0,0:0:0:0:
117,333,105270,6,0,P|35:285|38:237,1,130,0|0,1:0|0:0,0:0:0:0:
92,209,105784,2,0,P|123:136|104:64,1,130,8|0,0:0|0:0,0:0:0:0:
58,33,106299,1,0,0:0:0:0:
131,7,106470,6,0,L|283:9,1,130,0|0,0:0|0:0,0:0:0:0:
319,60,106984,2,0,L|412:53,1,65,2|0,1:3|0:0,0:0:0:0:
449,12,107327,1,0,1:0:0:0:
456,89,107499,1,0,1:0:0:0:
464,166,107670,2,0,L|467:254,1,65,8|0,1:3|0:0,0:0:0:0:
407,283,108013,6,0,P|374:337|309:350,1,130,4|0,1:0|0:0,0:0:0:0:
326,271,108527,1,0,0:0:0:0:
367,204,108699,2,0,B|379:167|379:167|372:69,1,130,0|8,0:0|1:0,0:0:0:0:
224,49,109384,6,0,P|164:71|89:40,1,130,0|0,1:0|1:0,0:0:0:0:
27,34,109898,1,0,0:0:0:0:
104,53,110070,2,0,L|118:206,1,130,0|0,0:0|1:0,0:0:0:0:
85,255,110584,1,0,1:0:0:0:
133,318,110756,6,0,P|166:320|208:313,1,65,4|0,1:2|0:0,0:0:0:0:
274,333,111098,2,0,P|307:329|339:331,1,65,0|0,1:0|0:0,0:0:0:0:
413,304,111441,2,0,L|476:309,2,32.5,0|2|2,0:0|0:0|1:2,0:0:0:0:
363,245,111784,1,8,1:0:0:0:
388,171,111956,1,0,0:0:0:0:
316,143,112127,6,0,L|315:49,1,65,0|2,1:0|0:3,0:0:0:0:
239,65,112470,2,0,L|240:214,1,130,0|0,1:0|0:0,0:0:0:0:
186,251,112984,1,0,1:0:0:0:
232,315,113156,2,0,P|289:319|317:316,1,65,0|0,0:0|1:0,0:0:0:0:
333,303,113413,1,0,0:0:0:0:
333,303,113498,6,0,L|424:306,1,65,4|0,0:0|0:0,0:0:0:0:
417,230,113841,2,0,L|337:227,1,65,8|0,1:0|0:0,0:0:0:0:
287,186,114184,2,0,P|278:143|293:97,2,65,0|0|0,1:0|0:0|1:0,0:0:0:0:
356,149,114698,1,0,0:0:0:0:
341,73,114870,6,0,L|180:83,1,130,4|2,1:0|1:2,0:0:0:0:
143,45,115384,1,2,0:0:0:0:
143,45,115556,2,0,L|53:34,1,65,0|0,1:0|0:0,0:0:0:0:
53,111,115898,2,0,P|43:148|56:191,1,65,0|0,1:0|0:0,0:0:0:0:
114,215,116241,6,0,P|156:275|139:341,1,130,4|8,1:0|1:0,0:0:0:0:
80,289,116756,1,0,0:0:0:0:
80,289,116927,2,0,L|2:282,1,65,0|0,1:0|0:0,0:0:0:0:
21,206,117270,2,0,L|86:212,1,65,4|0,1:2|1:0,0:0:0:0:
159,183,117613,5,4,1:2:0:0:
230,217,117784,2,0,L|235:269,2,32.5,0|0|0,3:0|3:0|3:0,0:0:0:0:
298,177,118127,2,0,L|303:125,2,32.5,0|0|2,3:0|3:0|3:0,0:0:0:0:
367,216,118470,2,0,L|372:268,2,32.5,2|0|0,3:0|0:0|1:0,1:1:0:0:
433,174,118813,1,0,1:0:0:0:
433,174,118984,6,0,P|447:113|402:56,1,130,4|0,1:2|0:0,0:0:0:0:
339,91,119498,1,10,1:3:0:0:
272,52,119670,2,0,L|199:47,1,65,0|0,0:0|0:0,0:0:0:0:
140,88,120013,2,0,L|76:93,1,65,10|0,1:3|0:0,0:0:0:0:
35,160,120356,6,0,P|33:204|37:239,2,65,0|0|10,1:0|0:0|1:3,0:0:0:0:
113,170,120870,1,0,0:0:0:0:
113,170,121041,2,0,P|159:163|199:174,1,65,0|0,0:0|0:0,0:0:0:0:
248,199,121384,2,0,P|294:209|336:205,1,65,10|0,1:3|1:0,0:0:0:0:
374,162,121727,5,0,1:0:0:0:
442,123,121898,1,2,0:0:0:0:
499,178,122070,2,0,L|503:258,1,65,0|10,1:0|1:3,0:0:0:0:
478,274,122327,1,0,0:0:0:0:
478,274,122413,2,0,P|422:253|330:270,1,130,0|0,0:0|1:3,0:0:0:0:
303,319,122927,1,0,0:0:0:0:
229,343,123098,6,0,P|166:346|138:334,1,65,0|0,1:0|1:0,0:0:0:0:
101,303,123441,2,0,L|104:215,1,65,0|0,1:0|0:0,0:0:0:0:
154,179,123784,2,0,L|209:175,2,32.5,0|2|0,1:0|0:0|1:0,0:0:0:0:
105,119,124127,2,0,L|50:115,2,32.5,0|0|0,1:0|1:0|1:0,0:0:0:0:
164,68,124470,6,0,P|215:76|252:66,1,65,0|0,1:0|1:0,0:0:0:0:
306,67,124813,1,0,1:0:0:0:
367,19,124984,2,0,L|358:169,1,130,10|0,1:3|0:0,0:0:0:0:
426,189,125499,2,0,L|428:282,1,65,10|0,1:3|0:0,0:0:0:0:
374,311,125842,6,0,P|329:328|285:331,1,65,4|0,1:0|0:0,0:0:0:0:
244,293,126184,1,10,1:3:0:0:
179,337,126356,2,0,P|110:326|43:334,1,130,0|0,0:0|1:0,0:0:0:0:
22,259,126870,1,0,1:0:0:0:
40,182,127042,1,0,0:0:0:0:
94,126,127213,6,0,L|228:137,1,130,4|0,1:0|1:0,0:0:0:0:
289,93,127727,2,0,L|367:86,1,65,4|0,1:0|0:0,0:0:0:0:
371,163,128070,2,0,L|449:156,1,65,4|10,1:0|1:3,0:0:0:0:
465,229,128413,6,0,P|483:311|450:351,1,130,4|10,1:0|1:3,0:0:0:0:
386,316,128927,1,0,1:0:0:0:
312,343,129099,1,0,0:0:0:0:
249,296,129270,2,0,P|199:293|174:301,1,65,10|10,1:3|1:3,0:0:0:0:
35,252,129784,1,2,0:0:0:0:
35,252,129870,1,2,0:0:0:0:
35,252,129956,6,0,L|29:104,1,130,4|0,1:0|1:0,0:0:0:0:
85,67,130470,1,2,0:0:0:0:
163,65,130642,2,0,P|179:129|157:219,1,130,0|0,1:0|1:0,0:0:0:0:
126,257,131156,1,2,0:0:0:0:
203,265,131327,6,0,L|294:250,1,65,0|2,1:0|0:0,0:0:0:0:
331,298,131670,2,0,L|424:304,1,65,0|2,1:0|0:0,0:0:0:0:
452,248,132013,2,0,P|471:202|466:168,1,65,0|2,1:0|0:0,0:0:0:0:
455,110,132356,1,10,1:3:0:0:
306,60,132699,6,0,B|265:45|265:45|228:64|165:66,1,130,4|0,1:2|1:0,0:0:0:0:
111,30,133213,1,2,0:0:0:0:
111,30,133384,2,0,P|54:76|45:148,1,130,0|10,1:0|1:3,0:0:0:0:
93,188,133899,1,2,0:0:0:0:
158,230,134070,6,0,L|152:318,1,65,0|0,1:0|0:0,0:0:0:0:
217,339,134413,1,0,1:0:0:0:
284,300,134584,2,0,L|272:169,1,130,0|2,0:0|0:0,0:0:0:0:
330,118,135099,1,0,1:0:0:0:
396,157,135270,1,2,0:0:0:0:
396,157,135356,1,0,0:0:0:0:
396,157,135442,6,0,P|453:136|474:46,1,130,4|4,1:0|1:0,0:0:0:0:
414,31,135956,1,0,0:0:0:0:
336,32,136127,2,0,L|195:27,1,130,4|4,1:0|1:0,0:0:0:0:
179,101,136642,1,0,0:0:0:0:
112,141,136813,6,0,L|130:233,1,65,0|2,1:0|0:3,0:0:0:0:
46,207,137156,2,0,L|64:299,1,65,0|2,1:0|0:3,0:0:0:0:
129,303,137499,2,0,P|183:292|214:298,1,65,0|2,1:0|0:3,0:0:0:0:
261,330,137842,2,0,P|308:338|337:336,1,65,0|2,1:0|0:3,0:0:0:0:
391,297,138184,5,4,1:0:0:0:
391,297,138356,1,2,1:3:0:0:
442,355,138527,2,0,L|432:203,1,130,2|4,1:3|1:0,0:0:0:0:
441,147,139042,1,2,1:3:0:0:
382,95,139213,2,0,P|332:109|297:107,1,65,2|0,1:3|0:0,0:0:0:0:
245,84,139556,6,0,L|246:42,4,32.5,0|0|0|0|0,1:0|0:0|0:0|0:0|0:0,0:0:0:0:
245,84,140584,1,10,1:3:0:0:
192,230,140927,6,0,P|244:243|274:237,1,65,4|0,1:0|0:0,0:0:0:0:
298,177,141269,1,0,1:0:0:0:
373,156,141441,1,0,0:0:0:0:
373,156,141612,2,0,L|378:240,1,65,0|0,1:0|0:0,0:0:0:0:
327,281,141955,2,0,L|322:365,1,65,0|0,1:0|0:0,0:0:0:0:
244,343,142298,6,0,P|181:341|154:334,1,65,0|0,1:2|0:0,0:0:0:0:
102,353,142641,1,0,0:0:0:0:
33,314,142813,1,2,0:0:0:0:
33,314,142898,1,2,0:0:0:0:
33,314,142984,2,0,L|28:233,1,65,0|2,1:0|0:0,0:0:0:0:
29,170,143327,2,0,L|45:47,1,97.5,0|0,1:0|0:0,0:0:0:0:
80,71,143670,6,0,P|137:87|167:82,1,65,0|0,1:0|0:0,0:0:0:0:
207,44,144012,2,0,P|264:28|294:33,1,65,0|0,1:0|0:0,0:0:0:0:
314,91,144355,2,0,P|371:107|401:102,1,65,4|0,1:0|0:0,0:0:0:0:
445,71,144698,2,0,P|502:55|532:60,1,65,0|0,1:0|0:0,0:0:0:0:
496,132,145041,5,4,1:0:0:0:
461,201,145212,1,0,1:0:0:0:
402,252,145384,1,2,0:0:0:0:
252,223,145727,2,0,P|246:160|254:106,1,97.5,4|4,1:2|1:2,0:0:0:0:
357,81,146241,1,4,1:2:0:0:
404,145,146412,6,0,L|484:133,1,65,4|0,1:0|0:0,0:0:0:0:
462,221,146755,1,0,1:0:0:0:
370,215,146927,1,2,0:0:0:0:
370,215,147013,1,2,0:0:0:0:
370,215,147098,2,0,P|338:254|333:279,1,65,0|0,1:0|0:0,0:0:0:0:
322,345,147441,2,0,L|246:335,1,65,0|0,1:0|0:0,0:0:0:0:
196,289,147784,6,0,P|136:284|69:316,1,130,0|0,1:0|1:0,0:0:0:0:
18,258,148298,1,2,0:0:0:0:
80,211,148470,2,0,L|70:134,1,65,0|0,1:0|0:0,0:0:0:0:
147,125,148812,2,0,L|156:190,1,65,0|0,1:0|0:0,0:0:0:0:
217,239,149156,6,0,B|277:253|277:253|315:226|367:240,1,130,4|4,1:0|1:0,0:0:0:0:
412,270,149669,1,0,1:0:0:0:
476,225,149841,2,2,P|487:160|467:88,1,130,0|2,0:0|1:1,0:0:0:0:
397,80,150355,1,0,0:1:0:0:
330,119,150527,6,0,L|327:205,2,65,0|2|0,1:0|0:0|1:0,0:0:0:0:
260,86,151041,1,2,0:0:0:0:
260,86,151127,1,0,0:0:0:0:
260,86,151212,2,0,P|213:75|184:76,1,65,0|2,1:0|1:3,0:0:0:0:
161,91,151470,2,0,P|114:80|85:81,1,65,2|0,0:0|0:0,0:0:0:0:
64,100,151727,1,2,1:3:0:0:
46,176,151899,6,0,L|42:251,2,65,4|2|0,1:0|0:0|1:0,0:0:0:0:
117,211,152412,1,0,0:0:0:0:
117,211,152498,1,0,0:0:0:0:
117,211,152584,2,0,P|162:216|202:209,1,65,0|0,1:0|0:0,0:0:0:0:
250,176,152927,2,0,P|292:166|344:174,1,65,0|0,1:0|0:0,0:0:0:0:
385,199,153269,5,0,1:0:0:0:
458,171,153441,1,0,0:0:0:0:
492,242,153612,2,0,P|466:283|465:318,1,65,0|0,1:0|0:0,0:0:0:0:
405,350,153955,1,0,1:0:0:0:
405,350,154041,1,2,0:0:0:0:
405,350,154127,2,0,L|320:346,1,65,2|0,0:0|1:0,1:1:0:0:
269,317,154469,1,0,1:0:0:0:
196,343,154641,6,0,P|134:346|118:342,1,65,4|0,1:0|0:0,0:0:0:0:
64,307,154984,2,0,L|75:215,1,65,4|0,1:0|0:0,0:0:0:0:
50,168,155327,2,0,L|39:76,1,65,0|2,1:0|0:3,0:0:0:0:
87,40,155669,1,0,1:0:0:0:
243,55,156013,6,0,P|291:71|372:44,1,130,4|0,1:0|0:0,0:0:0:0:
435,88,156527,1,0,0:0:0:0:
487,146,156698,2,0,L|498:236,1,65,4|4,1:0|1:0,0:0:0:0:
436,262,157041,1,2,1:3:0:0:
380,209,157212,1,0,0:0:0:0:
380,209,157384,6,0,P|330:198|293:200,1,65,4|0,1:0|0:0,0:0:0:0:
254,244,157727,1,0,1:0:0:0:
193,196,157899,2,0,P|181:273|219:318,1,130,4|0,1:2|0:0,0:0:0:0:
288,316,158412,1,4,1:2:0:0:
254,244,158584,6,0,L|107:237,1,130,0|0,0:0|0:0,0:0:0:0:
57,199,159098,2,0,L|70:126,1,65,4|0,1:2|0:0,0:0:0:0:
147,139,159441,2,0,L|156:51,1,65,0|2,1:0|0:0,0:0:0:0:
229,53,159784,1,4,1:2:0:0:
376,112,160127,6,0,P|407:120|447:115,1,65,0|2,1:0|0:0,0:0:0:0:
492,62,160469,1,4,1:2:0:0:
417,42,160641,2,0,L|418:196,1,130,2|0,0:0|0:0,0:0:0:0:
376,238,161155,1,4,1:2:0:0:
317,187,161327,6,0,P|249:170|189:206,1,130,0|2,0:0|0:0,0:0:0:0:
159,264,161841,2,0,L|85:256,1,65,4|0,1:2|0:0,0:0:0:0:
57,189,162184,2,0,L|131:181,1,65,0|2,1:0|3:2,0:0:0:0:
152,110,162527,1,4,1:2:0:0:
308,110,162870,6,0,P|398:95|444:130,1,130,4|0,1:2|1:2,0:0:0:0:
464,183,163384,1,2,0:2:0:0:
429,253,163556,2,0,L|277:232,1,130,0|0,1:2|1:2,0:0:0:0:
232,272,164069,1,2,0:2:0:0:
158,296,164241,5,4,1:2:0:0:
84,274,164412,1,4,1:2:0:0:
12,244,164584,1,4,1:2:0:0:
84,106,164927,2,0,P|135:86|162:86,1,65,0|0,1:0|1:0,0:0:0:0:
203,137,165270,2,0,L|204:184,2,32.5,0|0|0,1:0|1:0|1:0,0:0:0:0:
265,89,165612,5,6,1:0:0:0:
256,192,165698,12,4,168355,1:0:0:0:
417,88,170413,6,0,P|344:58|271:73,1,130,4|0,1:2|1:0,0:0:0:0:
251,128,170927,2,0,L|260:211,1,65,0|4,0:0|0:1,0:0:0:0:
179,193,171270,2,0,L|171:128,1,65,2|0,0:2|1:0,0:0:0:0:
126,64,171613,6,0,P|36:57|-4:89,1,130,2|0,0:0|0:0,0:0:0:0:
28,152,172127,1,0,1:0:0:0:
147,252,172470,1,0,1:0:0:0:
252,137,172813,1,10,1:3:0:0:
407,137,173155,6,0,L|415:48,2,65,4|2|0,1:0|0:0|1:0,0:0:0:0:
468,186,173670,2,0,P|443:245|489:320,1,130,4|0,1:0|1:0,0:0:0:0:
396,338,174184,2,0,L|252:321,1,130,0|0,1:0|0:0,0:0:0:0:
188,317,174698,5,0,1:0:0:0:
113,340,174870,1,0,1:0:0:0:
51,292,175041,2,0,P|41:241|44:216,1,65,2|0,0:0|1:0,0:0:0:0:
113,197,175384,2,0,P|123:146|120:121,1,65,0|0,0:0|1:0,0:0:0:0:
71,73,175727,1,0,1:0:0:0:
135,29,175898,6,0,B|174:23|174:23|232:37|232:37|288:33,1,130,4|0,1:2|1:2,3:3:0:0:
340,23,176413,1,2,0:0:0:0:
417,28,176584,2,0,L|510:43,1,65,0|2,1:2|0:0,3:3:0:0:
483,116,176927,2,0,L|418:105,1,65,0|2,1:2|0:0,3:3:0:0:
353,149,177270,6,0,P|314:213|340:271,1,130,0|0,1:0|1:0,0:0:0:0:
393,214,177784,1,2,0:0:0:0:
466,238,177955,2,0,L|468:318,1,65,0|2,1:0|0:0,0:0:0:0:
389,300,178298,2,0,L|391:380,1,65,0|2,1:0|0:0,0:0:0:0:
316,339,178641,6,0,P|271:320|170:339,1,130,0|0,1:0|1:0,0:0:0:0:
117,302,179155,1,2,0:0:0:0:
41,280,179327,2,0,L|30:189,1,65,0|0,1:0|1:0,0:0:0:0:
110,201,179670,2,0,L|121:110,1,65,4|0,1:2|0:0,0:0:0:0:
172,80,180013,5,0,1:0:0:0:
172,80,180184,1,0,1:0:0:0:
239,118,180355,2,0,P|297:135|382:103,1,130,4|0,1:2|1:0,0:0:0:0:
419,62,180870,1,2,0:0:0:0:
485,102,181041,2,0,B|481:225,1,97.5,0|2,1:0|2:0,0:0:0:0:
462,233,181384,6,0,P|394:275|341:263,1,130,4|0,1:2|1:0,0:0:0:0:
283,223,181898,2,0,L|143:205,1,130,2|0,0:0|0:0,0:0:0:0:
89,252,182413,1,0,1:0:0:0:
45,102,182755,6,0,L|46:17,1,65,4|0,1:0|0:0,0:0:0:0:
125,35,183098,2,0,L|124:99,1,65,0|2,1:0|0:0,0:0:0:0:
190,141,183441,1,0,1:0:0:0:
190,141,183613,1,0,0:0:0:0:
259,105,183784,2,0,L|258:64,2,32.5,0|0|0,1:0|1:0|1:0,0:0:0:0:
326,144,184127,6,0,P|393:154|455:99,1,130,4|0,1:2|1:0,0:0:0:0:
494,63,184641,2,0,L|488:211,1,130,2|0,0:0|0:0,0:0:0:0:
450,261,185155,1,4,1:2:0:0:
295,280,185498,6,0,P|250:264|219:264,1,65,4|0,1:0|0:0,0:0:0:0:
186,326,185841,2,0,P|128:340|95:337,1,65,4|0,1:0|0:0,0:0:0:0:
46,323,186184,2,0,L|36:234,1,65,0|2,1:0|0:0,0:0:0:0:
111,229,186527,2,0,L|156:271,2,32.5,0|0|0,1:0|1:0|1:0,0:0:0:0:
50,179,186870,5,4,1:0:0:0:
356,228,198184,6,0,L|427:220,1,65,0|0,1:0|0:0,0:0:0:0:
422,141,198527,2,0,L|268:106,1,130,0|2,1:0|0:3,0:0:0:0:
231,66,199041,1,0,0:0:0:0:
156,40,199213,6,0,L|77:40,1,65,2|0,0:3|0:0,0:0:0:0:
103,116,199555,2,0,L|182:116,1,65,0|0,1:0|0:0,0:0:0:0:
229,164,199898,2,0,P|226:229|232:242,1,65,2|0,1:3|0:0,0:0:0:0:
293,266,200241,2,0,P|334:255|365:257,1,65,0|0,1:0|1:0,0:0:0:0:
426,289,200584,6,0,P|475:242|467:163,1,130,2|2,0:0|0:0,0:0:0:0:
415,134,201098,1,2,0:0:0:0:
344,167,201270,2,2,L|205:144,1,130,0|2,1:0|0:1,0:0:0:0:
168,207,201784,6,0,P|99:247|94:313,1,130,0|0,0:0|1:0,0:0:0:0:
148,342,202298,1,0,0:0:0:0:
220,313,202470,1,2,0:0:0:0:
289,348,202641,2,0,L|385:354,1,65,0|2,1:0|0:0,0:0:0:0:
410,297,202984,1,0,1:0:0:0:
347,251,203155,1,2,0:0:0:0:
347,251,203241,1,2,0:0:0:0:
347,251,203327,6,0,P|315:200|334:119,1,130,0|0,1:0|1:0,1:1:0:0:
393,97,203841,1,0,1:0:0:0:
468,115,204013,2,0,L|461:175,4,32.5,0|0|0|0|2,1:0|1:0|1:0|1:0|1:3,0:0:0:0:
80,339,207441,6,0,L|70:260,2,65,4|2|0,1:0|0:0|1:0,0:0:0:0:
157,328,207955,2,0,P|191:278|192:205,1,130,2|0,0:0|0:0,0:0:0:0:
143,149,208470,1,0,1:0:0:0:
143,149,208641,1,0,0:0:0:0:
188,85,208813,6,0,L|263:102,1,65,0|0,3:0|3:0,3:3:0:0:
309,47,209155,1,0,3:0:0:0:
380,78,209327,1,0,0:0:0:0:
380,78,209413,1,0,0:0:0:0:
380,78,209498,2,0,B|377:120|377:120|382:166,1,65,0|0,1:0|0:0,0:0:0:0:
444,185,209841,2,0,P|454:250|435:300,1,97.5,0|0,1:0|0:0,0:0:0:0:
428,314,210184,6,0,L|340:301,1,65,0|2,1:0|0:0,0:0:0:0:
300,350,210527,2,0,L|235:359,1,65,0|2,1:0|0:0,0:0:0:0:
201,289,210870,2,0,L|113:276,1,65,0|0,1:0|0:0,0:0:0:0:
73,325,211213,2,0,L|8:334,1,65,0|0,1:0|0:0,0:0:0:0:
8,256,211555,5,2,1:3:0:0:
61,198,211727,1,2,1:3:0:0:
74,121,211898,1,0,1:0:0:0:
43,49,212070,1,0,0:0:0:0:
114,19,212241,2,0,L|237:31,1,97.5,4|4,1:2|1:2,0:0:0:0:
327,41,212755,6,0,P|434:46|459:77,1,130,4|2,1:2|0:0,0:0:0:0:
438,135,213270,2,0,L|428:212,1,65,0|0,1:0|0:0,0:0:0:0:
476,262,213613,1,0,1:2:0:0:
476,262,213784,1,2,0:0:0:0:
413,308,213955,2,0,P|356:293|328:302,1,65,0|0,1:0|0:0,0:0:0:0:
274,308,214298,6,0,P|212:330|136:325,1,130,4|0,1:0|1:0,0:0:0:0:
71,310,214813,1,0,0:0:0:0:
71,310,214898,1,0,0:0:0:0:
71,310,214984,2,0,L|66:224,1,65,0|0,1:0|0:0,0:0:0:0:
140,218,215327,2,0,L|145:132,1,65,0|2,1:0|0:0,0:0:0:0:
193,92,215670,6,0,P|281:58|337:79,1,130,4|0,1:0|1:0,0:0:0:0:
369,118,216184,1,0,1:0:0:0:
328,184,216355,2,0,B|309:225|309:225|326:329,1,130,0|0,0:0|1:0,0:0:0:0:
399,327,216870,1,0,0:0:0:0:
452,270,217041,6,0,L|448:180,2,65,4|0|0,1:0|0:0|1:0,0:0:0:0:
399,327,217555,1,0,0:0:0:0:
320,324,217727,2,0,P|277:335|253:335,1,65,0|2,1:0|0:0,0:0:0:0:
217,340,217984,2,0,P|172:341|149:336,1,65,0|0,0:0|0:0,0:0:0:0:
115,325,218241,1,4,1:0:0:0:
54,275,218413,6,0,L|44:191,1,65,4|2,1:0|0:0,0:0:0:0:
106,160,218755,1,0,1:0:0:0:
174,198,218927,2,0,P|254:234|312:209,1,130,2|0,0:0|0:0,0:0:0:0:
336,159,219441,2,0,L|406:168,1,65,0|0,1:0|0:0,0:0:0:0:
422,92,219784,6,0,L|357:83,1,65,0|0,1:0|0:0,0:0:0:0:
289,44,220127,1,0,1:0:0:0:
220,80,220298,2,0,B|159:71|159:71|120:100|70:98,1,130,0|2,1:0|0:0,0:0:0:0:
29,55,220813,2,0,P|17:96|32:133,1,65,0|2,1:0|0:0,0:0:0:0:
71,176,221155,6,0,L|57:254,1,65,4|0,1:2|0:0,0:0:0:0:
133,264,221498,2,0,L|144:200,1,65,0|0,1:2|0:2,0:0:0:0:
220,218,221841,2,0,L|206:296,1,65,4|0,1:2|0:0,0:0:0:0:
282,306,222184,2,0,L|293:242,1,65,4|0,1:0|0:0,0:0:0:0:
357,196,222527,6,0,P|359:148|344:118,2,65,0|2|0,1:0|0:0|1:0,0:0:0:0:
424,235,223041,2,0,P|439:168|426:102,1,130,0|4,0:0|1:0,0:0:0:0:
387,41,223555,1,0,0:0:0:0:
236,96,223898,6,0,P|189:103|157:97,1,65,4|0,1:2|0:0,0:0:0:0:
102,64,224241,1,4,1:2:0:0:
41,113,224413,2,0,L|38:260,1,130,2|2,0:0|0:0,0:0:0:0:
82,307,224927,1,4,1:2:0:0:
144,260,225098,6,0,P|222:238|285:267,1,130,0|0,0:0|0:0,0:0:0:0:
334,291,225613,2,0,P|397:304|421:296,1,65,4|0,1:2|0:0,0:0:0:0:
460,260,225955,1,0,1:0:0:0:
425,189,226127,1,2,0:0:0:0:
451,115,226298,1,4,1:2:0:0:
311,185,226641,6,0,P|264:178|232:184,1,65,4|0,1:2|0:0,0:0:0:0:
198,241,226984,1,4,1:2:0:0:
138,291,227156,2,0,L|135:144,1,130,2|0,0:0|0:0,0:0:0:0:
127,83,227670,1,4,1:2:0:0:
196,48,227841,6,0,P|274:70|337:41,1,130,2|0,0:0|0:0,0:0:0:0:
348,127,228356,2,0,P|411:114|435:122,1,65,4|2,1:2|0:0,0:0:0:0:
477,152,228698,1,0,1:0:0:0:
451,226,228870,1,0,0:0:0:0:
451,226,229041,2,0,L|472:318,1,65,4|0,1:2|0:0,0:0:0:0:
389,308,229384,6,0,B|347:322|347:322|304:300|238:310,1,130,4|0,1:2|1:0,0:0:0:0:
200,354,229898,2,0,B|123:360|123:360|64:338,1,130,2|0,0:0|0:0,0:0:0:0:
66,263,230413,2,0,P|95:206|92:129,1,130,0|4,1:0|1:2,0:0:0:0:
48,78,230927,5,4,1:2:0:0:
104,25,231098,2,0,L|196:33,1,65,4|2,1:2|0:0,0:0:0:0:
231,76,231441,2,0,L|277:71,2,32.5,0|0|0,1:0|0:0|1:0,0:0:0:0:
168,123,231784,2,0,L|122:118,2,32.5,0|0|0,1:0|1:0|1:0,0:0:0:0:
216,184,232127,5,4,1:0:0:0:
256,192,232213,12,4,234870,1:0:0:0:
195,84,240355,6,0,L|344:116,1,130,4|2,1:0|0:3,0:0:0:0:
366,46,240870,2,0,L|381:197,1,130,4|2,1:0|0:3,0:0:0:0:
452,203,241384,2,0,L|312:264,1,130,4|2,1:0|0:3,0:0:0:0:
336,334,241899,2,0,L|234:220,1,130,4|2,1:0|0:3,0:0:0:0:
173,218,242413,6,0,P|131:213|96:220,1,65,6|2,1:0|0:1,0:0:0:0:
54,272,242755,1,2,0:1:0:0:
54,272,242927,1,4,1:0:0:0:
256,192,243013,12,0,244470,0:0:0:0:
