osu file format v14

[General]
AudioFilename: Chuunibyou demo Koi ga Shitai! - Sparkling Daydream.mp3
AudioLeadIn: 1000
PreviewTime: 58642
Countdown: 0
SampleSet: Soft
StackLeniency: 0.3
Mode: 0
LetterboxInBreaks: 0
WidescreenStoryboard: 1

[Editor]
DistanceSpacing: 1
BeatDivisor: 4
GridSize: 4
TimelineZoom: 1.2

[Metadata]
Title:Sparkling Daydream
TitleUnicode:Sparkling Daydream
Artist:ZAQ
ArtistUnicode:ZAQ
Creator:Chloe
Version:Natsu's Normal
Source:中二病でも恋がしたい!
Tags:opening Chu-2 byo demo KOI ga shitai Natsu Regraz CSAQ
BeatmapID:928208
BeatmapSetID:389192

[Difficulty]
HPDrainRate:5
CircleSize:3
OverallDifficulty:4
ApproachRate:5
SliderMultiplier:1.1
SliderTickRate:1

[Events]
//Background and Video events
0,0,"bg.jpg",0,0
//Break Periods
2,14956,21784
2,86270,95842
2,187070,196984
2,235070,239155
//Storyboard Layer 0 (Background)
//Storyboard Layer 1 (Fail)
//Storyboard Layer 2 (Pass)
//Storyboard Layer 3 (Foreground)
//Storyboard Sound Samples

[TimingPoints]
1042,342.857142857143,4,2,0,40,1,0
1042,-100,4,2,0,40,0,0
3784,-100,4,2,0,65,0,0
58642,-100,4,2,0,80,0,1
83327,-100,4,2,0,80,0,0
84870,-100,4,2,0,85,0,0
85042,-100,4,2,0,90,0,0
85213,-100,4,2,0,80,0,0
86070,-100,4,2,0,80,0,0
97042,-100,4,2,0,45,0,0
106642,-100,4,2,0,45,0,0
117784,-100,4,2,0,60,0,0
119156,-100,4,2,0,50,0,0
127727,-100,4,2,0,60,0,0
140927,-100,4,2,0,80,0,1
165613,-100,4,2,0,80,0,0
165699,-100,4,2,0,70,0,0
170413,342.857142857143,4,2,0,75,1,0
181384,-100,4,2,0,65,0,0
198184,-100,4,2,0,75,0,0
201613,-100,4,2,0,75,0,0
201955,-100,4,2,0,75,0,0
203498,-100,4,2,0,75,0,0
203670,-100,4,2,0,75,0,0
203841,-100,4,2,0,75,0,0
204698,-100,4,2,0,24,0,0
207441,-100,4,2,0,90,0,1
232127,-100,4,2,0,85,0,0
240870,-100,4,2,0,90,0,0
241384,-100,4,2,0,95,0,0
241898,-100,4,2,0,100,0,0
242927,-100,4,2,0,100,0,0
243013,-100,4,2,0,5,0,0

[Colours]
Combo1 : 239,27,27
Combo2 : 23,145,255

[HitObjects]
40,116,1042,6,0,L|168:100,1,110,2|2,0:0|0:0,0:0:0:0:
248,152,1727,2,0,P|236:204|257:254,1,110,2|0,0:0|0:0,0:0:0:0:
352,308,2413,2,0,P|363:255|342:205,1,110,2|2,0:0|0:0,0:0:0:0:
248,152,3099,2,0,L|188:152,1,55
260,64,3613,6,0,L|317:64,1,55,4|0,1:0|0:0,0:0:0:0:
424,52,4127,1,8,1:2:0:0:
438,160,4470,2,0,P|423:212|440:263,1,110,0|8,1:0|1:2,0:0:0:0:
505,352,5156,2,0,B|385:352,1,110,0|8,1:0|0:0,0:0:0:0:
284,352,5842,2,0,P|260:312|272:240,1,110,0|8,1:0|1:2,0:0:0:0:
288,144,6527,6,0,L|176:152,1,110,0|8,0:0|1:2,0:0:0:0:
168,208,7042,2,0,P|128:276|32:264,1,165,0|8,0:0|1:2,0:0:0:0:
10,171,7899,2,0,L|10:52,1,110,4|8,1:0|1:2,0:0:0:0:
120,62,8584,2,0,P|172:77|224:61,1,110,0|0,1:0|1:2,0:0:0:0:
269,30,9099,5,4,0:0:0:0:
269,30,9270,2,0,L|268:146,1,110,4|8,1:0|1:0,0:0:0:0:
269,249,9956,2,0,P|321:234|373:249,1,110,0|8,1:0|1:0,0:0:0:0:
323,347,10642,2,0,P|270:362|218:347,1,110,0|8,1:0|1:0,0:0:0:0:
148,262,11327,2,0,L|130:148,1,110,0|8,1:0|1:0,0:0:0:0:
168,112,11842,6,0,P|220:127|272:112,1,110,4|2,1:2|0:0,0:0:0:0:
318,81,12356,2,0,L|335:189,1,110,8|2,1:0|1:2,0:0:0:0:
352,298,13042,1,8,1:0:0:0:
250,255,13384,2,0,P|195:249|147:273,1,110,0|8,1:0|1:0,0:0:0:0:
219,357,14070,2,0,L|291:357,1,55,0|4,1:0|1:2,0:0:0:0:
439,362,14756,5,4,0:0:0:0:
256,192,22984,12,0,24527,0:0:0:0:
40,357,26070,6,0,P|21:307|38:256,1,110,4|0,1:0|1:0,0:0:0:0:
96,160,26756,2,0,L|206:160,1,110,0|0,1:0|1:0,0:0:0:0:
300,214,27442,2,0,P|319:164|302:113,1,110,0|0,1:0|1:0,0:0:0:0:
364,20,28127,1,0,1:0:0:0:
464,64,28470,6,0,L|464:184,1,110,0|0,1:0|0:0,0:0:0:0:
472,228,28984,2,0,P|448:288|336:288,1,165,2|0,0:0|1:0,0:0:0:0:
256,262,29842,2,0,L|137:262,1,110,0|0,1:0|1:0,0:0:0:0:
48,313,30527,2,0,P|32:255|51:205,1,110,0|0,1:0|1:0,0:0:0:0:
118,125,31213,6,0,L|237:125,1,110,0|0,1:0|1:0,0:0:0:0:
326,74,31899,2,0,P|342:132|323:182,1,110,0|0,1:0|1:0,0:0:0:0:
256,263,32584,1,0,1:0:0:0:
167,328,32927,2,0,L|106:328,2,55,0|2|0,1:3|0:0|1:0,0:0:0:0:
256,263,33613,1,0,1:0:0:0:
361,239,33956,6,0,P|346:186|364:136,2,110,4|0|0,1:2|1:0|1:0,0:0:0:0:
437,317,34984,1,4,1:2:0:0:
338,366,35327,2,0,L|222:366,1,110,4|4,1:2|1:2,0:0:0:0:
116,368,36013,2,0,P|64:344|44:296,1,110,0|4,1:0|1:2,0:0:0:0:
117,219,36699,6,0,L|117:106,1,110,4|4,1:2|1:2,0:0:0:0:
117,53,37213,1,0,3:0:0:0:
117,53,37384,2,0,P|166:71|221:52,1,110,4|0,1:2|1:0,0:0:0:0:
326,28,38070,2,0,L|326:141,1,110,4|4,1:2|1:2,0:0:0:0:
326,194,38584,1,2,3:2:0:0:
326,194,38756,2,0,P|277:176|222:195,1,110,0|0,1:0|1:0,0:0:0:0:
140,266,39442,6,0,B|56:267|56:267|25:250,2,110,4|4|0,1:2|1:2|1:0,0:0:0:0:
207,354,40470,1,0,1:0:0:0:
317,354,40813,2,0,P|328:252|260:160,1,220,0|8,1:0|1:3,0:0:0:0:
192,76,41842,1,4,1:2:0:0:
88,115,42184,6,0,P|71:167|88:219,2,110,4|0|0,1:2|1:1|1:0,0:0:0:0:
185,167,43213,1,2,1:1:0:0:
256,250,43556,2,0,P|305:266|428:164,1,220,4|0,1:2|1:2,0:0:0:0:
404,64,44584,1,4,1:2:0:0:
299,64,44927,6,0,P|252:85|194:61,1,110,4|4,1:2|1:2,0:0:0:0:
149,42,45442,2,0,L|150:217,1,165,4|0,0:2|1:0,0:0:0:0:
154,316,46299,2,0,P|205:300|265:317,1,110,4|0,1:2|1:0,0:0:0:0:
368,324,46984,2,0,L|368:211,1,110,0|0,1:0|1:0,0:0:0:0:
297,129,47670,6,0,P|246:145|186:128,1,110,4|6,1:0|1:0,0:0:0:0:
152,95,48184,1,0,0:1:0:0:
152,95,48356,2,0,L|152:208,1,110,0|2,1:0|1:1,0:0:0:0:
156,315,49042,2,0,P|212:329|267:304,1,110,4|0,1:2|1:0,0:0:0:0:
290,264,49556,2,0,P|362:232|432:271,1,165,2|2,0:1|1:1,0:0:0:0:
505,354,50413,5,2,1:1:0:0:
512,244,50756,2,0,B|469:173|509:105|509:105|429:85,1,220,0|2,1:0|1:0,0:0:0:0:
356,160,51784,2,0,P|304:176|248:156,1,110,0|2,1:0|1:0,1:0:0:0:
204,59,52470,2,0,P|153:40|103:60,1,110,4|4,1:0|1:0,0:0:0:0:
49,157,53156,6,0,L|49:267,1,110,4|0,1:0|1:0,0:0:0:0:
83,309,53670,1,2,0:3:0:0:
83,309,53842,2,0,P|132:293|188:313,1,110,0|0,1:0|1:0,0:0:0:0:
272,378,54527,1,4,1:2:0:0:
279,268,54870,2,0,L|279:150,1,110,4|4,1:2|1:2,0:0:0:0:
279,47,55556,1,4,1:2:0:0:
184,103,55899,5,0,1:0:0:0:
256,192,55984,12,4,57613,1:0:0:0:
256,261,58642,6,0,L|256:327,2,55,4|0|0,1:0|0:0|1:0,0:0:0:0:
256,205,59156,1,0,3:0:0:0:
256,205,59327,2,0,P|305:218|362:204,1,110,0|0,1:0|1:0,0:0:0:0:
308,107,60013,2,0,P|259:94|202:108,1,110,0|0,1:0|1:0,0:0:0:0:
166,149,60527,1,0,0:0:0:0:
166,149,60699,2,0,L|158:264,1,110,0|0,1:0|1:0,0:0:0:0:
134,366,61384,6,0,P|76:377|21:350,2,110,0|0|0,1:0|1:0|1:0,0:0:0:0:
236,326,62413,1,0,1:0:0:0:
323,259,62756,2,0,L|381:259,2,55,2|2|0,1:3|1:3|1:0,0:0:0:0:
224,209,63442,2,0,P|205:158|223:107,1,110,4|0,1:2|0:0,0:0:0:0:
269,76,63956,6,0,B|343:103|343:47|430:73,1,165,4|0,1:2|1:0,0:0:0:0:
472,108,64642,2,0,L|472:284,1,165,0|0,0:0|1:0,0:0:0:0:
390,346,65499,2,0,P|338:330|285:344,1,110,4|0,1:0|1:0,0:0:0:0:
232,358,66013,2,0,L|233:176,1,165,0|0,0:0|1:0,0:0:0:0:
176,98,66870,5,4,1:0:0:0:
285,90,67213,2,0,L|351:90,2,55,0|0|0,1:0|1:0|0:0,0:0:0:0:
176,98,67899,1,0,1:0:0:0:
74,128,68242,2,0,P|91:179|77:231,1,110,4|0,1:0|1:0,0:0:0:0:
20,325,68927,2,0,L|134:325,1,110,0|0,1:0|0:0,0:0:0:0:
228,275,69613,6,0,L|228:200,2,55,4|0|0,1:0|0:0|1:0,0:0:0:0:
312,348,70299,2,0,L|428:348,1,110,0|0,1:0|1:0,0:0:0:0:
440,240,70984,2,0,L|503:240,2,55,0|0|0,1:0|0:0|1:0,0:0:0:0:
345,183,71670,2,0,P|328:131|343:79,1,110,0|0,1:0|1:0,0:0:0:0:
246,26,72356,6,0,L|134:26,2,110,0|0|4,1:0|1:0|1:2,0:0:0:0:
343,79,73384,1,4,1:0:0:0:
418,159,73727,2,0,P|431:211|421:265,1,110,0|0,1:0|1:0,0:0:0:0:
377,299,74242,1,2,0:0:0:0:
377,299,74413,2,0,L|263:300,1,110,0|0,1:0|0:0,0:0:0:0:
156,300,75099,5,4,1:2:0:0:
64,239,75442,2,0,L|55:175,1,55,4|2,1:2|0:0,0:0:0:0:
137,110,75956,2,0,L|128:46,2,55,2|4|0,0:0|1:2|0:0,0:0:0:0:
235,160,76642,2,0,L|242:214,1,55,0|4,0:0|1:2,0:0:0:0:
339,266,77156,2,0,L|346:320,2,55,0|2|4,1:0|0:0|1:2,0:0:0:0:
242,214,77842,6,0,P|187:204|140:228,1,110,4|4,1:2|1:2,0:0:0:0:
48,284,78527,1,2,0:0:0:0:
35,175,78870,2,0,L|35:54,1,110,4|0,1:2|0:0,0:0:0:0:
144,55,79556,2,0,P|195:71|247:55,1,110,4|0,1:2|1:2,0:0:0:0:
351,18,80242,1,4,1:2:0:0:
329,125,80584,6,0,P|316:177|333:229,1,110,4|0,1:2|1:2,0:0:0:0:
367,273,81099,1,2,0:0:0:0:
367,273,81270,2,0,L|257:275,1,110,0|0,1:0|1:0,0:0:0:0:
162,331,81956,2,0,L|141:391,2,55,4|4|4,1:2|1:2|1:2,0:0:0:0:
158,220,82642,2,0,L|139:168,2,55,0|0|0,1:0|1:0|1:0,0:0:0:0:
257,274,83327,5,4,1:0:0:0:
256,192,83413,12,4,86070,1:2:0:0:
152,264,97042,6,0,P|203:310|224:243,1,165,4|8,1:0|0:0,0:0:0:0:
160,156,97899,2,0,L|44:156,2,110,0|0|0,0:0|0:0|0:0,0:0:0:0:
200,120,98756,1,0,0:0:0:0:
284,191,99099,2,0,P|271:244|289:296,1,110,0|0,0:0|0:0,0:0:0:0:
384,244,99784,6,0,L|440:244,1,55,0|0,0:0|0:0,0:0:0:0:
484,144,100299,2,0,P|466:92|478:39,1,110,8|0,0:0|0:0,0:0:0:0:
368,40,100984,2,0,B|240:40,1,110,0|0,0:0|0:0,0:0:0:0:
196,132,101670,2,0,B|228:208|164:208|188:292,1,165
296,316,102527,6,0,P|348:300|401:312,1,110
448,212,103213,2,0,L|448:88,1,110,2|0,0:0|0:0,0:0:0:0:
392,108,103727,2,0,P|348:132|284:112,1,110,2|0,0:0|0:0,0:0:0:0:
204,48,104413,2,0,B|160:72|160:72|108:36|50:58,1,165,0|0,0:0|0:0,0:0:0:0:
44,168,105270,6,0,P|57:220|40:271,1,110,0|0,1:0|0:0,0:0:0:0:
12,320,105784,2,0,L|128:320,1,110,8|0,0:0|0:0,0:0:0:0:
196,236,106470,2,0,B|241:236|256:190|256:190|272:236|317:236,1,165,0|2,0:0|1:3,0:0:0:0:
424,268,107327,2,0,P|432:224|400:160,1,110,0|8,1:0|1:3,0:0:0:0:
318,236,108013,6,0,P|304:288|321:339,1,110,4|0,1:0|0:0,0:0:0:0:
376,352,108527,1,0,0:0:0:0:
376,352,108699,2,0,B|496:352,1,110,0|8,0:0|1:0,0:0:0:0:
484,240,109384,2,0,P|468:188|487:137,1,110,0|0,1:0|1:0,0:0:0:0:
500,84,109899,1,0,0:0:0:0:
500,84,110070,2,0,L|380:84,1,110,0|0,0:0|1:0,0:0:0:0:
284,116,110756,6,0,P|304:65|287:14,2,110,4|0|0,1:2|1:0|0:0,0:0:0:0:
184,164,111784,2,0,P|167:112|187:62,1,110,8|0,1:0|1:0,0:0:0:0:
284,116,112470,2,0,L|400:116,1,110,0|0,1:0|0:0,0:0:0:0:
472,192,113156,1,0,0:0:0:0:
448,296,113499,6,0,P|392:280|336:300,1,110,4|8,0:0|1:0,0:0:0:0:
296,324,114013,1,0,0:0:0:0:
296,324,114184,2,0,P|240:340|184:320,1,110,0|0,1:0|1:0,0:0:0:0:
112,248,114870,2,0,L|88:132,1,110,4|2,1:0|1:2,0:0:0:0:
112,88,115384,2,0,B|192:120|192:64|272:77,1,165,2|0,0:0|1:0,0:0:0:0:
351,156,116242,6,0,P|340:208|376:264,1,110,4|8,1:0|1:0,0:0:0:0:
388,364,116927,2,0,L|272:364,1,110,0|4,1:0|1:2,1:0:0:0:
168,368,117613,1,4,1:2:0:0:
163,260,117956,2,0,P|180:208|161:157,2,110,0|2|0,3:0|3:0|1:0,0:0:0:0:
68,208,118984,6,0,P|49:157|65:105,1,110,4|0,1:2|0:0,0:0:0:0:
104,64,119499,2,0,L|164:56,1,55,10|0,1:3|0:0,0:0:0:0:
256,108,120013,1,10,1:3:0:0:
216,208,120356,2,0,P|196:256|216:316,1,110,0|10,1:0|1:3,0:0:0:0:
266,315,120870,2,0,B|342:287|342:347|426:310,1,165,0|10,0:0|1:3,0:0:0:0:
480,216,121727,6,0,L|480:104,1,110,0|0,1:0|1:0,0:0:0:0:
441,65,122242,2,0,P|389:49|336:61,2,110,10|0|0,1:3|0:0|0:0,0:0:0:0:
384,160,123270,1,0,1:0:0:0:
384,160,123442,2,0,P|332:175|279:163,1,110,0|0,1:0|1:0,0:0:0:0:
192,96,124127,1,0,1:0:0:0:
168,204,124470,6,0,L|168:376,1,165,0|10,1:0|1:3,0:0:0:0:
72,316,125327,2,0,L|72:256,1,55,0|10,0:0|1:3,0:0:0:0:
168,204,125842,2,0,P|220:215|300:132,1,165,4|0,1:0|0:0,0:0:0:0:
388,80,126699,2,0,L|460:80,2,55,0|0|0,1:0|1:0|0:0,0:0:0:0:
392,136,127213,6,0,P|380:188|400:240,1,110,4|0,1:0|1:0,0:0:0:0:
420,292,127727,2,0,L|310:292,1,110,4|4,1:0|1:0,0:0:0:0:
199,280,128413,2,0,P|216:228|168:136,1,165,4|8,1:0|1:3,0:0:0:0:
112,40,129270,2,0,L|172:40,1,55,10|10,1:3|1:3,0:0:0:0:
276,40,129784,1,2,0:0:0:0:
276,40,129956,6,0,P|260:96|288:156,1,110,4|0,1:0|1:0,0:0:0:0:
380,184,130642,2,0,P|396:240|368:300,1,110,0|0,1:0|1:0,0:0:0:0:
308,372,131327,2,0,L|188:372,1,110,2|2,1:0|1:0,0:0:0:0:
144,364,131842,2,0,P|116:288|168:220,1,165,2|10,0:0|1:3,0:0:0:0:
267,212,132699,6,0,P|287:161|270:110,1,110,4|0,1:2|1:0,0:0:0:0:
228,76,133213,1,2,0:0:0:0:
228,76,133384,2,0,L|116:76,1,110,0|10,1:0|1:3,0:0:0:0:
68,176,134070,2,0,L|12:176,2,55,0|0|0,1:0|0:0|1:0,0:0:0:0:
108,215,134584,2,0,P|92:280|148:352,1,165,0|0,0:0|1:0,0:0:0:0:
256,328,135442,6,0,P|305:312|368:332,1,110,4|4,1:0|1:0,0:0:0:0:
409,361,135956,1,0,0:0:0:0:
409,361,136127,2,0,L|409:241,1,110,4|4,1:0|1:0,0:0:0:0:
404,144,136813,1,0,1:0:0:0:
316,207,137156,2,0,P|265:227|213:214,2,110,0|0|0,1:0|1:0|1:0,0:0:0:0:
404,144,138184,5,4,1:0:0:0:
256,192,138270,12,4,139899,1:0:0:0:
256,80,140927,6,0,L|256:14,2,55,4|0|0,1:0|0:0|1:0,0:0:0:0:
256,136,141441,1,0,0:0:0:0:
256,136,141613,2,0,P|207:123|150:137,1,110,0|0,1:0|1:0,0:0:0:0:
104,236,142299,2,0,P|153:249|210:235,1,110,0|0,1:2|0:0,0:0:0:0:
264,248,142812,1,2,0:0:0:0:
264,248,142984,2,0,L|264:360,1,110,0|0,1:0|1:0,0:0:0:0:
372,336,143670,6,0,P|430:325|485:352,2,110,0|0|4,1:0|1:0|1:0,0:0:0:0:
264,358,144699,1,0,1:0:0:0:
160,320,145041,2,0,L|160:264,2,55,4|0|2,1:0|1:0|0:0,0:0:0:0:
60,276,145727,2,0,L|60:152,1,110,4|0,1:2|0:0,0:0:0:0:
64,112,146241,6,0,B|138:139|138:83|225:109,1,165,4|0,1:2|1:0,0:0:0:0:
260,151,146927,2,0,P|235:228|272:299,1,165,2|0,0:0|1:0,0:0:0:0:
368,360,147784,2,0,P|420:346|472:362,1,110,0|0,1:0|1:0,0:0:0:0:
488,308,148298,2,0,L|489:126,1,165,2|0,0:0|1:0,0:0:0:0:
428,52,149155,5,4,1:0:0:0:
368,144,149499,2,0,L|368:208,2,55,4|0|0,1:0|0:0|0:0,0:0:0:0:
300,56,150184,1,2,1:1:0:0:
196,88,150527,2,0,P|213:139|199:191,1,110,0|0,1:0|1:0,0:0:0:0:
144,288,151213,2,0,L|258:288,1,110,0|0,1:0|0:0,0:0:0:0:
316,196,151899,6,0,L|384:196,2,55,4|2|0,1:0|0:0|1:0,0:0:0:0:
240,116,152584,2,0,P|256:60|236:8,1,110,0|0,1:0|1:0,0:0:0:0:
144,64,153270,2,0,L|76:64,2,55,0|0|0,1:0|0:0|1:0,0:0:0:0:
240,116,153956,2,0,L|361:116,1,110,0|0,1:0|1:0,0:0:0:0:
451,155,154641,6,0,P|471:206|460:259,2,110,4|4|0,1:0|1:0|1:0,0:0:0:0:
369,84,155669,1,0,1:0:0:0:
299,168,156013,2,0,P|248:184|195:169,1,110,4|0,1:0|0:0,0:0:0:0:
152,136,156527,1,0,0:0:0:0:
152,136,156699,2,0,L|153:250,1,110,4|2,1:0|1:3,0:0:0:0:
152,356,157384,5,4,1:0:0:0:
248,304,157727,2,0,L|312:304,1,55,0|4,1:0|1:2,0:0:0:0:
376,220,158241,2,0,L|436:220,2,55,0|4|0,0:0|1:2|0:0,0:0:0:0:
300,140,158927,2,0,L|232:140,1,55,0|4,0:0|1:2,0:0:0:0:
160,72,159441,2,0,L|88:72,2,55,0|2|4,1:0|0:0|1:2,0:0:0:0:
244,139,160127,6,0,P|256:193|180:280,1,165,0|2,1:0|1:2,0:0:0:0:
96,324,160984,1,0,0:0:0:0:
96,324,161156,2,0,L|96:203,1,110,4|0,1:2|0:0,0:0:0:0:
48,112,161841,2,0,P|99:128|151:112,1,110,4|0,1:2|1:0,0:0:0:0:
256,80,162527,1,4,1:2:0:0:
360,111,162870,6,0,P|412:128|464:112,1,110,4|0,1:2|1:2,0:0:0:0:
500,156,163384,1,2,0:2:0:0:
500,156,163556,2,0,L|502:266,1,110,0|0,1:2|1:2,0:0:0:0:
404,320,164241,2,0,L|404:380,2,55,4|4|4,1:2|1:2|1:2,0:0:0:0:
312,260,164927,2,0,L|312:192,2,55,0|0|0,1:0|1:0|1:0,0:0:0:0:
256,352,165613,5,6,1:0:0:0:
256,192,165698,12,4,168355,1:0:0:0:
40,356,170413,6,0,L|40:236,1,110,4|0,1:2|1:0,0:0:0:0:
92,224,170927,2,0,P|144:236|204:216,1,110,0|2,0:0|0:2,0:0:0:0:
280,148,171613,2,0,P|332:132|416:192,1,165,2|0,0:0|1:0,0:0:0:0:
476,284,172470,2,0,P|423:299|370:287,1,110,0|10,1:0|1:3,0:0:0:0:
284,220,173155,6,0,L|284:152,2,55,4|2|0,1:0|0:0|1:0,0:0:0:0:
228,232,173670,2,0,L|228:304,1,55,4|0,1:0|0:0,0:0:0:0:
124,324,174184,2,0,L|124:264,1,55,0|0,1:0|0:0,0:0:0:0:
44,192,174698,2,0,L|44:128,2,55,0|0|2,1:0|1:0|0:0,0:0:0:0:
95,172,175213,2,0,P|150:169|196:198,1,110,0|0,1:0|1:0,0:0:0:0:
256,288,175898,6,0,P|301:316|356:314,1,110,4|0,1:2|1:2,0:0:0:0:
404,284,176413,1,2,0:0:0:0:
404,284,176584,2,0,L|404:168,1,110,0|0,1:2|1:2,0:0:0:0:
368,67,177270,2,0,P|317:87|265:74,1,110,0|0,1:0|1:0,0:0:0:0:
216,48,177784,1,2,0:0:0:0:
216,48,177955,2,0,L|216:168,1,110,0|0,1:0|1:0,0:0:0:0:
160,252,178641,6,0,B|84:252|84:252|52:232,2,110,0|0|0,1:0|1:0|1:0,0:0:0:0:
220,160,179670,2,0,L|272:272,1,110,4|0,1:2|1:0,0:0:0:0:
324,164,180355,2,0,B|400:164|400:164|432:184,2,110,4|0|0,1:2|1:0|1:0,0:0:0:0:
216,158,181384,6,0,P|164:104|224:60,2,165,4|2|0,1:2|0:0|1:0,0:0:0:0:
323,163,182755,2,0,P|343:214|328:265,1,110,4|0,1:0|1:0,0:0:0:0:
256,348,183441,2,0,L|146:348,1,110,0|0,1:0|1:0,0:0:0:0:
52,288,184127,6,0,B|37:240|37:240|69:192|45:120,2,165,4|2|4,1:2|0:0|1:2,0:0:0:0:
146,348,185498,2,0,L|256:348,1,110,4|4,1:0|1:0,0:0:0:0:
336,272,186184,2,0,P|320:216|340:160,1,110,0|0,1:0|1:0,0:0:0:0:
256,88,186870,5,4,1:0:0:0:
488,68,198184,6,0,L|488:8,2,55,0|0|0,1:0|0:0|1:0,0:0:0:0:
408,148,198870,2,0,L|408:208,1,55,2|0,0:3|0:0,0:0:0:0:
408,312,199384,1,0,0:0:0:0:
408,312,199555,2,0,P|452:292|508:312,2,110,0|2|0,1:0|1:3|1:0,0:0:0:0:
308,356,200584,6,0,L|188:356,1,110,2|2,0:0|0:0,0:0:0:0:
116,284,201270,2,2,P|132:228|116:176,1,110,0|2,1:0|0:1,0:0:0:0:
16,144,201955,2,2,P|0:88|16:36,1,110,0|0,0:0|0:0,0:0:0:0:
124,32,202641,2,0,L|240:32,1,110,0|0,1:0|1:0,0:0:0:0:
276,68,203155,1,2,0:0:0:0:
256,192,203327,12,2,204355,1:3:0:0:
24,76,207441,6,0,L|24:10,2,55,4|2|0,1:0|0:0|1:0,0:0:0:0:
52,124,207955,1,2,0:0:0:0:
52,124,208127,2,0,P|101:111|158:125,1,110,0|0,0:0|1:0,0:0:0:0:
212,220,208812,2,0,P|261:233|318:219,1,110,0|0,3:0|3:0,0:0:0:0:
360,184,209326,1,0,0:0:0:0:
360,184,209498,2,0,L|360:296,1,110,0|0,1:0|1:0,0:0:0:0:
256,332,210184,6,0,P|198:321|143:348,2,110,0|0|0,1:0|1:0|1:0,0:0:0:0:
360,294,211213,1,0,1:0:0:0:
456,240,211555,2,0,L|456:184,2,55,2|2|0,1:3|1:3|1:0,0:0:0:0:
360,294,212241,2,0,P|306:278|248:296,1,110,4|0,1:2|0:0,0:0:0:0:
204,312,212755,6,0,B|231:238|175:238|201:151,1,165,4|0,1:2|1:0,0:0:0:0:
228,104,213441,2,0,P|305:129|376:92,1,165,0|0,0:0|1:0,0:0:0:0:
472,148,214298,2,0,L|472:260,1,110,4|0,1:0|1:0,0:0:0:0:
436,300,214812,2,0,P|365:263|295:301,1,165,0|0,0:0|1:0,0:0:0:0:
208,368,215669,5,4,1:0:0:0:
152,272,216012,2,0,L|196:228,2,55,0|0|0,1:0|1:0|0:0,0:0:0:0:
52,224,216698,1,0,1:0:0:0:
60,116,217041,2,0,P|111:133|163:119,1,110,4|0,1:0|1:0,0:0:0:0:
256,56,217727,2,0,P|308:41|359:58,1,110,0|0,1:0|0:0,0:0:0:0:
440,132,218412,6,0,L|508:132,2,55,4|2|0,1:0|0:0|1:0,0:0:0:0:
332,152,219098,2,0,P|316:208|336:260,1,110,0|0,0:0|1:0,0:0:0:0:
300,360,219784,2,0,L|232:360,2,55,0|0|0,1:0|0:0|1:0,0:0:0:0:
408,344,220470,2,0,L|488:256,1,110,0|0,0:0|1:0,0:0:0:0:
480,152,221155,6,0,P|468:96|488:44,2,110,4|0|4,1:2|1:2|1:2,0:0:0:0:
502,259,222183,1,4,1:0:0:0:
432,344,222527,2,0,P|381:360|328:345,1,110
288,304,223041,1,0,0:0:0:0:
288,304,223212,2,0,L|287:190,1,110,0|0,0:0|0:0,0:0:0:0:
212,116,223898,5,4,1:2:0:0:
124,180,224241,2,0,L|69:180,1,55,4|2,1:2|0:0,0:0:0:0:
60,288,224755,2,0,L|5:288,2,55,2|4|0,0:0|1:2|0:0,0:0:0:0:
144,360,225441,2,0,L|199:360,1,55,0|4,0:0|1:2,0:0:0:0:
256,268,225955,2,0,L|311:268,2,55,0|2|4,1:0|0:0|1:2,0:0:0:0:
176,192,226641,6,2,P|193:140|144:48,1,165,2|2,0:2|0:2,0:0:0:0:
252,24,227498,1,0,0:0:0:0:
252,24,227670,2,0,L|373:24,1,110,4|0,1:2|0:0,0:0:0:0:
456,80,228355,2,0,P|440:131|456:183,1,110,4|0,1:2|1:0,0:0:0:0:
508,280,229041,1,4,1:2:0:0:
404,320,229384,6,0,P|352:304|300:321,1,110,4|0,1:2|1:0,0:0:0:0:
256,352,229898,1,2,0:0:0:0:
256,352,230070,2,0,L|254:242,1,110,0|0,0:0|1:0,0:0:0:0:
196,148,230755,2,0,L|136:120,2,55,4|4|4,1:2|1:2|1:2,0:0:0:0:
308,148,231441,2,0,L|368:120,2,55,0|0|0,1:0|1:0|1:0,0:0:0:0:
254,242,232126,5,4,1:0:0:0:
256,192,232298,12,4,234870,1:0:0:0:
52,28,240355,6,0,B|96:44|96:44|148:8|209:25,2,165,4|4|4,1:0|1:0|1:0,0:0:0:0:
44,192,241898,2,0,P|32:244|60:300,1,110,4|2,1:0|0:3,0:0:0:0:
104,316,242413,2,0,L|104:384,2,55,6|2|2,1:0|0:1|0:1,0:0:0:0:
144,276,242927,1,4,1:0:0:0:
256,192,243013,12,0,244470,0:0:0:0:
