osu file format v14

[General]
AudioFilename: Chuunibyou demo Koi ga Shitai! - Sparkling Daydream.mp3
AudioLeadIn: 1000
PreviewTime: 58642
Countdown: 0
SampleSet: Soft
StackLeniency: 0.3
Mode: 0
LetterboxInBreaks: 0
WidescreenStoryboard: 0

[Editor]
DistanceSpacing: 0.6
BeatDivisor: 4
GridSize: 16
TimelineZoom: 4.299998

[Metadata]
Title:Sparkling Daydream
TitleUnicode:Sparkling Daydream
Artist:ZAQ
ArtistUnicode:ZAQ
Creator:Chloe
Version:Extra
Source:中二病でも恋がしたい!
Tags:opening Chu-2 byo demo KOI ga shitai Natsu Regraz CSAQ
BeatmapID:848781
BeatmapSetID:389192

[Difficulty]
HPDrainRate:6
CircleSize:4.2
OverallDifficulty:8.6
ApproachRate:9.3
SliderMultiplier:1.6
SliderTickRate:1

[Events]
//Background and Video events
0,0,"bg.jpg",0,0
//Break Periods
2,97242,105916
2,187070,196944
//Storyboard Layer 0 (Background)
//Storyboard Layer 1 (Fail)
//Storyboard Layer 2 (Pass)
//Storyboard Layer 3 (Foreground)
//Storyboard Sound Samples

[TimingPoints]
1042,342.857142857143,4,2,0,40,1,0
1042,-133.333333333333,4,2,0,40,0,0
3784,-100,4,2,0,65,0,0
8584,-100,4,2,0,80,0,0
9099,-100,4,2,0,68,0,0
15099,-133.333333333333,4,2,0,35,0,0
21270,-133.333333333333,4,2,0,45,0,0
21442,-133.333333333333,4,2,0,37,0,0
22384,-133.333333333333,4,2,0,5,0,0
22470,-133.333333333333,4,2,0,38,0,0
22984,-100,4,2,0,40,0,0
23327,-100,4,2,0,45,0,0
23670,-100,4,2,0,50,0,0
24013,-100,4,2,0,55,0,0
24356,-100,4,2,0,60,0,0
25556,-200,4,2,0,65,0,0
26070,-100,4,2,0,65,0,0
29156,-100,4,2,0,65,0,0
29242,-166.666666666667,4,2,0,35,0,0
29670,-100,4,2,0,45,0,0
29842,-100,4,2,0,65,0,0
30613,-100,4,2,0,5,0,0
30699,-100,4,2,0,65,0,0
30784,-100,4,2,0,5,0,0
30870,-100,4,2,0,65,0,0
30956,-100,4,2,0,5,0,0
31042,-100,4,2,0,65,0,0
36356,-166.666666666667,4,2,0,65,0,0
36699,-166.666666666667,4,2,0,65,0,0
40642,-66.6666666666667,4,2,0,65,0,0
40984,-100,4,2,0,65,0,0
42356,-100,4,2,0,80,0,0
42527,-100,4,2,0,65,0,0
42699,-100,4,2,0,80,0,0
42870,-100,4,2,0,65,0,0
58299,-66.6666666666667,4,2,0,65,0,0
58642,-100,4,2,0,80,0,0
63442,-66.6666666666667,4,2,0,85,0,0
64127,-100,4,2,0,80,0,0
67899,-50,4,2,0,80,0,0
68242,-100,4,2,0,80,0,0
77070,-100,4,2,0,5,0,0
77156,-100,4,2,0,80,0,0
84870,-83.3333333333333,4,2,0,85,0,0
85042,-83.3333333333333,4,2,0,90,0,0
85213,-100,4,2,0,80,0,0
86070,-100,4,2,0,80,0,0
106470,-100,4,2,0,40,0,0
106642,-133.333333333333,4,2,0,45,0,0
106984,-133.333333333333,4,2,0,60,0,0
107070,-133.333333333333,4,2,0,45,0,0
107327,-133.333333333333,4,2,0,60,0,0
117784,-100,4,2,0,60,0,0
119156,-133.333333333333,4,2,0,50,0,0
127727,-100,4,2,0,60,0,0
140927,-100,4,2,0,80,0,0
145727,-66.6666666666667,4,2,0,85,0,0
146413,-100,4,2,0,80,0,0
150184,-66.6666666666667,4,2,0,80,0,0
150527,-100,4,2,0,80,0,0
157042,-166.666666666667,4,2,0,80,0,0
157384,-100,4,2,0,80,0,0
165699,-100,4,2,0,70,0,0
170413,342.857142857143,4,2,0,75,1,0
170670,-100,4,2,0,5,0,0
170755,-100,4,2,0,75,0,0
181384,-125,4,2,0,65,0,0
198184,-100,4,2,0,75,0,0
201613,-50,4,2,0,75,0,0
201955,-100,4,2,0,75,0,0
203498,-83.3333333333333,4,2,0,75,0,0
203670,-71.4285714285714,4,2,0,75,0,0
203841,-62.5,4,2,0,75,0,0
204698,-100,4,2,0,24,0,0
207441,-90.9090909090909,4,2,0,90,0,0
212241,-60.6060606060606,4,2,0,90,0,0
212927,-90.9090909090909,4,2,0,90,0,0
216698,-66.6666666666667,4,2,0,90,0,0
216870,-90.9090909090909,4,2,0,90,0,0
232127,-100,4,2,0,85,0,0
240870,-86.9565217391304,4,2,0,90,0,0
241384,-76.9230769230769,4,2,0,95,0,0
241898,-68.9655172413793,4,2,0,100,0,0
242927,-100,4,2,0,100,0,0
243013,-100,4,2,0,5,0,0

[Colours]
Combo1 : 239,27,27
Combo2 : 23,145,255

[HitObjects]
83,134,1042,6,0,L|187:126,1,60.0000022888185,2|0,0:0|0:0,0:0:0:0:
292,130,1384,1,2,0:0:0:0:
195,57,1556,5,0,0:0:0:0:
187,200,1727,2,0,L|183:288,1,60.0000022888185,2|0,0:0|0:0,0:0:0:0:
180,353,2070,5,2,0:0:0:0:
360,248,2242,2,0,L|364:160,1,60.0000022888185,2|2,0:0|0:0,0:0:0:0:
367,74,2585,1,0,0:0:0:0:
157,74,2756,2,0,B|150:45|150:45|165:-2,1,60.0000022888185,2|0,0:0|0:0,0:0:0:0:
244,52,3099,5,0,0:0:0:0:
214,49,3184,1,0,0:0:0:0:
184,47,3270,1,0,0:0:0:0:
154,44,3356,1,0,0:0:0:0:
127,58,3441,1,0,0:0:0:0:
97,55,3527,1,0,0:0:0:0:
67,53,3613,1,4,1:0:0:0:
157,188,3784,5,2,0:0:0:0:
157,188,3870,2,0,B|172:214|172:214|163:278,1,80,2|0,0:0|0:0,0:0:0:0:
159,303,4127,1,8,1:2:0:0:
82,95,4299,1,0,0:0:0:0:
82,95,4384,1,0,0:0:0:0:
82,95,4470,2,0,L|179:83,1,80,0|0,1:0|0:0,0:0:0:0:
375,48,4813,2,0,P|350:106|355:137,1,80,8|0,1:2|0:0,1:0:0:0:
421,186,5070,1,0,1:0:0:0:
421,186,5156,6,0,B|413:217|413:217|427:237|426:277|426:277|411:304|419:349,1,160,0|8,1:0|0:0,0:0:0:0:
223,352,5670,1,0,0:0:0:0:
223,352,5756,1,0,0:0:0:0:
223,352,5842,2,0,B|239:369|239:369|275:354,1,40,0|0,1:0|0:0,0:0:0:0:
345,268,6013,2,0,B|354:246|354:246|325:219,1,40,0|0,1:0|0:0,0:0:0:0:
199,202,6184,1,8,1:2:0:0:
122,287,6356,5,0,3:0:0:0:
122,287,6442,2,0,L|38:291,1,80,0|0,3:0|0:0,0:0:0:0:
1,292,6699,1,2,0:0:0:0:
116,128,6870,2,0,P|139:81|117:16,1,120,8|0,1:2|0:0,0:0:0:0:
80,10,7213,2,0,L|102:58,2,40,0|0|0,1:0|0:0|0:0,0:0:0:0:
63,211,7556,1,8,1:2:0:0:
238,279,7727,2,0,L|253:242,1,40,0|0,3:0|3:0,3:0:0:0:
271,144,7899,6,0,P|285:186|282:230,1,80,4|0,1:0|0:0,0:0:0:0:
389,68,8242,2,0,L|489:62,1,80,8|0,1:2|0:0,0:0:0:0:
468,63,8499,1,0,0:0:0:0:
468,63,8584,5,0,1:0:0:0:
353,220,8756,1,0,1:0:0:0:
468,258,8927,1,0,1:2:0:0:
320,96,9099,2,0,L|296:142,1,40,4|0,0:0|0:0,0:0:0:0:
246,232,9270,6,0,P|235:288|241:324,1,80,4|0,1:0|0:0,0:0:0:0:
321,143,9613,1,8,1:0:0:0:
3,50,9784,2,0,L|50:42,1,40
121,94,9956,2,0,P|132:150|126:186,1,80,0|0,1:0|0:0,0:0:0:0:
100,209,10213,1,0,0:0:0:0:
66,244,10299,2,0,L|11:239,2,40,8|0|0,1:0|0:0|0:0,0:0:0:0:
293,6,10642,6,0,B|280:37|280:37|285:83,1,80,0|0,1:0|0:0,0:0:0:0:
349,155,10985,1,8,1:0:0:0:
465,32,11156,1,0,0:0:0:0:
462,51,11241,1,0,0:0:0:0:
460,71,11327,1,0,1:0:0:0:
349,155,11499,1,0,3:0:0:0:
349,155,11584,1,0,3:0:0:0:
349,155,11670,2,0,L|295:150,1,40,8|0,1:0|3:0,3:0:0:0:
140,236,11842,6,0,P|117:192|166:134,1,120,4|0,1:2|0:0,0:0:0:0:
191,130,12184,1,2,0:0:0:0:
233,302,12356,2,0,L|232:391,1,80,8|2,1:0|0:0,0:0:0:0:
232,381,12613,1,0,1:0:0:0:
232,381,12699,5,2,1:2:0:0:
348,288,12870,1,2,0:0:0:0:
109,191,13042,1,8,1:0:0:0:
383,53,13213,1,2,0:0:0:0:
277,248,13384,6,0,P|268:311|283:343,1,80,0|0,1:0|0:0,0:0:0:0:
419,328,13727,2,0,P|428:265|413:233,1,80,8|0,1:0|0:0,0:0:0:0:
350,268,13984,1,0,0:0:0:0:
348,288,14070,1,0,1:0:0:0:
38,321,14242,1,4,1:2:0:0:
38,321,14756,5,4,0:0:0:0:
202,33,15099,2,0,L|191:119,1,60.0000022888184,2|0,0:0|0:0,0:0:0:0:
284,173,15442,1,0,0:0:0:0:
385,100,15613,1,0,0:0:0:0:
385,100,15699,1,2,0:0:0:0:
385,100,15784,1,2,0:0:0:0:
192,109,15956,1,2,0:0:0:0:
192,109,16299,5,0,0:0:0:0:
262,251,16470,1,2,0:0:0:0:
146,303,16642,2,0,L|141:381,1,60.0000022888184
262,251,16984,1,2,0:0:0:0:
74,203,17156,1,2,0:0:0:0:
74,203,17242,1,2,0:0:0:0:
74,203,17327,2,0,B|87:187|87:187|79:135,1,60.0000022888184
20,12,17670,5,2,0:0:0:0:
3,161,17842,1,0,0:0:0:0:
20,12,18013,2,0,L|-16:16,2,30.0000011444092,2|2|0,0:0|0:0|0:0,0:0:0:0:
140,101,18356,1,0,0:0:0:0:
61,250,18527,2,0,L|56:312,1,60.0000022888184,2|4,0:0|0:0,0:0:0:0:
403,228,19042,5,2,0:0:0:0:
317,346,19213,1,0,0:0:0:0:
455,301,19384,1,2,0:0:0:0:
326,256,19556,6,0,P|312:205|330:179,1,60.0000022888184,0|2,0:0|0:0,0:0:0:0:
372,59,19899,2,0,P|368:89|351:113,1,60.0000022888184,0|2,0:0|0:0,0:0:0:0:
285,20,20242,1,6,0:0:0:0:
285,20,20584,5,0,0:0:0:0:
463,48,20756,1,2,0:0:0:0:
365,186,20927,6,0,P|350:155|369:109,1,60.0000022888184,0|2,0:0|0:0,0:0:0:0:
367,114,21184,1,0,0:0:0:0:
382,99,21270,1,0,0:0:0:0:
249,174,21442,6,0,B|209:217|209:217|227:275,1,120.000004577637,2|2,0:0|0:0,0:0:0:0:
368,376,21956,1,2,0:0:0:0:
232,286,22127,2,0,L|116:292,1,90.0000034332277,2|0,0:0|0:0,0:0:0:0:
69,293,22470,1,2,0:0:0:0:
69,293,22813,1,2,0:0:0:0:
119,44,22984,5,2,0:0:0:0:
119,44,23070,2,0,L|114:104,2,40,2|0|0,0:0|0:0|0:0,0:0:0:0:
126,186,23327,1,2,0:0:0:0:
126,186,23413,2,0,L|121:246,2,40,2|2|0,0:0|0:0|0:0,0:0:0:0:
225,288,23670,5,2,0:0:0:0:
254,276,23756,1,0,0:0:0:0:
286,270,23842,1,2,0:0:0:0:
318,270,23927,1,2,0:0:0:0:
349,277,24013,5,2,0:0:0:0:
388,306,24099,1,0,0:0:0:0:
437,312,24184,1,2,0:0:0:0:
483,292,24270,1,2,0:0:0:0:
512,252,24355,1,2,0:2:0:0:
420,118,24527,6,0,L|420:198,1,80,4|2,0:1|1:0,0:0:0:0:
426,225,24784,2,2,L|427:174,1,40,2|0,0:1|0:1,0:1:0:0:
198,90,25042,2,0,B|179:97|179:97|195:39,1,80,0|0,1:0|2:0,2:0:0:0:
201,20,25299,1,0,1:0:0:0:
206,0,25384,1,0,1:0:0:0:
423,38,25556,6,0,L|420:118,1,80,4|2,1:0|0:0,1:0:0:0:
420,118,25984,1,0,0:0:0:0:
420,118,26070,5,4,1:0:0:0:
233,239,26242,1,2,0:0:0:0:
136,150,26413,2,0,L|34:159,1,80,0|0,1:0|0:0,0:0:0:0:
200,29,26756,1,0,1:0:0:0:
227,16,26841,1,0,0:0:0:0:
256,12,26927,1,0,0:0:0:0:
286,18,27013,1,0,0:0:0:0:
312,32,27098,5,0,1:0:0:0:
295,201,27270,1,2,0:0:0:0:
312,32,27442,1,0,1:0:0:0:
295,201,27614,1,2,0:0:0:0:
108,147,27784,2,0,L|202:137,1,80,0|0,1:0|0:0,0:0:0:0:
395,113,28127,1,0,1:0:0:0:
327,269,28299,1,0,0:0:0:0:
289,279,28385,1,0,0:0:0:0:
253,266,28470,5,0,1:0:0:0:
261,39,28642,1,2,0:0:0:0:
295,201,28813,1,0,1:0:0:0:
138,124,28984,5,2,1:2:0:0:
132,239,29156,2,0,B|106:269|106:269|114:340,1,80,0|2,1:2|0:0,0:0:0:0:
195,377,29499,1,0,1:0:0:0:
195,377,29584,1,0,3:0:0:0:
195,377,29670,1,4,1:0:0:0:
213,98,29842,5,0,1:0:0:0:
213,98,30184,2,0,L|86:101,1,120,0|0,1:0|0:0,0:0:0:0:
43,188,30527,6,0,B|29:187|29:187|20:222,1,40,0|0,1:0|0:0,0:0:0:0:
60,323,30699,2,0,B|66:335|66:335|100:325,1,40,0|0,1:0|0:0,0:0:0:0:
169,241,30870,2,0,B|176:229|176:229|151:204,1,40,0|0,1:0|0:0,0:0:0:0:
90,250,31042,1,0,1:0:0:0:
252,314,31213,6,0,B|290:288|290:288|372:311,1,120,0|0,1:0|0:0,0:0:0:0:
399,321,31556,1,0,1:0:0:0:
450,200,31727,1,2,0:0:0:0:
461,183,31813,1,2,0:0:0:0:
473,167,31899,1,0,1:0:0:0:
278,94,32070,1,2,0:0:0:0:
296,118,32155,1,2,0:0:0:0:
316,144,32242,1,0,1:0:0:0:
486,91,32413,1,4,1:2:0:0:
486,91,32756,5,4,1:2:0:0:
349,240,32927,2,4,P|337:300|346:340,1,80,0|2,1:3|0:0,0:3:0:0:
346,336,33184,1,2,0:0:0:0:
358,351,33270,1,0,1:0:0:0:
389,100,33442,1,0,0:0:0:0:
218,235,33613,1,0,1:0:0:0:
191,248,33698,1,2,0:0:0:0:
161,251,33784,1,2,0:0:0:0:
132,245,33870,1,0,0:0:0:0:
107,228,33956,6,0,P|85:184|87:145,1,80,4|0,1:2|0:0,0:0:0:0:
265,0,34299,1,0,1:0:0:0:
166,170,34470,1,4,0:2:0:0:
166,170,34556,1,2,0:0:0:0:
166,170,34642,1,0,1:0:0:0:
265,0,34813,1,4,1:2:0:0:
61,131,34984,2,0,L|72:276,1,120,4|0,1:2|0:0,0:0:0:0:
55,283,35327,5,4,1:2:0:0:
147,60,35499,1,4,1:2:0:0:
294,251,35670,1,4,1:2:0:0:
378,128,35842,1,2,0:0:0:0:
378,128,35927,1,2,0:0:0:0:
378,128,36014,5,0,1:0:0:0:
348,124,36099,1,0,0:0:0:0:
318,120,36185,1,2,0:0:0:0:
288,117,36271,1,2,0:0:0:0:
258,115,36356,2,0,P|247:176|247:197,1,71.9999978027344,4|0,1:2|0:0,0:0:0:0:
294,251,36699,5,4,1:2:0:0:
359,11,36870,1,4,1:2:0:0:
294,251,37042,1,4,1:2:0:0:
301,269,37127,1,0,3:0:0:0:
309,287,37213,1,0,3:0:0:0:
489,263,37384,6,0,L|417:266,1,71.9999978027344,4|0,1:2|0:0,0:0:0:0:
399,254,37727,2,0,L|453:252,1,47.9999985351563,0|0,1:0|0:0,0:0:0:0:
172,300,38070,5,4,1:2:0:0:
208,84,38241,1,4,1:2:0:0:
172,300,38413,1,4,1:2:0:0:
310,347,38584,1,2,3:2:0:0:
310,347,38670,1,2,3:2:0:0:
310,347,38756,2,0,L|306:300,1,47.9999985351563,0|0,1:0|0:0,0:0:0:0:
409,153,39099,1,0,1:0:0:0:
301,273,39270,1,0,0:0:0:0:
338,64,39442,6,0,L|343:-2,1,47.9999985351563,4|0,1:2|0:0,0:0:0:0:
170,16,39784,2,0,L|174:64,1,47.9999985351563,4|0,1:2|0:0,0:0:0:0:
208,192,40127,1,0,1:0:0:0:
232,192,40213,1,2,0:0:0:0:
256,192,40298,1,2,0:0:0:0:
280,192,40384,1,0,0:0:0:0:
304,192,40469,1,0,1:0:0:0:
159,114,40642,6,0,P|117:189|157:266,1,180.000006866455,4|0,1:2|0:0,0:0:0:0:
173,284,40984,2,0,L|165:380,1,80,4|0,1:2|1:0,0:0:0:0:
166,363,41242,1,2,0:0:0:0:
166,363,41327,1,2,0:0:0:0:
332,252,41499,5,8,1:3:0:0:
472,372,41670,1,8,1:3:0:0:
332,252,41842,2,0,L|336:200,1,40,4|2,1:2|0:0,0:0:0:0:
433,145,42013,2,0,B|440:123|440:123|433:94,1,40,2|0,0:0|0:0,0:0:0:0:
345,22,42184,5,4,1:2:0:0:
232,130,42356,2,2,L|140:134,1,80,0|0,0:1|1:1,0:1:0:0:
23,46,42699,1,2,0:1:0:0:
121,138,42870,1,0,1:0:0:0:
24,238,43042,1,2,0:1:0:0:
24,238,43127,1,0,0:0:0:0:
24,238,43213,2,2,L|19:325,1,80,2|2,1:1|0:0,0:1:0:0:
254,373,43556,5,4,1:2:0:0:
258,147,43727,1,6,0:0:0:0:
256,260,43899,1,0,1:2:0:0:
260,34,44070,1,6,0:0:0:0:
64,224,44242,5,0,1:0:0:0:
72,185,44327,1,2,0:0:0:0:
103,161,44413,1,2,0:0:0:0:
142,164,44499,1,0,0:0:0:0:
170,191,44584,2,0,B|209:206|209:206|256:196,1,80,4|0,1:2|0:0,0:0:0:0:
222,87,44927,6,0,P|279:55|350:69,1,120,4|0,1:2|0:0,0:0:0:0:
368,83,45270,1,4,1:2:0:0:
356,236,45442,1,4,0:2:0:0:
355,256,45527,1,0,0:0:0:0:
354,276,45613,1,0,1:2:0:0:
353,296,45699,1,2,0:0:0:0:
351,316,45784,1,2,0:0:0:0:
463,379,45956,1,0,1:0:0:0:
453,159,46127,1,0,0:2:0:0:
271,237,46299,6,0,L|268:277,1,40,4|0,1:2|0:0,0:0:0:0:
318,334,46470,1,2,0:0:0:0:
282,350,46555,1,2,0:0:0:0:
242,346,46641,1,0,1:0:0:0:
210,323,46727,1,2,0:0:0:0:
194,287,46812,1,2,0:0:0:0:
198,248,46898,1,2,0:0:0:0:
224,179,46984,5,0,1:0:0:0:
228,139,47069,1,0,0:0:0:0:
232,99,47155,1,2,0:0:0:0:
237,59,47241,1,0,0:0:0:0:
178,4,47327,6,0,L|125:11,1,40,0|0,1:0|1:0,1:0:0:0:
79,104,47499,2,0,L|84:143,1,40,0|0,1:0|1:0,1:0:0:0:
106,252,47670,1,4,1:0:0:0:
430,348,48013,5,6,1:0:0:0:
310,278,48184,2,0,L|321:177,1,80,2|0,0:1|1:0,0:0:0:0:
455,159,48527,1,0,1:1:0:0:
321,174,48699,2,2,L|166:188,1,120,2|0,1:1|0:1,0:1:0:0:
156,169,49042,6,0,B|183:140|183:140|218:165,1,80,4|2,1:2|0:1,0:0:0:0:
339,17,49384,1,0,1:0:0:0:
260,254,49556,1,2,0:1:0:0:
419,184,49727,1,2,1:0:0:0:
392,186,49813,1,0,3:0:0:0:
366,188,49899,2,0,P|338:205|335:233,1,40,0|0,3:0|3:0,3:0:0:0:
300,384,50070,2,0,P|328:367|331:339,1,40,2|0,1:0|3:0,3:0:0:0:
398,268,50242,1,2,0:1:0:0:
187,223,50413,6,2,B|165:248|165:248|170:323,1,80,2|2,1:1|3:1,0:1:0:0:
170,322,50670,1,0,0:0:0:0:
170,322,50756,1,0,1:0:0:0:
358,94,50927,1,0,3:0:0:0:
244,138,51099,2,0,L|157:132,1,80,0|0,1:0|0:0,0:0:0:0:
43,176,51442,1,2,1:0:0:0:
232,36,51613,1,2,0:1:0:0:
187,223,51784,6,0,L|180:331,1,80,2|0,1:0|0:0,0:0:0:0:
313,270,52127,1,2,1:0:0:0:
511,280,52299,1,2,0:1:0:0:
313,270,52470,1,4,1:0:0:0:
313,270,52556,1,0,3:0:0:0:
313,270,52642,1,0,3:0:0:0:
247,155,52813,1,4,1:0:0:0:
249,125,52898,1,0,3:0:0:0:
251,95,52984,1,0,3:0:0:0:
254,65,53070,1,0,3:0:0:0:
256,35,53155,5,4,1:0:0:0:
463,16,53327,1,2,0:3:0:0:
310,140,53499,1,0,1:0:0:0:
117,58,53671,1,2,0:3:0:0:
253,237,53842,5,0,1:0:0:0:
386,75,54014,1,2,0:3:0:0:
186,149,54184,1,0,1:0:0:0:
390,101,54356,1,2,0:3:0:0:
199,130,54527,6,0,L|204:26,1,80,4|0,1:2|0:0,0:0:0:0:
382,229,54870,2,0,L|376:315,1,80,4|0,1:2|0:0,0:0:0:0:
343,96,55213,6,0,L|447:101,1,80,4|0,1:2|0:0,0:0:0:0:
244,279,55556,2,0,L|158:273,1,80,4|0,1:2|0:0,0:0:0:0:
67,71,55899,5,0,1:0:0:0:
67,71,55984,1,8,0:3:0:0:
67,71,56070,2,0,L|134:60,1,40,8|0,1:3|0:0,0:0:0:0:
275,68,56242,2,0,L|236:75,1,40,0|0,1:0|0:0,0:0:0:0:
189,181,56413,1,0,0:0:0:0:
189,181,56499,1,0,0:0:0:0:
189,181,56584,5,0,1:0:0:0:
170,361,56756,1,0,1:0:0:0:
350,380,56927,1,0,1:0:0:0:
369,200,57099,1,0,1:0:0:0:
268,280,57270,5,8,1:3:0:0:
270,296,57355,1,0,0:0:0:0:
271,311,57441,1,8,1:3:0:0:
272,327,57527,1,0,0:0:0:0:
273,343,57613,1,4,1:0:0:0:
273,343,58127,5,8,1:3:0:0:
174,225,58299,2,0,B|177:210|177:210|169:195|169:195|186:179|179:151|186:128|186:128|166:143,1,120.000004577637,8|0,1:2|0:0,0:0:0:0:
56,75,58642,6,0,L|136:72,1,80,4|0,1:0|0:0,0:0:0:0:
304,0,58984,1,0,1:0:0:0:
179,77,59156,1,0,0:0:0:0:
160,69,59241,1,0,0:0:0:0:
142,61,59327,1,0,1:0:0:0:
231,157,59499,2,0,L|223:265,1,80,0|0,0:0|1:0,0:0:0:0:
235,370,59842,1,0,0:0:0:0:
115,295,60013,6,0,L|109:374,1,80,0|0,1:0|0:0,0:0:0:0:
108,374,60270,1,0,0:0:0:0:
109,374,60356,1,0,1:0:0:0:
72,217,60527,2,0,P|127:206|168:221,1,80,0|0,0:0|1:0,0:0:0:0:
283,321,60870,1,0,0:0:0:0:
231,133,61042,1,0,1:0:0:0:
213,97,61127,1,0,0:0:0:0:
216,58,61213,1,0,0:0:0:0:
241,27,61299,1,0,0:0:0:0:
278,14,61384,6,0,B|255:24|255:24|168:10,1,80,0|0,1:0|0:0,0:0:0:0:
319,156,61727,2,0,P|288:199|291:248,1,80,0|0,1:0|0:0,0:0:0:0:
291,243,61984,1,0,0:0:0:0:
304,257,62070,1,0,1:0:0:0:
444,79,62242,1,0,0:0:0:0:
427,349,62413,1,0,1:0:0:0:
319,156,62584,1,0,0:0:0:0:
259,331,62756,6,0,L|209:335,1,40,2|0,1:3|0:0,0:0:0:0:
105,244,62927,2,0,B|102:233|102:233|107:179,1,40,2|0,1:3|0:3,0:3:0:0:
216,53,63099,1,0,1:0:0:0:
207,229,63270,1,0,0:0:0:0:
10,148,63442,6,0,B|28:142|53:159|59:160|97:138|109:150|109:150|128:144,1,120.000004577637,4|0,1:2|0:0,0:0:0:0:
205,144,63699,2,0,B|255:111|255:111|305:143,1,120.000004577637,4|0,1:2|0:0,0:0:0:0:
383,143,63956,1,4,1:2:0:0:
80,277,64127,6,0,L|87:216,1,40,4|0,1:2|0:0,0:0:0:0:
122,169,64299,2,2,L|129:108,1,40
164,61,64470,1,0,1:0:0:0:
313,1,64642,1,0,0:0:0:0:
313,1,64727,1,0,0:0:0:0:
313,1,64813,1,0,1:0:0:0:
205,144,64984,5,2,0:2:0:0:
73,38,65156,2,0,L|68:145,1,80,0|0,1:0|0:0,0:0:0:0:
123,349,65499,5,4,1:0:0:0:
224,192,65670,1,0,0:0:0:0:
25,270,65842,1,0,1:0:0:0:
77,89,66013,1,0,0:0:0:0:
33,280,66184,5,0,1:0:0:0:
176,320,66356,1,0,0:0:0:0:
197,210,66527,1,0,1:0:0:0:
236,214,66612,1,0,0:0:0:0:
276,218,66698,1,2,0:0:0:0:
316,222,66784,1,2,0:0:0:0:
357,225,66870,2,0,B|377:185|377:185|352:97,1,120,4|0,1:0|0:0,0:0:0:0:
371,75,67213,5,0,1:0:0:0:
177,171,67384,2,0,B|160:209|160:209|177:260,1,80,0|0,1:0|0:0,0:0:0:0:
271,322,67727,1,0,1:0:0:0:
202,192,67899,6,0,P|142:199|194:230,1,160,2|0,1:3|0:0,0:0:0:0:
446,28,68242,5,4,1:0:0:0:
294,134,68413,1,0,0:0:0:0:
317,5,68584,1,0,1:0:0:0:
423,157,68756,1,0,0:0:0:0:
423,157,68842,1,0,0:0:0:0:
423,157,68927,5,0,1:0:0:0:
424,186,69012,1,2,0:0:0:0:
426,216,69098,1,2,0:0:0:0:
428,246,69184,1,0,0:0:0:0:
430,276,69270,2,0,L|364:264,1,40,4|0,1:0|0:0,0:0:0:0:
237,220,69442,2,0,L|193:254,1,40,4|0,1:0|0:0,0:0:0:0:
79,297,69613,6,0,L|72:381,1,80,4|0,1:0|0:0,0:0:0:0:
72,376,69870,1,0,0:0:0:0:
72,376,69956,1,0,1:0:0:0:
10,136,70127,1,0,0:0:0:0:
150,217,70299,5,0,1:0:0:0:
10,136,70470,2,0,B|8:94|8:94|37:61,1,80,0|0,0:0|1:0,0:0:0:0:
142,73,70727,2,0,L|237:64,1,80,0|0,0:0|1:0,0:0:0:0:
319,16,70984,5,0,1:0:0:0:
318,223,71156,2,0,B|295:236|295:236|292:259|296:292,1,80,0|0,0:0|1:0,0:0:0:0:
419,372,71499,1,0,0:0:0:0:
345,121,71670,1,0,1:0:0:0:
345,121,71756,1,2,0:0:0:0:
345,121,71842,1,2,0:0:0:0:
181,246,72013,1,0,1:0:0:0:
110,118,72184,1,2,0:0:0:0:
110,118,72270,1,2,0:0:0:0:
110,118,72356,6,0,L|208:102,1,80,0|0,1:0|0:0,0:0:0:0:
334,186,72699,2,0,L|432:202,1,80,0|0,1:0|0:0,0:0:0:0:
500,33,73042,5,4,1:2:0:0:
247,162,73213,2,0,L|207:155,1,40,0|0,1:0|0:0,0:0:0:0:
186,241,73384,2,0,B|164:271|164:271|169:353,1,120,4|0,1:0|0:0,0:0:0:0:
244,384,73727,5,0,1:0:0:0:
391,306,73899,2,0,L|496:308,2,80,2|2|2,1:2|1:3|0:0,1:0:0:0:
247,163,74413,5,0,1:0:0:0:
88,257,74584,2,0,L|73:358,1,80,0|0,1:0|0:0,0:0:0:0:
47,55,74927,1,0,0:0:0:0:
47,55,75013,1,0,0:0:0:0:
47,55,75099,5,4,1:2:0:0:
129,181,75270,2,0,B|169:190|169:190|206:180,1,80,0|4,0:0|1:2,0:0:0:0:
454,77,75613,1,2,0:0:0:0:
450,95,75698,1,2,0:0:0:0:
447,114,75784,2,0,B|459:134|459:134|451:201,1,80,0|2,1:0|0:0,0:0:0:0:
346,274,76127,1,4,1:2:0:0:
202,211,76299,1,0,0:0:0:0:
102,331,76470,5,0,1:0:0:0:
193,193,76642,1,0,0:0:0:0:
318,231,76813,2,0,L|331:359,1,120,4|0,1:2|0:0,0:0:0:0:
311,320,77156,5,0,1:0:0:0:
336,304,77241,1,2,0:0:0:0:
364,295,77327,1,2,0:0:0:0:
394,294,77413,1,0,0:0:0:0:
423,301,77499,2,0,P|460:323|520:316,1,80,4|0,1:2|0:0,0:0:0:0:
222,199,77842,6,0,B|200:181|200:181|114:191,1,80,4|0,1:2|0:0,0:0:0:0:
358,273,78184,1,4,1:2:0:0:
336,110,78356,2,0,L|239:106,1,80,2|0,0:0|1:0,0:0:0:0:
165,265,78699,5,0,0:0:0:0:
85,144,78870,2,0,B|77:124|77:124|91:55,1,80,4|0,1:2|0:0,0:0:0:0:
186,95,79127,1,2,0:0:0:0:
199,111,79213,2,0,P|210:169|196:208,1,80,0|0,1:0|0:0,0:0:0:0:
159,273,79556,1,4,1:2:0:0:
432,90,79727,1,2,0:0:0:0:
432,90,79813,1,2,1:2:0:0:
432,90,79899,5,0,1:2:0:0:
402,309,80070,1,0,0:0:0:0:
263,253,80242,2,0,L|118:254,1,120,4|0,1:2|0:0,0:0:0:0:
104,218,80584,6,0,B|123:235|123:235|113:301,1,80,4|0,1:2|0:0,0:0:0:0:
6,367,80927,1,0,1:2:0:0:
75,120,81099,1,2,0:0:0:0:
72,100,81184,1,2,0:0:0:0:
70,80,81270,1,0,1:0:0:0:
276,0,81442,1,0,0:0:0:0:
225,164,81613,5,4,1:2:0:0:
243,199,81698,1,2,0:0:0:0:
261,235,81784,1,2,0:0:0:0:
234,264,81870,1,0,0:0:0:0:
207,294,81956,6,0,L|217:357,1,40,4|0,1:2|0:0,0:0:0:0:
359,218,82127,2,0,L|352:178,1,40,4|0,1:2|0:0,0:0:0:0:
483,359,82299,1,6,1:2:0:0:
483,359,82384,1,2,0:0:0:0:
483,359,82470,1,2,1:2:0:0:
483,359,82556,1,0,1:2:0:0:
483,359,82642,5,0,1:0:0:0:
438,111,82813,1,0,1:0:0:0:
354,319,82984,1,0,1:0:0:0:
334,321,83069,1,2,0:0:0:0:
314,323,83156,1,2,0:0:0:0:
262,168,83327,6,0,P|194:176|154:160,1,80,4|0,1:0|0:0,0:0:0:0:
168,24,83670,2,0,P|236:16|276:32,1,80,0|0,1:0|0:0,0:0:0:0:
212,96,84013,1,0,1:0:0:0:
180,304,84184,1,2,0:2:0:0:
212,96,84356,1,2,1:2:0:0:
101,335,84527,1,0,0:0:0:0:
101,335,84613,1,0,0:0:0:0:
101,335,84699,6,0,L|152:336,1,40,4|0,1:2|0:0,0:0:0:0:
248,264,84870,2,0,L|299:265,1,47.9999985351563,4|0,1:2|0:0,0:0:0:0:
416,212,85042,5,4,1:0:0:0:
356,376,85213,1,4,1:1:0:0:
356,376,85299,1,0,0:0:0:0:
356,376,85384,1,4,1:0:0:0:
304,136,85556,1,0,1:0:0:0:
504,48,85727,2,0,L|508:3,2,40,4|0|0,1:2|1:0|1:0,1:0:0:0:
328,224,86070,6,0,L|224:224,1,80,4|0,1:2|0:0,0:0:0:0:
195,68,86413,1,2,1:0:0:0:
401,182,86584,2,0,B|415:199|415:199|393:282,1,80,2|0,0:1|1:0,0:0:0:0:
301,362,86927,1,2,0:1:0:0:
321,74,87099,1,0,1:0:0:0:
96,256,87270,1,0,0:0:0:0:
96,256,87356,1,0,0:0:0:0:
96,256,87442,6,0,B|120:240|120:240|208:248,1,80,6|0,1:1|0:0,0:0:0:0:
244,252,87699,1,0,0:0:0:0:
316,260,87784,2,0,P|372:264|404:252,1,80,2|0,1:0|0:0,0:0:0:0:
432,16,88127,1,2,1:0:0:0:
432,16,88299,1,0,0:0:0:0:
205,69,88470,1,2,1:0:0:0:
232,56,88555,1,0,0:0:0:0:
262,52,88641,1,8,1:3:0:0:
291,56,88727,1,0,0:0:0:0:
319,69,88813,6,0,B|342:124|342:124|324:204,1,120,2|0,1:0|0:0,0:0:0:0:
317,261,89156,2,0,P|301:233|333:185,1,80,2|0,1:0|0:0,0:0:0:0:
460,248,89499,5,0,1:0:0:0:
317,261,89671,1,2,0:1:0:0:
400,379,89842,1,4,1:2:0:0:
317,261,90013,1,0,0:1:0:0:
200,344,90184,6,0,P|160:348|108:352,1,80,2|0,1:0|0:0,0:0:0:0:
120,351,90442,1,0,0:0:0:0:
120,351,90527,1,2,1:1:0:0:
40,120,90699,1,0,0:0:0:0:
40,120,90784,1,0,0:0:0:0:
40,120,90870,2,0,L|76:148,1,40,2|0,1:1|0:0,0:0:0:0:
172,112,91042,2,0,L|192:152,1,40,2|0,1:1|0:0,0:0:0:0:
295,160,91213,2,0,L|296:205,1,40,2|0,1:1|0:0,0:0:0:0:
352,292,91384,1,2,0:0:0:0:
368,296,91470,1,2,0:0:0:0:
384,300,91556,5,6,1:1:0:0:
416,56,91727,1,2,0:1:0:0:
472,164,91899,2,0,P|492:228|464:256,1,80,4|2,1:1|0:1,0:0:0:0:
384,300,92242,2,2,L|208:312,1,160,0|0,1:1|1:1,0:1:0:0:
99,150,92756,1,0,0:0:0:0:
97,153,92842,1,0,0:0:0:0:
95,156,92927,6,0,P|131:132|179:128,1,80,2|0,1:0|0:1,0:0:0:0:
272,384,93270,1,2,1:0:0:0:
162,308,93442,2,0,L|167:229,1,80,2|2,0:1|1:0,0:0:0:0:
278,71,93784,1,0,0:1:0:0:
469,189,93957,1,2,1:0:0:0:
444,205,94042,1,2,0:0:0:0:
415,212,94128,1,2,0:0:0:0:
386,207,94214,1,0,0:0:0:0:
360,192,94299,6,2,B|352:151|352:151|372:96,1,80,4|2,1:2|0:1,0:1:0:0:
485,31,94642,1,0,1:1:0:0:
400,319,94813,1,2,0:1:0:0:
318,100,94984,1,2,1:0:0:0:
210,221,95156,1,0,0:0:0:0:
230,220,95241,1,0,0:0:0:0:
250,218,95327,1,2,1:1:0:0:
409,133,95499,5,2,0:1:0:0:
188,361,95670,1,4,1:0:0:0:
164,107,96013,5,0,1:0:0:0:
142,295,96184,2,0,P|178:283|238:295,1,80,0|0,1:0|0:0,0:0:0:0:
188,361,96527,5,0,1:2:0:0:
210,173,96698,1,0,1:0:0:0:
172,185,96783,1,0,1:0:0:0:
132,181,96869,1,0,1:0:0:0:
164,107,97042,5,4,1:0:0:0:
440,116,106470,5,0,1:0:0:0:
343,229,106642,2,0,L|276:232,1,60.0000022888184,0|2,1:0|0:0,0:0:0:0:
167,101,106984,1,0,1:0:0:0:
185,100,107070,1,0,0:0:0:0:
203,99,107156,1,2,0:0:0:0:
221,98,107241,1,0,0:0:0:0:
258,86,107327,5,0,1:0:0:0:
184,349,107499,1,0,1:0:0:0:
258,86,107670,1,8,1:3:0:0:
258,86,108013,6,0,L|126:93,1,120.000004577637,4|0,1:0|0:0,0:0:0:0:
271,305,108527,1,0,0:0:0:0:
342,211,108699,2,0,L|401:207,1,60.0000022888184,0|0,0:0|1:0,0:0:0:0:
302,61,109042,2,0,L|242:64,1,60.0000022888184,8|0,1:0|0:0,0:0:0:0:
157,223,109384,5,0,1:0:0:0:
219,89,109556,1,0,1:0:0:0:
257,291,109727,2,0,L|251:368,1,60.0000022888184,0|0,1:0|0:0,0:0:0:0:
455,240,110070,2,0,L|459:180,1,60.0000022888184,0|0,0:0|1:0,0:0:0:0:
459,180,110327,1,0,1:0:0:0:
459,180,110413,1,0,1:0:0:0:
262,240,110584,1,0,1:0:0:0:
147,142,110756,6,0,L|226:135,1,60.0000022888184,4|0,1:2|0:0,0:0:0:0:
353,230,111099,2,0,L|274:237,1,60.0000022888184,0|0,1:0|0:0,0:0:0:0:
364,55,111442,1,0,0:0:0:0:
364,55,111527,1,2,0:0:0:0:
364,55,111613,1,2,1:2:0:0:
206,326,111784,5,8,1:0:0:0:
100,292,111956,2,0,B|92:320|92:320|98:367,1,60.0000022888184,0|0,0:0|1:0,0:0:0:0:
206,326,112299,1,2,0:3:0:0:
235,320,112384,1,0,0:0:0:0:
265,315,112470,1,0,1:0:0:0:
294,309,112556,1,0,1:0:0:0:
324,304,112642,1,2,0:3:0:0:
324,304,112984,6,0,L|411:314,1,60.0000022888184,0|0,1:0|0:0,0:0:0:0:
401,314,113242,1,0,1:0:0:0:
418,317,113327,1,0,1:0:0:0:
474,61,113499,6,0,P|444:101|446:131,1,60.0000022888184,4|0,0:0|0:0,0:0:0:0:
358,231,113842,2,0,L|298:224,1,60.0000022888184,8|0,1:0|0:0,0:0:0:0:
186,129,114184,2,0,B|164:138|164:138|104:129,1,60.0000022888184,0|0,1:0|0:0,0:0:0:0:
38,19,114527,1,0,1:0:0:0:
38,19,114870,6,0,L|22:103,1,60.0000022888184,4|0,1:0|0:0,0:0:0:0:
172,179,115213,1,2,1:2:0:0:
31,91,115384,1,2,0:0:0:0:
234,139,115556,2,0,P|244:194|235:211,1,60.0000022888184,0|0,1:0|0:0,0:0:0:0:
35,104,115898,1,0,1:0:0:0:
35,104,116070,1,0,0:0:0:0:
38,323,116242,6,0,P|68:283|66:253,1,60.0000022888184,4|0,1:0|0:0,0:0:0:0:
152,168,116585,2,0,L|211:162,1,60.0000022888184,8|0,1:0|0:0,0:0:0:0:
337,240,116927,2,0,B|359:249|359:249|419:240,1,60.0000022888184,0|0,1:0|0:0,0:0:0:0:
485,130,117270,1,4,1:2:0:0:
247,24,117442,1,0,1:0:0:0:
246,289,117613,1,4,1:2:0:0:
108,206,117784,1,0,3:0:0:0:
131,203,117869,1,0,3:0:0:0:
155,200,117955,1,0,3:0:0:0:
179,197,118041,1,0,3:0:0:0:
203,194,118126,1,0,3:0:0:0:
227,191,118212,1,0,3:0:0:0:
255,168,118299,5,2,3:3:0:0:
300,140,118384,1,0,0:0:0:0:
352,134,118470,1,0,0:0:0:0:
402,151,118556,1,2,3:3:0:0:
437,189,118642,2,0,L|433:238,1,40,0|0,1:0|1:0,1:0:0:0:
322,322,118813,2,0,L|326:283,1,40,0|0,1:0|1:0,1:0:0:0:
300,140,118984,5,4,1:2:0:0:
155,200,119156,6,0,L|60:195,1,90.0000034332277,0|0,1:0|0:3,0:0:0:0:
66,196,119499,1,10,1:3:0:0:
220,77,119842,6,0,L|161:74,1,60.0000022888184,0|10,0:0|1:3,0:0:0:0:
161,74,120099,1,0,1:0:0:0:
161,74,120184,1,0,0:0:0:0:
285,201,120356,5,0,1:0:0:0:
370,41,120527,1,0,0:0:0:0:
161,74,120699,1,10,1:3:0:0:
285,201,120870,1,0,0:0:0:0:
285,201,121213,6,0,B|297:219|297:219|280:280,1,60.0000022888184,0|10,0:0|1:3,0:0:0:0:
281,273,121470,1,0,1:0:0:0:
275,290,121556,1,0,1:0:0:0:
25,148,121727,1,0,1:0:0:0:
52,135,121812,1,2,0:0:0:0:
81,131,121898,1,2,0:0:0:0:
111,135,121984,1,0,0:0:0:0:
138,147,122069,5,0,1:0:0:0:
229,246,122242,2,0,P|293:242|375:238,1,120.000004577637,10|0,1:3|0:0,0:0:0:0:
478,268,122756,2,0,B|492:240|492:240|481:205,1,60.0000022888184,0|0,1:3|0:0,0:0:0:0:
368,81,123099,1,0,1:0:0:0:
372,239,123270,1,0,1:0:0:0:
466,94,123442,5,0,1:0:0:0:
466,94,123527,1,0,1:0:0:0:
466,94,123613,1,0,0:0:0:0:
480,68,123699,1,0,0:0:0:0:
493,42,123784,2,0,L|443:35,1,30.0000011444092,0|2,1:0|0:0,0:0:0:0:
290,98,123956,2,0,L|240:91,1,30.0000011444092,0|2,1:0|0:0,0:0:0:0:
128,54,124127,1,0,1:0:0:0:
128,54,124213,1,0,1:0:0:0:
128,54,124299,1,0,1:0:0:0:
177,201,124470,6,0,L|172:280,1,60.0000022888184,0|0,1:0|1:0,0:0:0:0:
256,370,124813,1,0,1:0:0:0:
336,262,124984,2,0,L|471:252,1,120.000004577637,10|0,1:3|0:0,0:0:0:0:
247,363,125499,1,10,1:3:0:0:
240,357,125842,5,4,1:0:0:0:
321,256,126013,1,0,0:0:0:0:
113,233,126184,1,10,1:3:0:0:
375,368,126356,1,0,0:0:0:0:
375,368,126699,6,0,L|433:375,1,30.0000011444092,0|0,1:0|0:0,0:0:0:0:
475,308,126870,1,0,1:0:0:0:
408,70,127042,1,0,0:0:0:0:
286,180,127213,6,0,B|254:155|254:155|194:180,1,90.0000034332277,4|0,1:0|0:0,0:0:0:0:
136,202,127556,1,0,1:0:0:0:
332,32,127727,6,0,B|380:71|380:71|326:130,1,120,4|0,1:0|0:0,0:0:0:0:
274,151,128070,2,0,B|192:147,1,80,4|10,1:0|1:3,0:0:0:0:
350,384,128413,2,0,P|383:341|372:275,1,120,4|0,1:0|0:0,0:0:0:0:
309,318,128756,5,10,1:3:0:0:
163,229,128927,2,0,B|153:191|153:191|178:148,1,80,0|0,1:0|0:0,0:0:0:0:
354,19,129270,1,10,1:3:0:0:
303,327,129442,1,10,1:3:0:0:
303,327,129784,1,2,0:0:0:0:
303,327,129870,1,2,0:0:0:0:
303,327,129956,5,4,1:0:0:0:
413,226,130127,2,0,L|506:226,1,80,2|0,0:0|1:0,0:0:0:0:
296,132,130470,2,0,L|203:132,1,80,2|0,0:0|1:0,0:0:0:0:
272,282,130813,1,2,0:0:0:0:
87,280,130984,2,0,L|180:280,1,80,0|2,1:0|0:0,0:0:0:0:
343,187,131327,6,0,P|374:124|362:95,1,80,0|2,1:0|0:0,0:0:0:0:
368,94,131584,1,2,0:0:0:0:
348,80,131670,1,0,1:0:0:0:
146,195,131842,1,2,0:0:0:0:
248,287,132013,1,0,1:0:0:0:
267,283,132098,1,2,0:0:0:0:
287,280,132184,1,2,0:0:0:0:
359,382,132356,1,10,1:3:0:0:
373,171,132527,1,2,0:0:0:0:
188,240,132699,6,0,P|170:280|186:330,1,80,4|0,1:2|0:0,0:0:0:0:
349,271,133042,1,0,1:0:0:0:
190,135,133213,1,2,0:0:0:0:
203,97,133298,1,2,0:0:0:0:
216,59,133384,1,0,1:0:0:0:
256,61,133470,1,0,0:0:0:0:
296,63,133555,1,2,0:0:0:0:
423,211,133727,1,10,1:3:0:0:
267,134,133899,1,0,0:0:0:0:
279,307,134070,5,0,1:0:0:0:
427,189,134242,1,0,0:0:0:0:
205,259,134413,2,0,L|194:359,1,80,0|0,1:0|0:0,0:0:0:0:
355,384,134756,1,0,1:0:0:0:
355,384,134842,1,2,0:0:0:0:
355,384,134927,1,2,0:0:0:0:
512,117,135099,1,0,1:0:0:0:
474,119,135184,1,2,0:0:0:0:
434,122,135270,1,2,0:0:0:0:
394,125,135356,1,0,0:0:0:0:
355,128,135441,5,4,1:0:0:0:
383,277,135613,1,0,0:0:0:0:
228,325,135784,1,4,1:0:0:0:
377,297,135956,1,0,0:0:0:0:
355,128,136127,5,4,1:0:0:0:
391,157,136212,1,2,0:0:0:0:
410,201,136298,1,2,0:0:0:0:
407,249,136384,1,0,0:0:0:0:
383,277,136470,2,0,P|336:322|390:367,1,120,4|0,1:0|0:0,0:0:0:0:
377,368,136813,6,0,L|485:362,1,80,0|2,1:0|0:3,0:0:0:0:
359,144,137156,2,0,L|251:149,1,80,0|2,1:0|0:3,0:0:0:0:
148,308,137499,2,0,L|227:303,1,80,0|2,1:0|0:3,0:0:0:0:
104,72,137842,2,0,L|24:76,1,80,0|2,1:0|0:3,0:0:0:0:
25,106,138099,1,0,0:0:0:0:
25,106,138184,6,0,P|13:129|17:164,1,40,4|0,1:0|0:0,0:0:0:0:
53,231,138356,2,0,P|73:246|108:248,1,40,2|0,1:3|0:0,0:0:0:0:
180,225,138527,2,0,P|199:207|207:173,1,40,2|0,1:3|0:0,0:0:0:0:
292,94,138699,1,0,0:0:0:0:
292,94,138784,1,0,0:0:0:0:
292,94,138870,6,0,L|295:164,1,40,4|0,1:0|0:0,0:0:0:0:
392,150,139042,2,0,L|388:189,1,40,2|0,3:3|3:0,3:0:0:0:
484,217,139213,2,0,L|475:256,1,40,2|0,3:3|3:0,3:0:0:0:
406,342,139384,1,0,0:0:0:0:
406,342,139470,1,0,0:0:0:0:
406,342,139556,5,0,1:0:0:0:
384,328,139641,1,0,0:0:0:0:
361,319,139727,1,0,0:0:0:0:
336,315,139813,1,0,0:0:0:0:
312,315,139898,1,0,0:0:0:0:
287,320,139984,1,0,0:0:0:0:
264,330,140070,1,0,0:0:0:0:
243,344,140156,1,0,0:0:0:0:
226,361,140241,5,0,0:0:0:0:
181,341,140327,1,0,0:0:0:0:
155,299,140413,1,0,0:0:0:0:
157,249,140499,1,0,0:0:0:0:
186,209,140584,2,0,L|264:218,1,40,10|0,1:3|1:0,1:0:0:0:
333,179,140756,2,0,L|410:187,1,40,0|0,1:0|1:0,1:0:0:0:
479,148,140927,5,4,1:0:0:0:
281,275,141099,1,0,0:0:0:0:
139,223,141270,2,0,B|112:214|112:214|34:227,1,80,0|0,1:0|0:0,0:0:0:0:
250,379,141613,2,0,P|262:319|242:275,1,80,0|0,1:0|0:0,0:0:0:0:
250,283,141870,1,0,0:0:0:0:
238,267,141956,1,0,1:0:0:0:
74,329,142127,1,0,0:0:0:0:
206,172,142299,6,0,L|314:180,1,80,0|0,1:2|0:0,0:0:0:0:
468,80,142642,1,0,0:0:0:0:
360,248,142813,1,2,0:0:0:0:
360,248,142899,1,2,0:0:0:0:
360,248,142984,1,0,1:0:0:0:
256,83,143156,1,2,0:0:0:0:
256,83,143242,1,2,0:0:0:0:
256,83,143327,5,0,1:0:0:0:
216,79,143412,1,0,0:0:0:0:
176,75,143498,1,2,0:0:0:0:
100,256,143670,6,0,L|108:340,1,80,0|0,1:0|0:0,0:0:0:0:
107,335,143927,1,0,0:0:0:0:
107,335,144013,1,0,1:0:0:0:
260,244,144184,1,0,0:0:0:0:
384,360,144356,6,0,L|536:352,1,120,4|0,1:0|0:0,0:0:0:0:
498,262,144699,2,0,P|465:195|497:149,1,120,4|0,1:0|0:0,0:0:0:0:
496,72,145042,6,0,L|468:72,1,20,4|0,1:0|0:0,0:0:0:0:
284,120,145213,2,0,L|304:120,1,20,0|0,1:0|0:0,0:0:0:0:
128,60,145384,1,2,0:0:0:0:
128,60,145470,1,2,0:0:0:0:
128,60,145556,1,2,0:0:0:0:
16,244,145727,6,0,B|40:232|76:248|76:248|120:244|144:228|144:228|176:228,1,120.000004577637,4|0,1:2|0:0,0:0:0:0:
240,264,145984,2,0,P|328:236|388:272,1,120.000004577637,4|0,1:2|0:0,0:0:0:0:
452,296,146242,1,4,1:2:0:0:
240,264,146413,6,0,L|232:132,1,120,4|0,1:0|0:0,0:0:0:0:
244,108,146756,1,0,1:0:0:0:
380,36,146927,1,2,0:0:0:0:
399,32,147012,1,2,0:0:0:0:
419,29,147098,1,0,1:0:0:0:
360,204,147270,1,0,0:0:0:0:
244,108,147442,1,0,1:0:0:0:
360,204,147613,1,0,0:0:0:0:
124,168,147784,6,0,L|40:164,1,80,0|2,1:0|0:0,0:0:0:0:
44,164,148042,1,2,0:0:0:0:
44,164,148127,1,0,1:0:0:0:
16,360,148299,1,2,0:0:0:0:
24,341,148384,1,2,0:0:0:0:
32,323,148470,1,0,1:0:0:0:
176,248,148642,1,0,0:0:0:0:
180,256,148727,1,0,0:0:0:0:
184,264,148813,1,0,1:0:0:0:
296,360,148984,1,0,0:0:0:0:
480,208,149156,6,0,B|448:200|448:200|416:220|416:220|336:208,1,120,4|0,1:0|0:0,0:0:0:0:
285,206,149499,5,4,1:0:0:0:
145,357,149670,2,0,P|133:309|145:281,1,80,0|0,1:0|0:0,0:0:0:0:
213,76,150013,5,0,1:0:0:0:
48,134,150184,2,0,P|36:192|31:251,1,120.000004577637,2|0,1:3|0:1,0:1:0:0:
176,338,150527,5,0,1:0:0:0:
176,338,150613,1,2,0:0:0:0:
176,338,150699,1,2,0:0:0:0:
257,198,150870,1,0,1:0:0:0:
286,195,150955,1,2,0:0:0:0:
316,193,151041,1,2,0:0:0:0:
346,191,151127,1,0,0:0:0:0:
376,188,151214,5,0,1:3:0:0:
340,205,151298,1,2,0:0:0:0:
316,236,151384,1,2,0:0:0:0:
310,275,151470,1,2,0:0:0:0:
323,312,151556,2,0,L|395:315,1,40,2|0,1:3|0:0,0:0:0:0:
317,111,151727,2,0,L|277:114,1,40,2|0,1:3|0:0,0:0:0:0:
200,272,151899,6,0,L|199:352,1,80,4|2,1:0|0:0,0:0:0:0:
199,352,152156,1,2,0:0:0:0:
199,352,152242,1,0,1:0:0:0:
56,152,152413,1,0,0:0:0:0:
48,368,152584,5,0,1:0:0:0:
56,152,152756,2,0,B|68:132|68:132|144:140,1,80,0|0,0:0|1:0,0:0:0:0:
224,180,153013,2,0,P|256:192|320:164,1,80,0|0,0:0|1:0,0:0:0:0:
376,104,153270,5,0,1:0:0:0:
168,245,153442,1,0,0:0:0:0:
191,37,153613,1,0,1:0:0:0:
332,268,153784,2,0,L|342:363,1,80,0|0,0:0|1:0,0:0:0:0:
340,347,154042,1,2,0:0:0:0:
340,347,154127,1,2,0:0:0:0:
80,262,154299,2,0,L|89:202,1,40,0|0,1:0|1:0,1:0:0:0:
152,148,154470,2,0,L|161:88,1,40,0|0,1:0|1:0,1:0:0:0:
91,34,154642,6,0,L|2:24,1,80,4|0,1:0|0:0,0:0:0:0:
227,219,154984,2,0,L|316:229,1,80,4|0,1:0|0:0,0:0:0:0:
208,49,155327,5,0,1:0:0:0:
382,27,155499,1,2,0:3:0:0:
218,42,155670,1,0,1:0:0:0:
424,139,155842,1,2,0:3:0:0:
227,219,156013,6,0,L|223:258,1,40,4|0,1:0|0:0,0:0:0:0:
281,329,156184,2,0,P|351:361|438:308,1,160,4|0,1:0|0:0,0:0:0:0:
432,75,156699,1,4,1:0:0:0:
353,264,156870,1,4,1:0:0:0:
187,161,157042,6,0,L|115:169,1,71.9999978027344,2|0,1:3|0:0,0:0:0:0:
88,172,157384,5,4,1:0:0:0:
268,92,157556,1,0,0:0:0:0:
139,281,157727,1,0,1:0:0:0:
3,206,157899,2,0,L|11:99,1,80,4|0,1:2|1:0,0:0:0:0:
178,63,158242,1,2,0:0:0:0:
142,239,158413,2,0,P|118:299|134:329,1,80,0|2,1:0|0:0,0:0:0:0:
142,328,158670,1,2,0:0:0:0:
165,343,158756,5,0,1:0:0:0:
404,375,158927,1,0,0:0:0:0:
322,235,159099,2,0,L|243:232,1,80,4|0,1:2|0:0,0:0:0:0:
51,253,159442,1,0,1:0:0:0:
75,221,159527,1,2,0:0:0:0:
85,182,159613,1,2,0:0:0:0:
80,143,159699,1,0,0:0:0:0:
61,108,159784,2,0,P|52:72|77:21,1,80,4|0,1:2|0:0,0:0:0:0:
284,96,160127,5,0,1:0:0:0:
303,97,160212,1,2,0:0:0:0:
323,99,160298,1,2,0:0:0:0:
477,5,160470,1,4,1:2:0:0:
232,25,160642,1,2,0:0:0:0:
204,52,160727,1,2,0:0:0:0:
192,91,160813,1,0,1:0:0:0:
199,130,160899,1,0,0:0:0:0:
222,161,160984,2,0,P|239:170|262:170,1,40
427,130,161156,1,4,1:2:0:0:
304,242,161327,2,0,L|296:337,1,80,0|0,0:0|1:0,0:0:0:0:
48,177,161670,5,2,0:0:0:0:
48,177,161756,1,2,0:0:0:0:
48,177,161842,2,0,L|128:169,1,80,4|0,1:2|0:0,0:0:0:0:
347,28,162184,1,0,1:0:0:0:
317,29,162270,1,0,3:0:0:0:
287,32,162355,1,2,3:2:0:0:
257,35,162441,1,2,3:2:0:0:
227,38,162527,1,4,1:2:0:0:
131,144,162699,1,2,0:0:0:0:
131,144,162784,1,2,0:0:0:0:
131,144,162870,6,0,L|136:198,1,40,4|0,1:2|0:0,0:0:0:0:
234,295,163042,2,0,L|230:255,1,40,2|0,0:2|0:0,0:0:0:0:
211,112,163213,2,0,L|216:166,1,40,0|0,1:2|0:0,0:0:0:0:
267,324,163384,2,0,L|263:284,1,40,2|0,0:2|0:0,0:0:0:0:
291,80,163556,6,0,L|296:134,1,40,0|0,1:2|0:0,0:0:0:0:
300,353,163727,2,0,L|296:313,1,40,2|0,0:2|0:0,0:0:0:0:
371,54,163899,2,0,L|376:108,1,40,0|0,1:2|0:0,0:0:0:0:
333,382,164070,2,0,L|329:342,1,40,2|0,0:2|0:0,0:0:0:0:
331,194,164242,5,4,1:2:0:0:
66,320,164413,1,4,1:2:0:0:
20,29,164584,1,4,1:2:0:0:
20,29,164670,1,2,1:2:0:0:
20,29,164756,1,0,1:0:0:0:
20,29,164842,1,2,1:2:0:0:
20,29,164927,5,0,1:0:0:0:
20,29,165013,1,0,0:0:0:0:
20,29,165099,2,0,L|72:38,1,40,0|0,1:0|0:0,0:0:0:0:
211,125,165270,1,0,1:0:0:0:
232,145,165355,1,0,1:0:0:0:
241,173,165441,1,0,1:0:0:0:
236,202,165527,1,2,0:0:0:0:
219,226,165612,5,6,1:2:0:0:
37,309,165784,1,0,0:1:0:0:
142,183,165956,1,0,1:0:0:0:
248,311,166127,1,2,0:1:0:0:
407,257,166299,2,0,L|401:141,2,80,0|2|0,1:1|0:1|1:1,0:1:0:0:
241,123,166813,1,0,3:0:0:0:
222,116,166898,1,0,3:0:0:0:
203,110,166984,6,0,L|213:153,1,40,2|0,1:1|0:0,0:0:0:0:
236,282,167156,2,0,L|265:254,1,40,2|0,3:1|3:0,3:0:0:0:
369,167,167327,2,0,L|330:155,1,40,10|0,1:3|0:0,0:0:0:0:
106,79,167499,1,2,0:1:0:0:
1,260,167670,6,0,L|104:250,1,80,0|0,1:1|0:1,0:1:0:0:
332,320,168013,1,0,1:0:0:0:
338,281,168098,1,0,1:0:0:0:
345,242,168184,2,0,L|339:190,1,40,0|0,1:0|0:0,0:0:0:0:
213,14,168356,5,4,1:0:0:0:
213,14,168699,1,0,1:0:0:0:
142,322,168870,1,0,0:0:0:0:
60,188,169042,1,0,1:0:0:0:
89,185,169127,1,0,1:0:0:0:
119,183,169213,1,0,1:0:0:0:
149,180,169299,1,0,0:0:0:0:
179,178,169384,1,0,1:0:0:0:
307,354,169556,1,0,1:0:0:0:
142,322,169727,5,0,1:0:0:0:
379,135,169899,2,2,L|374:115,1,20,6|2,1:2|0:0,0:0:0:0:
391,106,169984,2,2,L|388:85,1,20,2|2,1:2|0:0,0:0:0:0:
408,90,170071,2,2,L|407:69,1,20,2|2,1:2|0:0,0:0:0:0:
429,85,170157,2,2,L|430:64,1,20,2|2,1:2|0:0,0:0:0:0:
450,91,170242,1,2,0:0:0:0:
200,223,170413,6,0,P|186:173|238:167,1,120,4|0,1:2|0:0,0:0:0:0:
312,132,170755,2,0,P|323:179|307:219,1,80,0|0,1:0|0:0,0:0:0:0:
299,250,171013,1,0,1:0:0:0:
299,250,171098,2,0,L|288:359,1,80,0|2,1:1|0:2,0:0:0:0:
464,369,171441,1,0,1:0:0:0:
288,356,171613,1,2,0:0:0:0:
380,148,171784,6,0,P|405:92|390:51,1,80,0|0,1:0|0:0,0:0:0:0:
145,109,172127,2,0,P|120:165|135:206,1,80,0|0,1:0|0:0,0:0:0:0:
220,351,172470,1,0,1:0:0:0:
212,166,172641,1,0,1:0:0:0:
9,271,172813,1,10,1:3:0:0:
9,271,173155,5,4,1:0:0:0:
38,269,173241,1,2,0:0:0:0:
68,268,173327,1,2,0:0:0:0:
98,267,173413,1,0,0:0:0:0:
128,266,173498,1,0,1:0:0:0:
343,371,173670,5,4,1:0:0:0:
318,339,173756,1,2,0:0:0:0:
308,300,173842,1,2,0:0:0:0:
314,261,173928,1,0,0:0:0:0:
335,227,174013,1,0,1:0:0:0:
237,131,174184,5,4,1:0:0:0:
237,131,174270,1,0,0:0:0:0:
237,131,174355,2,0,B|220:106|220:106|260:74|249:37|246:-8,1,120,2|0,0:0|0:0,0:0:0:0:
176,46,174698,5,0,1:0:0:0:
101,188,174870,2,0,L|0:183,1,80,0|2,1:0|0:0,0:0:0:0:
11,184,175127,1,2,0:0:0:0:
1,184,175213,1,0,1:0:0:0:
216,275,175384,1,0,0:0:0:0:
367,114,175555,1,0,1:0:0:0:
403,97,175640,1,0,1:0:0:0:
436,118,175726,1,0,1:0:0:0:
395,257,175898,6,0,L|399:173,1,80,4|2,1:2|0:0,0:0:0:0:
245,51,176241,2,0,L|241:135,1,80,0|2,1:2|0:0,3:0:0:0:
260,308,176584,2,0,L|263:228,1,80,0|2,1:2|0:0,3:0:0:0:
72,280,176927,2,0,L|68:359,1,80,0|2,1:2|0:0,3:0:0:0:
68,376,177184,1,0,1:0:0:0:
68,376,177270,6,0,L|160:380,1,80,0|2,1:0|0:0,0:0:0:0:
288,276,177613,2,0,L|208:272,1,80,0|2,1:0|0:0,0:0:0:0:
28,176,177955,2,0,L|120:180,1,80,0|2,1:0|0:0,0:0:0:0:
336,76,178298,2,0,L|256:72,1,80,0|2,1:0|0:0,0:0:0:0:
256,72,178555,1,0,1:0:0:0:
256,72,178641,5,0,1:0:0:0:
263,366,178813,1,2,0:0:0:0:
35,232,178984,1,0,1:0:0:0:
129,34,179155,1,2,0:0:0:0:
148,304,179327,6,0,L|204:296,1,40,0|0,1:0|0:0,0:0:0:0:
288,220,179498,2,0,L|340:232,1,40,0|0,1:0|0:0,0:0:0:0:
448,176,179670,1,4,1:2:0:0:
248,12,179841,1,0,0:0:0:0:
248,12,179927,1,0,0:0:0:0:
248,12,180013,6,0,L|236:60,1,40,0|0,1:0|0:0,0:0:0:0:
136,144,180184,2,0,L|152:188,1,40,0|0,1:0|0:0,0:0:0:0:
240,288,180355,1,4,1:2:0:0:
448,208,180527,1,0,0:0:0:0:
240,288,180698,1,0,1:0:0:0:
235,307,180783,1,2,0:0:0:0:
231,327,180869,1,2,0:0:0:0:
52,244,181041,1,0,1:0:0:0:
220,144,181213,1,2,2:0:0:0:
214,171,181298,1,2,2:0:0:0:
207,199,181384,6,0,P|164:224|124:216,1,64,4|0,1:2|0:0,0:0:0:0:
28,144,181727,1,0,1:0:0:0:
40,292,181898,1,2,0:0:0:0:
40,292,181984,1,2,0:0:0:0:
40,292,182070,2,0,L|28:372,1,64,0|0,1:0|0:0,0:0:0:0:
200,328,182413,1,0,1:0:0:0:
230,317,182498,1,2,0:0:0:0:
261,312,182584,1,2,0:0:0:0:
293,312,182670,1,0,0:0:0:0:
325,317,182755,6,0,P|356:328|408:336,1,64,4|0,1:0|0:0,0:0:0:0:
492,204,183098,2,0,P|461:193|409:185,1,64,4|2,1:0|0:0,0:0:0:0:
430,186,183355,1,2,0:0:0:0:
430,186,183441,1,4,1:0:0:0:
228,240,183613,1,0,0:0:0:0:
128,56,183784,1,4,1:0:0:0:
128,56,183870,1,0,1:0:0:0:
128,56,183955,1,0,1:0:0:0:
296,196,184127,6,0,P|308:256|304:276,1,64,4|0,1:0|0:0,0:0:0:0:
176,352,184470,1,0,1:0:0:0:
172,148,184641,1,2,0:0:0:0:
172,148,184727,1,2,0:0:0:0:
172,148,184813,1,0,1:0:0:0:
172,148,184898,1,0,0:0:0:0:
172,148,184984,1,0,0:0:0:0:
412,176,185155,1,4,1:0:0:0:
429,65,185327,1,2,0:0:0:0:
397,68,185412,1,2,0:0:0:0:
366,72,185498,5,4,1:0:0:0:
332,296,185670,1,0,0:0:0:0:
112,200,185841,1,4,1:0:0:0:
412,176,186013,1,0,0:0:0:0:
440,304,186184,1,4,1:0:0:0:
440,320,186269,1,2,0:0:0:0:
441,338,186355,1,2,0:0:0:0:
250,183,186527,1,4,1:0:0:0:
252,144,186612,1,0,1:0:0:0:
255,106,186698,1,0,1:0:0:0:
241,283,186870,5,4,1:0:0:0:
373,314,197498,5,0,1:0:0:0:
433,40,197670,1,0,1:0:0:0:
307,94,197841,2,0,L|199:95,1,96,2|0,0:0|0:0,0:0:0:0:
174,78,198184,6,0,P|147:130|166:156,1,80,0|0,1:0|0:0,0:0:0:0:
290,233,198527,2,0,L|400:226,1,80,0|0,1:0|0:0,0:0:0:0:
144,314,198870,1,2,1:3:0:0:
144,314,199213,5,2,1:3:0:0:
208,96,199384,1,0,0:0:0:0:
63,24,199555,2,0,L|49:117,1,80,0|0,1:0|0:0,0:0:0:0:
51,103,199813,1,0,0:0:0:0:
51,103,199898,1,2,1:3:0:0:
268,236,200070,1,0,0:0:0:0:
170,72,200241,5,0,1:0:0:0:
93,339,200413,1,0,1:0:0:0:
93,339,200498,1,0,0:0:0:0:
93,339,200584,1,2,0:0:0:0:
124,333,200670,1,2,0:0:0:0:
155,327,200756,1,2,0:0:0:0:
294,244,200927,1,2,0:0:0:0:
294,244,201013,1,2,0:0:0:0:
294,244,201098,1,2,0:0:0:0:
398,374,201270,5,0,1:0:0:0:
317,49,201441,1,0,1:0:0:0:
50,173,201613,6,2,B|76:153|101:171|139:163|139:163|154:178|196:174|196:174|229:185|229:185|267:163|267:163|312:171,1,240,2|2,0:1|0:1,0:1:0:0:
294,244,201955,6,0,L|291:263,1,20,0|0,1:0|0:0,0:0:0:0:
363,134,202127,2,0,L|360:153,1,20,0|0,1:0|0:0,0:0:0:0:
432,24,202298,1,0,0:0:0:0:
294,244,202470,6,0,L|245:272,2,40,2|2|0,0:0|0:0|1:0,0:0:0:0:
218,97,202813,1,2,0:0:0:0:
218,97,202898,1,2,0:0:0:0:
218,97,202984,1,0,1:0:0:0:
181,82,203069,1,0,0:0:0:0:
141,81,203155,1,2,0:0:0:0:
104,95,203241,1,2,0:0:0:0:
74,122,203327,6,0,L|62:190,1,40,0|0,1:0|0:0,0:0:0:0:
114,337,203498,2,0,L|122:289,1,47.9999985351563,0|0,1:0|0:0,0:0:0:0:
236,188,203670,6,0,L|225:244,1,55.9999982910157,0|0,1:0|0:0,1:0:0:0:
305,384,203841,2,0,L|316:321,1,64,0|0,1:0|0:0,1:0:0:0:
346,155,204013,5,0,1:0:0:0:
365,139,204098,1,0,1:0:0:0:
421,135,204184,1,0,1:0:0:0:
440,118,204269,1,0,1:0:0:0:
496,114,204355,1,2,1:3:0:0:
496,114,206927,5,2,1:3:0:0:
231,194,207098,1,2,0:1:0:0:
237,210,207441,6,0,L|340:217,1,88.000002685547,4|2,1:0|0:0,0:0:0:0:
424,89,207784,1,0,1:0:0:0:
171,162,207956,1,2,0:0:0:0:
153,201,208041,1,2,0:0:0:0:
162,244,208127,1,0,1:0:0:0:
307,372,208298,1,0,0:0:0:0:
237,210,208470,1,0,1:0:0:0:
412,230,208641,1,0,0:0:0:0:
183,330,208813,6,0,L|71:318,1,88.000002685547,0|2,1:0|0:0,0:0:0:0:
73,317,209070,1,2,0:0:0:0:
51,314,209155,1,0,1:0:0:0:
316,48,209327,1,2,0:3:0:0:
319,162,209498,2,0,L|323:253,1,88.000002685547,0|2,1:0|0:3,0:0:0:0:
424,332,209841,1,0,1:0:0:0:
445,332,209926,1,2,0:0:0:0:
467,333,210012,1,2,0:0:0:0:
489,334,210098,1,0,0:0:0:0:
511,335,210183,5,0,1:0:0:0:
342,161,210355,1,2,0:0:0:0:
153,267,210527,2,0,L|65:276,1,88.000002685547,0|2,1:0|0:0,0:0:0:0:
65,276,210784,1,2,0:0:0:0:
65,276,210870,1,0,1:0:0:0:
250,367,211041,1,0,0:0:0:0:
265,50,211213,1,0,1:0:0:0:
371,267,211384,1,0,0:0:0:0:
506,177,211556,6,0,L|510:127,1,44.0000013427735,2|0,1:3|0:0,0:0:0:0:
419,23,211727,2,0,B|408:20|408:20|354:25,1,44.0000013427735,2|0,1:3|0:3,0:3:0:0:
228,134,211899,1,0,1:0:0:0:
404,125,212070,1,0,0:0:0:0:
228,134,212241,6,0,B|207:130|207:130|182:146|162:123|126:125|126:125|100:135,1,132.00000125885,4|0,1:2|0:0,0:0:0:0:
19,240,212498,2,0,B|45:233|45:233|67:244|111:219|140:232|140:232|178:257,1,132.00000125885,4|0,1:2|0:0,0:0:0:0:
229,305,212755,1,4,1:2:0:0:
448,211,212927,5,0,1:0:0:0:
448,211,213013,1,0,0:0:0:0:
448,211,213098,1,2,0:0:0:0:
442,171,213183,1,2,0:0:0:0:
436,132,213269,1,0,1:0:0:0:
431,93,213355,1,2,0:0:0:0:
425,54,213440,1,2,0:0:0:0:
163,153,213613,6,0,L|258:139,1,88.000002685547,0|2,1:0|0:0,0:0:0:0:
309,62,213870,1,2,0:0:0:0:
331,79,213955,2,0,P|351:131|349:164,1,88.000002685547,0|2,1:0|0:0,1:0:0:0:
299,326,214299,5,4,1:0:0:0:
216,142,214470,1,2,0:0:0:0:
209,163,214555,1,2,0:0:0:0:
203,184,214641,1,0,1:0:0:0:
389,99,214813,1,0,0:0:0:0:
357,270,214984,2,0,P|379:302|377:352,1,88.000002685547,0|0,1:0|0:0,0:0:0:0:
250,157,215326,5,0,1:0:0:0:
284,129,215413,1,0,0:0:0:0:
326,117,215497,1,2,0:0:0:0:
369,122,215583,1,2,0:0:0:0:
407,145,215670,2,0,P|438:197|393:265,1,132.00000402832,4|0,1:0|0:0,0:0:0:0:
337,284,216013,5,0,1:0:0:0:
207,59,216184,2,0,L|317:53,1,88.000002685547,0|0,1:0|0:1,0:0:0:0:
233,290,216527,5,0,1:0:0:0:
119,179,216698,2,0,L|-13:185,1,120.000004577637,2|2,1:3|0:0,0:0:0:0:
0,184,216955,1,2,0:0:0:0:
0,184,217041,5,4,1:0:0:0:
233,290,217213,1,0,0:0:0:0:
128,29,217384,1,0,1:0:0:0:
180,377,217556,1,0,0:0:0:0:
180,377,217642,1,0,0:0:0:0:
180,377,217727,5,0,1:0:0:0:
209,378,217812,1,2,0:0:0:0:
239,380,217898,1,2,0:0:0:0:
269,382,217984,1,0,0:0:0:0:
299,384,218070,2,0,P|313:362|296:318,1,44.0000013427735,4|0,1:0|0:0,0:0:0:0:
273,215,218241,2,0,L|279:153,1,44.0000013427735,4|0,1:0|0:0,0:0:0:0:
353,54,218413,6,0,L|471:59,1,88.000002685547,4|2,1:0|0:0,0:0:0:0:
440,57,218670,1,2,0:0:0:0:
440,57,218755,1,0,1:0:0:0:
230,284,218927,1,2,0:0:0:0:
230,284,219013,1,2,0:0:0:0:
230,284,219098,5,0,1:0:0:0:
14,130,219270,2,0,B|11:84|11:84|58:45,1,88.000002685547,0|0,0:0|1:0,0:0:0:0:
145,67,219527,2,0,L|240:58,1,88.000002685547,0|0,0:0|1:0,0:0:0:0:
324,11,219784,5,0,1:0:0:0:
230,284,219955,1,0,0:0:0:0:
235,86,220127,1,0,1:0:0:0:
512,92,220298,1,0,1:0:0:0:
235,86,220470,1,0,1:0:0:0:
213,86,220555,1,2,0:0:0:0:
191,86,220641,1,2,0:0:0:0:
137,306,220813,1,0,1:0:0:0:
29,191,220984,1,2,0:0:0:0:
29,191,221070,1,2,0:0:0:0:
29,191,221155,6,0,L|133:192,1,88.000002685547,4|0,1:2|0:0,0:0:0:0:
267,242,221498,1,0,1:2:0:0:
293,13,221670,1,0,0:2:0:0:
167,293,221842,5,4,1:2:0:0:
331,177,222013,2,0,L|393:184,1,44.0000013427735
456,148,222184,2,0,P|503:99|474:39,1,132.00000402832,4|0,1:0|0:0,0:0:0:0:
404,10,222527,5,0,1:0:0:0:
267,242,222698,1,2,0:0:0:0:
267,242,222784,1,2,0:0:0:0:
267,242,222870,1,0,1:0:0:0:
203,40,223041,1,0,0:0:0:0:
384,128,223213,5,0,1:0:0:0:
176,242,223384,2,0,L|-5:236,1,176.000005371094,4|2,1:0|0:0,0:0:0:0:
0,236,223813,1,2,0:2:0:0:
0,236,223898,5,4,1:2:0:0:
351,202,224070,2,0,B|367:238|367:238|346:305,1,88.000002685547,0|4,0:0|1:2,0:0:0:0:
162,372,224413,1,2,0:0:0:0:
166,350,224498,1,2,0:0:0:0:
170,328,224584,1,0,1:0:0:0:
256,143,224756,1,2,0:0:0:0:
353,316,224927,2,0,L|452:329,1,88.000002685547,4|0,1:2|0:0,0:0:0:0:
509,106,225270,5,0,1:0:0:0:
461,332,225442,1,0,0:0:0:0:
290,255,225613,2,0,B|264:291|264:291|270:355,1,88.000002685547,4|0,1:2|0:0,0:0:0:0:
170,179,225955,1,0,1:0:0:0:
131,199,226040,1,2,0:0:0:0:
88,205,226127,1,2,0:0:0:0:
45,196,226212,1,0,0:0:0:0:
8,173,226298,2,0,L|6:59,1,88.000002685547,4|0,1:2|0:0,0:0:0:0:
155,0,226641,5,4,1:2:0:0:
205,274,226813,1,0,0:0:0:0:
100,113,226984,1,4,1:2:0:0:
264,24,227155,2,0,L|176:31,1,88.000002685547,2|0,0:0|1:0,0:0:0:0:
336,138,227499,5,0,0:0:0:0:
242,231,227670,2,0,P|231:291|243:340,1,88.000002685547,4|2,1:2|0:0,0:0:0:0:
244,331,227927,1,2,0:0:0:0:
258,341,228013,2,0,L|358:356,1,88.000002685547,0|0,1:0|0:0,0:0:0:0:
350,196,228355,6,0,L|355:70,1,88.000002685547,4|2,1:2|0:0,0:0:0:0:
354,88,228613,1,0,0:0:0:0:
355,68,228698,1,0,1:0:0:0:
126,57,228870,1,0,0:0:0:0:
158,167,229042,2,0,L|2:168,1,132.00000402832,4|0,1:2|0:0,0:0:0:0:
9,167,229384,5,4,1:2:0:0:
265,76,229555,1,0,0:0:0:0:
175,273,229727,2,0,L|165:377,1,88.000002685547,0|2,1:0|0:0,0:0:0:0:
166,360,229984,1,2,0:0:0:0:
166,360,230070,1,0,1:0:0:0:
95,122,230242,1,0,0:0:0:0:
264,184,230413,1,0,1:0:0:0:
296,185,230498,1,2,0:0:0:0:
329,187,230584,1,2,0:0:0:0:
362,188,230670,1,0,0:0:0:0:
395,190,230755,6,0,L|400:140,1,44.0000013427735,4|0,1:2|0:0,0:0:0:0:
262,28,230927,2,0,L|257:71,1,44.0000013427735,4|0,1:2|0:0,0:0:0:0:
329,235,231098,1,4,1:2:0:0:
360,264,231183,1,0,0:0:0:0:
403,272,231269,1,2,0:0:0:0:
443,255,231355,1,2,0:0:0:0:
468,220,231440,5,0,1:0:0:0:
382,67,231613,1,0,1:0:0:0:
206,218,231784,1,0,1:0:0:0:
202,253,231869,1,0,1:0:0:0:
199,288,231955,2,0,L|244:321,1,44.0000013427735,0|0,1:0|0:0,0:0:0:0:
368,384,232127,5,4,1:0:0:0:
398,124,232298,1,2,3:1:0:0:
221,314,232470,1,0,1:0:0:0:
381,263,232641,2,2,B|391:246|391:246|378:219,1,40,2|2,0:1|0:1,0:1:0:0:
239,154,232813,1,0,1:0:0:0:
239,154,233155,6,0,L|238:50,1,80,0|2,1:3|0:1,0:3:0:0:
444,4,233498,1,0,1:0:0:0:
248,55,233670,1,2,1:0:0:0:
349,192,233841,5,0,1:0:0:0:
347,221,233926,1,0,0:0:0:0:
345,251,234012,1,0,1:0:0:0:
344,281,234098,1,0,0:0:0:0:
342,311,234184,5,2,1:0:0:0:
382,282,234269,1,0,0:0:0:0:
431,275,234355,1,2,1:0:0:0:
477,293,234441,1,0,0:0:0:0:
508,331,234527,5,0,1:0:0:0:
508,331,234613,1,0,1:0:0:0:
508,331,234698,1,0,0:0:0:0:
222,253,234870,6,0,L|124:258,1,80,4|0,1:0|1:0,1:0:0:0:
193,16,235213,2,0,L|185:113,1,80,0|2,1:0|0:0,0:0:0:0:
219,180,235470,1,0,1:0:0:0:
219,180,235555,2,0,P|227:244|207:284,1,80,0|0,1:0|3:1,0:0:0:0:
83,376,235898,1,0,1:0:0:0:
119,224,236070,1,0,3:1:0:0:
255,308,236241,6,0,B|276:295|276:295|359:296,1,80,4|0,1:0|0:0,0:0:0:0:
500,368,236584,1,4,1:2:0:0:
512,100,236755,1,2,0:0:0:0:
292,220,236927,1,0,1:0:0:0:
292,220,237013,1,2,0:0:0:0:
292,220,237098,1,2,0:0:0:0:
192,138,237269,1,0,1:0:0:0:
165,124,237355,1,2,0:2:0:0:
139,111,237441,1,2,0:2:0:0:
111,120,237527,1,0,0:0:0:0:
83,131,237612,5,4,1:2:0:0:
9,358,237784,1,0,0:0:0:0:
169,281,237956,1,0,1:0:0:0:
23,181,238127,1,2,0:0:0:0:
12,153,238212,1,2,0:0:0:0:
3,125,238298,1,0,1:0:0:0:
17,98,238384,1,0,0:0:0:0:
31,72,238470,2,0,L|87:67,1,40
172,72,238641,5,0,1:0:0:0:
160,260,238813,2,0,L|156:348,1,80,2|0,0:0|1:0,0:0:0:0:
304,360,239155,1,2,0:0:0:0:
304,360,239241,1,2,0:0:0:0:
304,360,239327,1,0,1:0:0:0:
333,361,239413,1,0,0:0:0:0:
363,363,239498,1,2,0:0:0:0:
393,364,239584,1,2,0:0:0:0:
423,366,239670,1,4,1:0:0:0:
425,152,239841,5,0,0:0:0:0:
425,152,239927,1,0,0:0:0:0:
425,152,240013,2,0,L|385:155,1,40,2|0,1:2|0:0,0:0:0:0:
259,235,240184,2,0,L|188:228,1,40,0|0,1:3|0:0,0:0:0:0:
116,120,240355,5,4,1:0:0:0:
143,342,240527,1,2,0:0:0:0:
239,225,240698,2,0,L|279:229,1,40,2|0,1:3|0:0,0:0:0:0:
124,128,240870,5,4,1:0:0:0:
161,351,241042,1,2,0:0:0:0:
300,226,241213,2,0,L|229:219,1,46.0000008773804,2|0,1:3|0:0,0:0:0:0:
132,136,241384,5,4,1:0:0:0:
179,360,241555,1,2,0:0:0:0:
269,217,241727,2,0,L|321:223,1,51.999997619629,2|0,1:3|0:0,0:0:0:0:
140,144,241898,5,4,1:0:0:0:
197,369,242070,1,2,0:0:0:0:
342,220,242241,2,0,L|271:213,1,58.0000017700196,2|0,1:3|0:0,0:0:0:0:
112,196,242413,5,6,1:0:0:0:
88,143,242498,1,0,0:0:0:0:
97,87,242584,1,2,0:1:0:0:
134,43,242670,1,0,0:0:0:0:
189,27,242755,2,0,P|212:20|264:24,1,58.0000017700196,2|0,0:1|0:0,0:0:0:0:
355,15,242927,6,0,B|396:4|396:4|432:32|432:32|440:76|440:76|420:112|420:112|384:127|384:127|352:124|322:95|322:95|286:111|286:111|258:143|258:143|214:147|178:127|178:127|222:175|198:215|198:215|218:267|202:287|202:287|222:335|206:363|206:363|217:380,1,720,4|0,1:0|0:0,0:0:0:0:
