osu file format v14

[General]
AudioFilename: audio.mp3
AudioLeadIn: 0
PreviewTime:175178
Countdown: 0
SampleSet: Soft
StackLeniency: 0.4
Mode: 0
LetterboxInBreaks: 0
WidescreenStoryboard: 1

[Editor]
Bookmarks: 235734
DistanceSpacing: 1
BeatDivisor: 4
GridSize: 8
TimelineZoom: 3.699998

[Metadata]
Title:Seven Doors
TitleUnicode:Seven Doors
Artist:ZAQ
ArtistUnicode:ZAQ
Creator:SkyFlame
Version:PaRaDogi's Insane
Source:トリニティセブン
Tags:grandfinals hr1 gf osu! world cup owc 2019 trinity 7人の魔書使い op opening full version ver. japanese 7-nin no Mahoutsukai anime pop rock jpop jrock j-pop j-rock alexsander paradogi nelliel knowledgeking
BeatmapID:2399458
BeatmapSetID:1078911

[Difficulty]
HPDrainRate:5
CircleSize:4
OverallDifficulty:8
ApproachRate:8.7
SliderMultiplier:1.6
SliderTickRate:1

[Events]
//Background and Video events
0,0,"924543.jpg",0,0
//Break Periods
2,89524,95456
2,175825,182956
//Storyboard Layer 0 (Background)
//Storyboard Layer 1 (Fail)
//Storyboard Layer 2 (Pass)
//Storyboard Layer 3 (Foreground)
//Storyboard Layer 4 (Overlay)
//Storyboard Sound Samples

[TimingPoints]
656,295.566502463054,4,2,1,70,1,0
5680,291.26213592233,4,2,1,70,1,0
5971,295.566502463054,4,2,1,70,1,0
6562,295.566502463054,4,2,1,70,1,0
9517,291.26213592233,4,2,1,70,1,0
10099,295.566502463054,4,2,1,70,1,0
12167,300,4,2,1,70,1,0
12467,295.566502463054,4,2,1,70,1,0
13353,303.030303030303,4,2,1,70,1,0
13656,285.714285714286,4,2,1,70,1,0
14227,295.566502463054,4,2,1,70,1,0
14818,307.692307692308,4,2,1,70,1,0
15125,294.117647058824,4,2,1,70,1,0
16007,295.566502463054,4,2,1,70,1,0
16893,300,4,2,1,70,1,0
17193,295.566502463054,4,2,1,70,1,0
21922,300,4,2,1,60,1,0
22672,295.566502463054,4,2,1,60,1,0
23115,279.06976744186,4,2,1,60,1,0
23254,295.566502463054,4,2,1,70,1,0
23992,307.692307692308,4,2,1,70,1,0
24299,295.566502463054,4,2,1,40,1,0
24890,-133.333333333333,4,2,1,40,0,0
26072,315.789473684211,4,2,1,40,1,0
26387,285.714285714286,4,2,1,40,1,0
26387,-133.333333333333,4,2,1,40,0,0
26672,295.566502463054,4,2,1,40,1,0
26672,-133.333333333333,4,2,1,40,0,0
27263,287.081339712919,4,2,1,40,1,0
27263,-133.333333333333,4,2,1,40,0,0
27693,300,4,2,1,40,1,0
27693,-133.333333333333,4,2,1,40,0,0
28443,307.692307692308,4,2,1,40,1,0
28750,291.26213592233,4,2,1,40,1,0
29041,295.566502463054,4,2,1,40,1,0
29041,-133.333333333333,4,2,1,40,0,0
29927,324.324324324324,4,2,1,40,1,0
30089,279.06976744186,4,2,1,40,1,0
30228,-133.333333333333,4,2,1,40,0,0
30368,289.855072463768,4,2,1,40,1,0
30512,-133.333333333333,4,2,1,40,0,0
31092,295.566502463054,4,2,1,40,1,0
31387,295.566502463054,4,2,1,40,1,0
33308,-100,4,2,1,5,0,0
33603,301.507537688442,4,2,1,40,1,0
34356,295.566502463054,4,2,1,70,1,0
34947,283.018867924528,4,2,1,65,1,0
35230,291.26213592233,4,2,1,65,1,0
35958,300.751879699248,4,2,1,65,1,0
36709,288.461538461538,4,2,1,65,1,0
37285,298.507462686567,4,2,1,65,1,0
38479,288.461538461538,4,2,1,65,1,0
39055,312.5,4,2,1,65,1,0
39367,295.566502463054,4,2,1,65,1,0
39662,295.566502463054,4,2,1,65,1,0
41139,288.461538461538,4,2,1,65,1,0
41715,295.566502463054,4,2,1,65,1,0
42010,309.278350515464,4,2,1,65,1,0
42319,292.682926829268,4,2,1,65,1,0
43197,301.507537688442,4,2,1,65,1,0
44101,287.081339712919,4,2,1,65,1,0
44388,294.840294840295,4,2,1,65,1,0
45567,295.566502463054,4,2,1,65,1,0
46749,300,4,2,1,65,1,0
47649,287.081339712919,4,2,1,65,1,0
48223,301.507537688442,4,2,1,65,1,0
48826,292.682926829268,4,2,1,65,1,0
49118,295.566502463054,4,2,1,65,1,0
51186,297.029702970297,4,2,1,65,1,0
52671,301.507537688442,4,2,1,70,1,0
53123,285.714285714286,4,2,1,70,1,0
53551,300,4,2,1,70,1,0
53851,292.682926829268,4,2,1,80,1,1
54436,295.566502463054,4,2,1,80,1,1
55027,295.566502463054,4,2,1,80,1,1
56800,292.682926829268,4,2,1,80,1,1
57385,298.507462686567,4,2,1,80,1,1
58579,294.117647058824,4,2,1,80,1,1
59755,295.566502463054,4,2,1,80,1,1
60346,303.030303030303,4,2,1,80,1,1
60649,295.566502463054,4,2,1,80,1,1
60944,301.507537688442,4,2,1,80,1,1
61396,292.682926829268,4,2,1,80,1,1
61688,279.06976744186,4,2,1,80,1,1
61827,292.682926829268,4,2,1,80,1,1
62705,309.278350515464,4,2,1,80,1,1
63014,291.26213592233,4,2,1,100,1,1
63014,-83.3333333333333,4,2,1,100,0,1
63305,294.840294840295,4,2,1,80,1,1
64484,295.566502463054,4,2,1,80,1,1
67439,306.122448979592,4,2,1,80,1,1
67745,287.081339712919,4,2,1,80,1,1
68032,295.566502463054,4,2,1,100,1,0
68032,-133.333333333333,4,2,1,100,0,0
69805,299.25187032419,4,2,1,100,1,0
69805,-133.333333333333,4,2,1,100,0,0
70403,291.26213592233,4,2,1,100,1,0
70403,-133.333333333333,4,2,1,100,0,0
70985,303.030303030303,4,2,1,100,1,0
70985,-133.333333333333,4,2,1,100,0,0
71288,337.078651685393,4,2,1,80,1,1
71456,281.69014084507,4,2,1,80,1,0
71596,288.461538461538,4,2,1,100,1,0
71596,-133.333333333333,4,2,1,100,0,0
72172,295.566502463054,4,2,1,100,1,0
72172,-133.333333333333,4,2,1,100,0,0
72763,295.566502463054,4,2,1,100,1,0
73206,-133.333333333333,4,2,1,100,0,0
73501,283.018867924528,4,2,1,70,1,0
73642,300,4,2,1,70,1,0
74092,280.373831775701,4,2,1,70,1,0
74372,300,4,2,1,70,1,0
75122,312.5,4,2,1,70,1,0
75590,287.081339712919,4,2,1,70,1,0
76164,295.566502463054,4,2,1,70,1,0
76459,283.018867924528,4,2,1,70,1,0
76742,295.566502463054,4,2,1,70,1,0
77480,295.566502463054,4,2,1,80,1,0
78662,300,4,2,1,80,1,0
79262,295.566502463054,4,2,1,80,1,0
79853,297.029702970297,4,2,1,70,1,0
81041,294.117647058824,4,2,1,70,1,0
81923,303.030303030303,4,2,1,70,1,0
82377,293.398533007335,4,2,1,70,1,0
82817,295.566502463054,4,2,1,70,1,0
83408,292.682926829268,4,2,1,70,1,0
83700,307.692307692308,4,2,1,70,1,0
84007,300,4,2,1,70,1,0
84607,285.714285714286,4,2,1,70,1,0
84892,291.26213592233,4,2,1,70,1,0
86057,294.117647058824,4,2,1,70,1,0
86645,303.030303030303,4,2,1,70,1,0
87099,295.566502463054,4,2,1,70,1,0
87837,292.682926829268,4,2,1,70,1,0
88129,304.568527918782,4,2,1,70,1,0
88738,279.06976744186,4,2,1,70,1,0
89017,307.692307692308,4,2,1,70,1,0
89324,294.117647058824,4,2,1,50,1,0
90500,295.566502463054,4,2,1,50,1,0
93160,300,4,2,1,50,1,0
93760,287.081339712919,4,2,1,50,1,0
94047,294.117647058824,4,2,1,50,1,0
95223,292.682926829268,4,2,1,50,1,0
96101,300,4,2,1,50,1,0
96401,295.566502463054,4,2,1,50,1,0
97287,301.507537688442,4,2,1,50,1,0
97588,-133.333333333333,4,2,1,100,0,0
97890,291.26213592233,4,2,1,100,1,0
98472,-133.333333333333,4,2,1,100,0,0
98763,295.566502463054,4,2,1,70,1,0
99058,301.507537688442,4,2,1,70,1,0
99962,283.018867924528,4,2,1,70,1,0
100245,297.029702970297,4,2,1,70,1,0
100839,306.122448979592,4,2,1,70,1,0
101145,295.566502463054,4,2,1,70,1,0
102327,291.26213592233,4,2,1,70,1,0
102909,297.029702970297,4,2,1,70,1,0
103503,292.682926829268,4,2,1,70,1,0
104381,315.789473684211,4,2,1,70,1,0
104696,288.461538461538,4,2,1,70,1,0
104984,298.507462686567,4,2,1,70,1,0
105879,295.566502463054,4,2,1,70,1,0
106617,291.26213592233,4,2,1,70,1,0
106762,277.777777777778,4,2,1,70,1,0
106970,335.195530726257,4,2,1,70,1,0
107053,304.568527918782,4,2,1,70,1,0
107966,268.456375838926,4,2,1,75,1,0
108234,285.714285714286,4,2,1,100,1,0
108234,-133.333333333333,4,2,1,100,0,0
108519,295.566502463054,4,2,1,100,1,0
108519,-133.333333333333,4,2,1,100,0,0
109405,295.566502463054,4,2,1,65,1,0
109700,-133.333333333333,4,2,1,100,0,0
110882,300,4,2,1,100,1,0
110882,-133.333333333333,4,2,1,100,0,0
111482,315.789473684211,4,2,1,65,1,0
111639,295.566502463054,4,2,1,100,1,0
111639,-133.333333333333,4,2,1,100,0,0
112673,292.682926829268,4,2,1,100,1,0
112673,-133.333333333333,4,2,1,100,0,0
112965,296.296296296296,4,2,1,100,1,0
112965,-133.333333333333,4,2,1,100,0,0
114150,295.566502463054,4,2,1,65,1,0
114445,-133.333333333333,4,2,1,100,0,0
115332,291.26213592233,4,2,1,100,1,0
115332,-133.333333333333,4,2,1,100,0,0
116497,295.566502463054,4,2,1,100,1,0
116497,-133.333333333333,4,2,1,100,0,0
117679,300,4,2,1,100,1,0
117679,-133.333333333333,4,2,1,100,0,0
118579,295.566502463054,4,2,1,100,1,0
118579,-133.333333333333,4,2,1,100,0,0
119165,-133.333333333333,4,2,1,65,0,0
119170,287.081339712919,4,2,1,65,1,0
119457,298.507462686567,4,2,1,65,1,0
120054,294.117647058824,4,2,1,65,1,0
121083,297.029702970297,4,2,1,65,1,0
121231,-133.333333333333,4,2,1,100,0,0
121526,-133.333333333333,4,2,1,65,0,0
121528,293.398533007335,4,2,1,65,1,0
121821,301.507537688442,4,2,1,65,1,0
122122,285.714285714286,4,2,1,100,1,0
122122,-133.333333333333,4,2,1,100,0,0
122407,306.122448979592,4,2,1,100,1,0
122407,-133.333333333333,4,2,1,100,0,0
122713,295.566502463054,4,2,1,100,1,0
122717,-100,4,2,1,65,0,0
123304,-133.333333333333,4,2,1,100,0,0
123599,295.566502463054,4,2,1,100,1,0
123599,-133.333333333333,4,2,1,100,0,0
125963,300,4,2,1,70,1,0
126413,292.682926829268,4,2,1,70,1,0
127144,295.566502463054,4,2,1,80,1,1
128030,297.029702970297,4,2,1,80,1,1
129218,291.26213592233,4,2,1,80,1,1
129509,295.566502463054,4,2,1,80,1,1
133055,301.507537688442,4,2,1,80,1,1
133658,285.714285714286,4,2,1,80,1,1
134229,295.566502463054,4,2,1,80,1,1
134672,298.507462686567,4,2,1,80,1,1
135567,295.566502463054,4,2,1,80,1,1
135862,284.36018957346,4,2,1,80,1,1
136004,295.566502463054,4,2,1,80,1,1
136595,304.568527918782,4,2,1,80,1,1
136899,295.566502463054,4,2,1,80,1,1
137785,295.566502463054,4,2,1,80,1,1
138967,292.682926829268,4,2,1,80,1,1
139552,298.507462686567,4,2,1,80,1,1
140447,295.566502463054,4,2,1,80,1,1
141333,295.566502463054,4,2,1,100,1,0
142219,315.789473684211,4,2,1,80,1,0
142376,294.117647058824,4,2,1,80,1,0
143699,295.566502463054,4,2,1,80,1,0
145472,304.568527918782,4,2,1,80,1,0
145776,291.26213592233,4,2,1,80,1,0
146067,295.566502463054,4,2,1,70,1,0
150796,298.507462686567,4,2,1,70,1,0
152587,289.855072463768,4,2,1,74,1,0
153456,294.117647058824,4,2,1,74,1,0
154191,295.566502463054,4,2,1,74,1,0
154338,295.566502463054,4,2,1,74,1,0
156406,291.26213592233,4,2,1,74,1,0
156697,295.566502463054,4,2,1,74,1,0
157583,301.507537688442,4,2,1,74,1,0
158186,292.682926829268,4,2,1,74,1,0
159064,292.682926829268,4,2,1,80,1,0
160820,303.030303030303,4,2,1,80,1,0
161426,295.566502463054,4,2,1,74,1,0
164825,298.507462686567,4,2,1,74,1,0
165869,285.714285714286,4,2,1,74,1,0
166154,295.566502463054,4,2,1,80,1,0
167631,300,4,2,1,80,1,0
168231,284.36018957346,4,2,1,80,1,0
168515,298.507462686567,4,2,1,80,1,0
169559,303.030303030303,4,2,1,80,1,0
170013,284.36018957346,4,2,1,80,1,0
170297,295.566502463054,4,2,1,80,1,0
170888,310.880829015544,4,2,1,82,1,0
171354,295.566502463054,4,2,1,82,1,0
171797,292.682926829268,4,2,1,82,1,0
172967,288.461538461538,4,2,1,75,1,0
173255,295.566502463054,4,2,1,85,1,0
174437,292.682926829268,4,2,1,75,1,0
175315,295.566502463054,4,2,1,70,1,0
175512,340.909090909091,4,2,1,70,1,0
175625,295.566502463054,4,2,1,40,1,0
177398,300,4,2,1,40,1,0
177998,295.566502463054,4,2,1,40,1,0
179623,270.27027027027,4,2,1,40,1,0
179758,300,4,2,1,40,1,0
180358,295.566502463054,4,2,1,40,1,0
183165,291.26213592233,4,2,1,40,1,0
183601,287.081339712919,4,2,1,70,1,0
184031,295.566502463054,4,2,1,70,1,0
184769,306.122448979592,4,2,1,70,1,0
185075,304.568527918782,4,2,1,100,1,0
185075,-133.333333333333,4,2,1,100,0,0
185684,295.566502463054,4,2,1,100,1,0
185684,-133.333333333333,4,2,1,100,0,0
186718,271.493212669683,4,2,1,68,1,0
186853,295.566502463054,4,2,1,100,1,0
186853,-133.333333333333,4,2,1,100,0,0
188626,292.682926829268,4,2,1,68,1,0
188772,-133.333333333333,4,2,1,100,0,0
189504,295.566502463054,4,2,1,72,1,0
189799,303.030303030303,4,2,1,100,1,0
189799,-133.333333333333,4,2,1,100,0,0
190708,289.855072463768,4,2,1,100,1,0
190708,-133.333333333333,4,2,1,100,0,0
191577,294.117647058824,4,2,1,70,1,0
191871,-133.333333333333,4,2,1,100,0,0
192165,303.030303030303,4,2,1,80,1,0
192771,295.566502463054,4,2,1,80,1,1
193362,291.26213592233,4,2,1,80,1,1
193944,295.566502463054,4,2,1,70,1,0
194535,295.566502463054,4,2,1,84,1,1
194830,291.26213592233,4,2,1,84,1,1
195412,297.029702970297,4,2,1,84,1,1
195709,297.029702970297,4,2,1,84,1,1
196897,295.566502463054,4,2,1,84,1,1
200148,289.855072463768,4,2,1,84,1,1
200437,300,4,2,1,84,1,1
201637,291.26213592233,4,2,1,84,1,1
202510,295.566502463054,4,2,1,84,1,1
203692,298.507462686567,4,2,1,84,1,1
203990,295.566502463054,4,2,1,84,1,0
211083,300,4,2,1,84,1,1
212283,295.566502463054,4,2,1,84,1,1
213465,303.030303030303,4,2,1,70,1,0
213919,285.714285714286,4,2,1,100,1,0
213919,-133.333333333333,4,2,1,100,0,0
214347,292.682926829268,4,2,1,70,1,0
214932,-133.333333333333,4,2,1,100,0,0
215517,298.507462686567,4,2,1,100,1,0
215517,-133.333333333333,4,2,1,100,0,0
215815,306.122448979592,4,2,1,70,1,0
216274,289.855072463768,4,2,1,100,1,0
216274,-133.333333333333,4,2,1,100,0,0
217288,303.030303030303,4,2,1,100,1,0
217288,-133.333333333333,4,2,1,100,0,0
217894,295.566502463054,4,2,1,100,1,0
218337,303.030303030303,4,2,1,80,1,0
218640,292.682926829268,4,2,1,100,1,0
218640,-133.333333333333,4,2,1,100,0,0
219810,298.507462686567,4,2,1,80,1,0
219959,-133.333333333333,4,2,1,100,0,0
220556,295.566502463054,4,2,1,80,1,0
220999,-133.333333333333,4,2,1,100,0,0
221738,288.461538461538,4,2,1,100,1,0
222026,-100,4,2,1,80,0,0
222603,-133.333333333333,4,2,1,100,0,0
222891,298.507462686567,4,2,1,80,1,0
224085,295.566502463054,4,2,1,84,1,1
225858,303.030303030303,4,2,1,70,1,0
226464,292.682926829268,4,2,1,70,1,0
227342,295.566502463054,4,2,1,70,1,0
227637,295.566502463054,4,2,1,70,1,0
228819,298.507462686567,4,2,1,70,1,0
230013,291.26213592233,4,2,1,70,1,0
230886,298.507462686567,4,2,1,70,1,0
231781,295.566502463054,4,2,1,70,1,0
232372,295.566502463054,4,2,1,60,1,0
233554,287.081339712919,4,2,1,60,1,0
233697,295.566502463054,4,2,1,70,1,0
234288,292.682926829268,4,2,1,70,1,0
235166,288.461538461538,4,2,1,75,1,0
235454,280.373831775701,4,2,1,75,1,0
235734,272.727272727273,4,2,1,80,1,0

[Colours]
Combo1 : 192,63,75
Combo2 : 231,184,220
Combo3 : 75,192,226
Combo4 : 190,176,196
SliderBorder : 190,176,196

[HitObjects]
10,81,5385,6,0,P|72:63|127:106,1,120,4|0,3:2|2:0,2:0:0:0:
134,117,5680,2,0,L|128:212,1,80,10|0,2:0|2:0,2:0:0:0:
249,304,5971,2,0,L|251:216,1,80,2|2,3:2|2:0,2:0:0:0:
312,114,6266,1,8,2:0:0:0:
222,142,6414,1,2,2:0:0:0:
222,142,6488,1,0,2:0:0:0:
222,142,6562,5,0,3:2:0:0:
332,199,6709,1,0,2:0:0:0:
332,199,6857,2,0,B|361:209|361:209|452:200,1,120,10|0,2:0|2:0,2:0:0:0:
476,178,7153,2,0,P|484:135|467:94,1,80,2|2,3:2|2:0,2:0:0:0:
373,23,7448,1,8,2:0:0:0:
308,89,7596,1,2,2:0:0:0:
308,89,7670,1,0,2:0:0:0:
308,89,7744,6,0,P|265:96|209:79,1,80,0|0,3:2|2:0,2:0:0:0:
122,16,8039,2,0,B|138:52|138:52|125:94,1,80,8|0,2:0|2:0,2:0:0:0:
0,180,8335,2,0,P|42:159|119:184,1,120,0|0,3:2|2:0,2:0:0:0:
139,206,8630,2,0,P|180:224|225:213,1,80,8|0,2:0|2:0,2:0:0:0:
229,89,8926,6,0,P|192:122|190:161,1,80,2|0,3:2|2:0,2:0:0:0:
337,166,9222,2,0,P|296:148|251:159,1,80,8|0,2:0|2:0,2:0:0:0:
372,239,9517,2,0,P|406:209|410:134,1,120,2|0,3:2|2:0,2:0:0:0:
388,101,9808,2,0,L|391:18,1,80,8|0,2:0|2:0,2:0:0:0:
510,148,10099,6,0,B|526:176|526:176|509:288,1,120,4|0,3:2|2:0,2:0:0:0:
489,294,10394,2,0,L|500:382,1,80,10|0,2:0|2:0,2:0:0:0:
372,239,10690,1,2,3:2:0:0:
411,137,10837,1,2,2:0:0:0:
411,137,10985,2,0,P|429:80|401:16,1,120,8|0,2:0|2:0,2:0:0:0:
373,2,11281,6,0,L|276:6,1,80,0|2,3:2|2:0,2:0:0:0:
164,99,11576,2,0,L|251:104,1,80,8|2,2:0|2:0,2:0:0:0:
107,42,11872,2,0,P|84:82|106:157,1,120,2|0,3:2|2:0,2:0:0:0:
120,176,12167,6,0,P|129:216|110:266,1,80,14|2,2:0|3:2,2:0:0:0:
79,344,12467,2,0,L|-12:339,2,80,10|0|0,2:0|3:2|3:2,2:0:0:0:
118,252,12910,2,0,B|161:241|161:241|213:259,1,80,8|0,2:0|3:2,2:0:0:0:
332,346,13205,1,0,3:2:0:0:
332,346,13353,6,0,B|321:231|321:231|365:265,1,160,8|0,2:0|3:2,2:0:0:0:
479,219,13798,2,0,B|490:104|490:104|446:138,1,160,8|0,2:0|3:2,2:0:0:0:
269,156,14227,2,0,P|312:144|355:150,1,80,8|0,2:0|3:2,2:0:0:0:
231,232,14522,2,0,P|195:197|192:122,1,120,12|0,2:0|2:0,2:0:0:0:
197,94,14818,6,0,P|168:66|161:104,1,80,4|0,3:2|2:0,2:0:0:0:
71,225,15125,2,0,B|56:185|56:185|73:142,1,80,10|0,2:0|2:0,2:0:0:0:
231,232,15419,1,2,3:2:0:0:
118,285,15566,1,2,2:0:0:0:
118,285,15713,2,0,P|74:302|35:292,1,80,8|2,2:0|2:0,2:0:0:0:
231,232,16007,6,0,P|256:276|224:351,1,120,0|0,3:2|2:0,2:0:0:0:
213,360,16302,2,0,P|259:347|311:360,1,80,10|2,2:0|2:0,2:0:0:0:
443,376,16598,1,2,3:2:0:0:
387,298,16745,1,2,2:0:0:0:
387,298,16893,6,0,B|374:261|374:261|392:212,1,80,8|2,2:0|2:0,2:0:0:0:
493,111,17193,6,0,P|450:130|375:103,1,120,0|0,3:2|2:0,2:0:0:0:
351,89,17488,2,0,P|304:79|263:98,1,80,8|0,2:0|2:0,2:0:0:0:
145,184,17784,1,0,3:2:0:0:
238,203,17931,1,0,2:0:0:0:
207,120,18079,2,0,P|200:75|247:26,1,80,8|0,2:0|2:0,2:0:0:0:
238,203,18375,5,2,3:2:0:0:
145,184,18523,1,0,2:0:0:0:
185,267,18670,2,0,P|197:310|184:356,1,80,8|0,2:0|2:0,2:0:0:0:
105,340,18966,2,0,P|93:297|106:251,1,80,2|0,3:2|2:0,2:0:0:0:
139,107,19261,2,0,P|151:150|138:196,1,80,8|0,2:0|2:0,2:0:0:0:
72,59,19557,6,0,P|108:32|202:56,1,120,4|0,3:2|2:0,2:0:0:0:
206,54,19853,2,0,P|246:72|288:64,1,80,10|0,2:0|2:0,2:0:0:0:
432,9,20148,1,2,3:2:0:0:
383,91,20296,1,2,2:0:0:0:
383,91,20444,2,0,P|378:143|389:186,1,80,8|2,2:0|2:0,2:0:0:0:
442,286,20739,5,0,3:2:0:0:
371,349,20887,1,2,2:0:0:0:
371,349,21035,2,0,L|287:350,1,80,8|2,2:0|2:0,2:0:0:0:
155,358,21330,2,0,B|168:323|168:323|144:233,1,120,2|0,3:2|2:0,2:0:0:0:
121,227,21626,2,0,L|123:127,1,80,10|0,2:0|3:2,2:0:0:0:
180,32,21922,5,14,2:0:0:0:
256,192,21997,12,0,23115,2:0:0:0:
107,121,23254,6,0,P|170:121|205:151,1,80,10|0,3:2|2:0,2:0:0:0:
171,261,23549,2,0,P|139:206|147:161,1,80,10|0,3:2|2:0,2:0:0:0:
217,198,23845,1,10,3:2:0:0:
250,270,23992,2,0,P|231:312|156:338,1,120,10|0,3:2|2:0,2:0:0:0:
132,339,24299,5,6,2:0:0:0:
26,189,24742,1,2,2:0:0:0:
26,189,24890,2,0,P|57:175|146:196,1,120,2|2,2:0|2:0,2:0:0:0:
171,261,25333,2,0,P|202:270|242:265,1,60.0000000000002,2|0,2:0|2:0,2:0:0:0:
294,223,25629,1,2,2:0:0:0:
294,223,25776,1,2,2:0:0:0:
403,104,26229,5,2,2:0:0:0:
403,104,26387,2,0,L|400:169,1,60.0000000000002,2|2,2:0|2:0,2:0:0:0:
477,67,26672,2,0,P|451:32|365:26,1,120,2|2,2:0|2:0,2:0:0:0:
262,72,27263,2,0,L|335:78,2,60.0000000000001,2|2|2,2:0|2:0|2:0,2:0:0:0:
194,21,27693,6,0,B|165:7|165:7|79:28,1,120,2|0,2:0|2:0,2:0:0:0:
28,89,28143,2,0,L|36:151,2,60.0000022888184,0|0|0,2:0|2:0|2:0,2:0:0:0:
119,172,28750,5,2,2:0:0:0:
119,172,28895,1,2,2:0:0:0:
173,231,29041,2,0,P|207:234|243:223,1,60.0000000000002,2|0,2:0|2:0,2:0:0:0:
200,153,29336,1,2,2:0:0:0:
200,153,29484,1,2,2:0:0:0:
173,231,29632,2,0,P|175:271|199:310,1,60.0000000000002,2|0,2:0|2:0,2:0:0:0:
252,360,30089,5,2,2:0:0:0:
252,360,30228,2,0,L|327:355,1,60.4300022888184,0|2,2:0|2:0,2:0:0:0:
362,297,30512,2,0,L|435:306,1,60.0000000000001,2|0,2:0|2:0,2:0:0:0:
498,227,30802,2,0,L|418:229,1,60.0000000000001,2|0,2:0|2:0,2:0:0:0:
371,184,31092,5,2,2:0:0:0:
256,192,31387,12,0,33308,2:0:0:0:
65,63,33603,5,0,2:0:0:0:
65,63,33753,2,0,P|106:63|76:112,1,120,10|0,3:2|2:0,2:0:0:0:
20,158,34055,2,0,B|46:190|46:190|36:277,1,120,10|0,3:2|2:0,2:0:0:0:
75,332,34356,6,0,P|116:347|190:332,1,120,10|0,3:2|2:0,2:0:0:0:
246,285,34651,1,14,3:2:0:0:
391,116,34947,2,0,L|399:261,1,120,6|0,3:2|2:0,2:0:0:0:
401,265,35230,5,10,2:0:0:0:
310,131,35375,2,0,L|315:228,1,80,2|0,3:2|2:0,2:0:0:0:
246,285,35666,2,0,P|195:292|159:276,1,80,2|0,3:2|2:0,2:0:0:0:
62,169,35958,6,0,P|103:161|111:229,1,120,10|0,2:0|2:0,2:0:0:0:
97,244,36258,1,0,3:2:0:0:
19,336,36409,2,0,P|59:324|111:339,1,80,10|0,2:0|2:0,2:0:0:0:
206,366,36709,5,2,3:2:0:0:
246,285,36853,1,0,3:2:0:0:
246,285,36997,2,0,L|243:204,1,80,10|0,2:0|2:0,2:0:0:0:
141,124,37285,6,0,P|184:137|234:86,1,120,2|0,3:2|2:0,2:0:0:0:
249,58,37583,2,0,P|291:45|337:71,1,80,10|0,2:0|2:0,2:0:0:0:
439,126,37882,1,2,3:2:0:0:
439,126,38031,2,0,L|446:226,1,80,0|2,3:2|2:0,2:0:0:0:
504,312,38329,2,0,P|460:293|411:337,1,119.464,10|0,2:0|2:0,2:0:0:0:
411,362,38623,5,0,3:2:0:0:
297,310,38767,2,0,L|309:231,1,80,8|0,2:0|2:0,2:0:0:0:
266,147,39055,1,2,3:2:0:0:
314,70,39211,1,0,3:2:0:0:
314,70,39367,2,0,L|404:69,1,80,10|0,2:0|2:0,2:0:0:0:
469,131,39662,6,0,P|492:177|476:244,1,120,2|0,3:2|2:0,2:0:0:0:
457,272,39957,2,0,P|444:311|452:360,1,80,10|2,2:0|3:2,2:0:0:0:
320,368,40253,1,0,2:0:0:0:
320,368,40400,2,0,L|221:370,1,80,2|0,3:2|2:0,2:0:0:0:
144,294,40696,6,0,B|186:294|186:294|222:277|222:277|258:291|258:291|314:291,1,160,10|0,2:0|3:2,2:0:0:0:
373,231,41139,2,0,P|380:189|367:148,1,80,10|0,2:0|2:0,2:0:0:0:
302,85,41427,1,2,3:2:0:0:
218,129,41571,1,0,3:2:0:0:
218,129,41715,2,0,L|127:128,1,80,10|0,2:0|2:0,2:0:0:0:
80,66,42010,6,0,P|52:109|86:197,1,120,6|0,3:2|2:0,2:0:0:0:
81,203,42319,2,0,P|96:239|83:288,1,80,8|0,2:0|2:0,2:0:0:0:
17,348,42611,1,2,3:2:0:0:
114,354,42758,1,2,3:2:0:0:
114,354,42904,2,0,P|160:365|199:346,1,80,8|2,2:0|2:0,2:0:0:0:
291,279,43197,6,0,P|300:235|234:192,1,120,4|0,3:2|2:0,2:0:0:0:
218,198,43498,2,0,P|235:156|226:112,1,80,8|0,2:0|2:0,2:0:0:0:
184,45,43800,1,0,3:2:0:0:
98,78,43950,1,0,3:2:0:0:
98,78,44101,1,8,2:0:0:0:
40,155,44244,1,8,3:2:0:0:
41,174,44316,1,8,3:2:0:0:
41,193,44388,6,0,L|47:286,1,80,14|0,3:2|2:0,2:0:0:0:
145,347,44682,2,0,L|134:182,1,160,10|0,2:0|3:2,2:0:0:0:
201,86,45125,1,2,3:2:0:0:
201,86,45272,2,0,P|243:81|285:98,1,80,8|2,2:0|2:0,2:0:0:0:
361,200,45567,6,0,P|354:151|417:129,1,120,0|0,3:2|2:0,2:0:0:0:
437,156,45862,2,0,P|439:182|395:228,1,80,8|0,2:0|2:0,2:0:0:0:
327,284,46158,1,2,3:2:0:0:
409,332,46305,1,0,3:2:0:0:
409,332,46453,2,0,L|502:342,1,80,10|0,2:0|2:0,2:0:0:0:
327,284,46749,6,0,B|298:311|298:311|211:293,1,120,2|0,3:2|2:0,2:0:0:0:
191,268,47049,2,0,L|94:285,1,80,10|2,2:0|2:0,2:0:0:0:
11,207,47349,2,0,P|5:164|60:112,1,120,0|0,3:2|2:0,2:0:0:0:
93,107,47649,2,0,L|192:120,1,80,8|2,2:0|2:0,2:0:0:0:
307,39,47936,2,0,L|222:46,1,80,0|0,3:2|2:0,2:0:0:0:
268,136,48223,2,0,P|285:172|257:247,1,120,10|0,2:0|2:0,2:0:0:0:
260,244,48524,1,2,3:2:0:0:
180,300,48675,1,0,3:2:0:0:
180,300,48826,2,0,L|101:296,1,80,10|0,2:0|2:0,2:0:0:0:
45,219,49118,6,0,B|28:162|59:107|59:107|82:171,2,160,6|8|0,3:2|2:0|3:2,2:0:0:0:
100,295,49856,1,0,3:2:0:0:
165,221,50004,2,0,P|174:179|157:132,1,80,8|0,2:0|2:0,2:0:0:0:
114,38,50300,2,0,P|166:58|240:22,1,120,2|0,3:2|2:0,2:0:0:0:
255,23,50595,2,0,P|299:15|336:34,1,80,10|2,2:0|2:0,2:0:0:0:
427,111,50891,2,0,L|419:255,1,120,0|0,3:2|2:0,2:0:0:0:
420,230,51186,5,14,2:0:0:0:
256,192,51260,12,0,52522,2:0:0:0:
58,89,52671,6,0,L|82:84,1,20,8|0,3:2|2:0,2:0:0:0:
71,96,53123,6,0,L|95:99,1,20,8|0,3:2|2:0,2:0:0:0:
315,182,53551,6,0,L|290:185,1,20,10|0,3:2|2:0,2:0:0:0:
188,369,53851,6,0,P|215:335|182:269,1,120,6|0,3:2|2:0,2:0:0:0:
169,262,54143,2,0,P|213:272|252:262,1,80,8|0,2:0|2:0,2:0:0:0:
315,182,54436,2,0,L|307:97,1,80,0|0,3:2|3:2,2:0:0:0:
405,18,54731,1,10,2:0:0:0:
405,18,54879,2,0,L|494:12,2,80,2|0|0,3:2|2:0|3:2,2:0:0:0:
307,102,55322,6,0,B|268:117|268:117|173:100,1,120,10|0,2:0|2:0,2:0:0:0:
191,103,55618,1,0,3:2:0:0:
93,29,55765,1,2,3:2:0:0:
93,29,55913,2,0,P|107:70|100:130,1,80,10|2,2:0|2:0,2:0:0:0:
113,208,56209,2,0,P|173:189|161:271,2,160,4|10|2,3:2|2:0|3:2,2:0:0:0:
152,338,56946,1,0,3:2:0:0:
152,338,57092,2,0,L|246:337,1,80,10|2,2:0|2:0,2:0:0:0:
348,368,57385,6,0,P|332:323|351:245,1,120,0|0,3:2|2:0,2:0:0:0:
366,225,57683,2,0,P|323:243|279:236,1,80,8|2,2:0|2:0,2:0:0:0:
189,225,57982,1,2,3:2:0:0:
205,132,58131,1,2,3:2:0:0:
299,144,58280,1,8,2:0:0:0:
290,240,58429,1,2,2:0:0:0:
231,337,58579,6,0,P|176:345|108:315,1,120,4|0,3:2|2:0,2:0:0:0:
91,297,58873,2,0,L|94:194,1,80,8|0,2:0|2:0,2:0:0:0:
23,109,59167,1,0,3:2:0:0:
88,37,59314,1,0,3:2:0:0:
88,37,59461,2,0,P|131:30|181:47,1,80,10|2,2:0|2:0,2:0:0:0:
226,153,59755,6,0,P|220:109|291:114,1,120,0|0,3:2|2:0,2:0:0:0:
303,127,60050,2,0,P|275:170|246:174,1,80,8|2,2:0|2:0,2:0:0:0:
118,146,60346,1,0,3:2:0:0:
177,224,60497,1,2,3:2:0:0:
177,224,60649,6,0,B|194:264|194:264|179:359,1,120,8|0,2:0|2:0,2:0:0:0:
265,375,60944,2,0,L|280:271,1,80,10|0,2:0|3:2,2:0:0:0:
276,295,61245,1,2,3:2:0:0:
391,166,61396,2,0,L|406:270,1,80,10|0,2:0|3:2,2:0:0:0:
402,245,61688,1,2,3:2:0:0:
441,102,61827,6,0,B|381:69|333:110|333:110|277:97,1,160,10|0,2:0|3:2,2:0:0:0:
141,56,62266,2,0,B|179:36|179:36|156:165,1,160,14|0,2:0|3:2,2:0:0:0:
99,286,62705,6,0,P|86:248|116:284,1,120,10|0,2:0|2:0,2:0:0:0:
126,289,63014,6,0,P|115:238|106:289,1,144,14|0,2:0|2:0,2:0:0:0:
174,351,63305,6,0,L|307:343,1,120,6|0,3:2|2:0,2:0:0:0:
335,365,63599,2,0,L|430:356,1,80,8|0,2:0|2:0,2:0:0:0:
493,257,63894,1,0,3:2:0:0:
446,176,64042,1,0,3:2:0:0:
446,176,64189,2,0,L|458:86,1,80,10|2,2:0|2:0,2:0:0:0:
359,14,64484,6,0,B|382:46|382:46|365:169,2,160,0|10|2,3:2|2:0|3:2,2:0:0:0:
251,80,65222,1,0,3:2:0:0:
251,80,65370,2,0,P|209:85|166:71,1,80,8|2,2:0|2:0,2:0:0:0:
54,0,65666,6,0,P|78:32|46:108,1,120,2|0,3:2|2:0,2:0:0:0:
55,102,65961,1,10,2:0:0:0:
6,188,66109,1,0,3:2:0:0:
6,188,66257,2,0,L|11:275,1,80,2|0,2:0|3:2,2:0:0:0:
108,352,66552,2,0,L|96:187,1,160,10|0,2:0|2:0,2:0:0:0:
173,74,66996,5,2,3:2:0:0:
173,74,67144,2,0,P|214:63|257:74,1,80,8|2,2:0|3:2,2:0:0:0:
345,153,67439,2,0,L|341:238,1,80,0|0,3:2|3:2,2:0:0:0:
418,258,67745,2,0,L|419:170,1,80,8|0,2:0|2:0,2:0:0:0:
372,83,68032,6,0,P|396:110|338:149,1,120,6|2,3:2|2:0,2:0:0:0:
250,70,68475,1,0,2:0:0:0:
250,70,68623,2,0,B|214:57|214:57|117:77,1,120,10|2,2:0|2:0,2:0:0:0:
34,158,69066,1,2,3:2:0:0:
34,158,69214,2,0,P|22:195|49:270,1,120,0|2,2:0|3:2,2:0:0:0:
124,199,69657,1,0,2:0:0:0:
214,157,69805,6,0,P|225:194|203:261,1,90.0000000000002,10|0,2:0|2:0,2:0:0:0:
200,276,70104,2,0,P|235:262|271:262,1,60.0000000000001,2|0,2:0|2:0,2:0:0:0:
365,325,70403,2,0,B|354:298|354:298|365:199,1,120,6|0,3:2|2:0,2:0:0:0:
436,138,70839,1,0,2:0:0:0:
436,138,70985,2,0,B|451:111|451:111|440:17,1,120.000004577637,10|0,2:0|2:0,2:0:0:0:
321,5,71456,5,0,3:2:0:0:
321,5,71596,2,0,B|182:20|182:20|228:43,1,180,2|0,2:0|2:0,2:0:0:0:
349,159,72172,2,0,P|311:144|243:166,1,90.0000000000002,10|0,2:0|2:0,2:0:0:0:
234,171,72467,2,0,P|191:180|162:173,1,60.0000000000002,0|0,3:2|2:0,2:0:0:0:
80,102,72763,5,14,3:2:0:0:
82,125,72910,1,2,2:0:0:0:
175,177,73206,2,0,L|166:263,1,60.0000000000002,10|0,3:2|2:0,2:0:0:0:
82,125,73501,5,2,2:0:0:0:
183,54,73642,1,10,3:2:0:0:
207,61,73792,1,2,2:0:0:0:
279,145,74092,1,10,3:2:0:0:
251,155,74232,6,0,L|173:177,1,80,0|2,2:0|3:2,2:0:0:0:
55,161,74522,2,0,L|109:251,1,80,10|2,3:2|3:2,2:0:0:0:
164,349,74822,2,0,L|180:259,1,80,10|2,3:2|3:2,2:0:0:0:
174,176,75122,5,14,3:2:0:0:
168,152,75278,1,2,3:2:0:0:
302,20,75590,2,0,P|275:54|275:94,1,80,14|0,3:2|2:0,2:0:0:0:
300,159,75877,1,2,3:2:0:0:
322,230,76020,1,14,3:2:0:0:
322,230,76164,2,0,P|317:179|283:150,1,80,0|0,2:0|2:0,2:0:0:0:
239,349,76600,5,10,2:0:0:0:
239,349,76742,1,8,2:0:0:0:
361,328,76889,1,10,2:0:0:0:
361,328,77037,1,8,2:0:0:0:
231,260,77185,2,0,P|188:273|145:344,1,120,10|0,2:0|2:0,2:0:0:0:
144,362,77480,6,0,P|155:311|132:254,1,80,14|0,3:2|3:2,2:0:0:0:
78,136,77775,2,0,P|62:178|126:203,1,120,10|0,3:2|3:2,2:0:0:0:
139,187,78071,2,0,P|131:140|84:131,1,80,8|0,3:2|3:2,2:0:0:0:
9,82,78366,1,8,3:2:0:0:
9,82,78440,1,0,3:2:0:0:
9,82,78514,1,2,3:2:0:0:
88,3,78662,6,0,B|128:-14|128:-14|218:7,1,120,10|0,3:2|3:2,2:0:0:0:
216,81,78962,2,0,L|132:62,1,80,10|2,3:2|3:2,2:0:0:0:
279,28,79262,1,8,3:2:0:0:
279,28,79409,1,10,3:2:0:0:
334,104,79557,1,8,3:2:0:0:
260,151,79705,1,10,3:2:0:0:
260,151,79853,6,0,P|243:194|252:243,1,80,4|0,3:2|2:0,2:0:0:0:
347,365,80150,2,0,P|304:338|222:347,1,120,10|0,2:0|2:0,2:0:0:0:
201,357,80447,2,0,P|146:370|113:355,1,80,2|2,3:2|2:0,2:0:0:0:
20,291,80744,2,0,L|30:195,1,80,8|2,2:0|2:0,2:0:0:0:
87,134,81041,6,0,B|109:168|109:168|98:279,1,120,0|0,3:2|2:0,2:0:0:0:
101,247,81335,1,10,2:0:0:0:
125,362,81482,1,2,2:0:0:0:
193,297,81629,2,0,L|283:307,1,80,2|2,3:2|2:0,2:0:0:0:
392,375,81923,2,0,L|355:251,1,120,8|0,2:0|2:0,2:0:0:0:
383,228,82226,6,0,L|354:138,1,80,0|0,2:0|2:0,2:0:0:0:
259,71,82523,2,0,P|217:59|152:117,1,120,8|0,2:0|2:0,2:0:0:0:
157,99,82817,1,0,3:2:0:0:
226,138,82964,1,0,2:0:0:0:
226,138,83112,2,0,P|260:91|249:48,1,80,8|0,2:0|2:0,2:0:0:0:
156,179,83408,2,0,P|195:211|240:215,1,80,2|0,3:2|2:0,2:0:0:0:
329,155,83700,2,0,B|295:182|295:182|307:265,1,120,8|0,2:0|2:0,2:0:0:0:
305,257,84007,1,2,3:2:0:0:
382,364,84157,1,0,2:0:0:0:
382,364,84307,2,0,P|426:369|462:306,1,120,8|0,2:0|2:0,2:0:0:0:
439,275,84607,2,0,L|436:172,1,80,4|0,3:2|2:0,2:0:0:0:
501,77,84892,6,0,B|471:103|471:103|371:84,1,120,10|0,2:0|2:0,2:0:0:0:
373,64,85183,2,0,L|283:41,1,80,2|2,3:2|2:0,2:0:0:0:
166,17,85474,2,0,P|210:34|181:89,1,120,8|0,2:0|2:0,2:0:0:0:
185,88,85765,1,0,3:2:0:0:
92,84,85911,1,2,2:0:0:0:
92,84,86057,2,0,P|113:132|103:189,1,80,10|0,2:0|2:0,2:0:0:0:
40,265,86351,1,2,3:2:0:0:
40,265,86498,1,2,2:0:0:0:
120,235,86645,6,0,L|202:241,1,80,8|2,2:0|2:0,2:0:0:0:
296,341,86948,2,0,L|269:197,1,118.416,0|0,2:0|2:0,2:0:0:0:
297,192,87246,2,0,L|278:96,1,80,8|0,2:0|2:0,2:0:0:0:
329,26,87542,1,0,3:2:0:0:
329,26,87690,1,0,2:0:0:0:
415,4,87837,2,0,P|455:10|448:84,1,120,8|0,2:0|2:0,2:0:0:0:
439,103,88129,6,0,P|425:151|442:198,1,80,2|0,3:2|2:0,2:0:0:0:
503,285,88433,2,0,P|453:268|391:304,1,120,8|0,2:0|2:0,2:0:0:0:
378,323,88738,2,0,P|340:339|291:326,1,80,0|0,3:2|2:0,2:0:0:0:
210,228,89017,2,0,B|208:261|233:284|233:284|198:294|175:338,1,120,8|0,2:0|2:0,2:0:0:0:
183,314,89324,5,14,2:0:0:0:
256,192,96101,12,0,97287,2:0:0:0:
62,86,97588,6,0,P|98:71|160:83,1,90.0000000000002,14|0,2:0|2:0,2:0:0:0:
147,76,97890,1,8,2:3:0:0:
156,99,98035,1,8,2:3:0:0:
241,137,98181,1,0,3:2:0:0:
238,159,98326,1,8,2:3:0:0:
164,221,98472,2,0,L|174:325,1,90.0000000000002,4|0,2:3|2:0,2:0:0:0:
194,336,98763,6,0,P|246:351|283:342,1,80,6|0,3:2|2:0,2:0:0:0:
350,288,99058,1,10,2:0:0:0:
350,288,99208,2,0,B|363:251|363:251|336:119,1,160,2|2,3:2|3:2,2:0:0:0:
413,86,99661,2,0,L|432:176,1,80,8|2,2:0|2:0,2:0:0:0:
354,210,99962,2,0,L|338:132,1,80,2|0,3:2|2:0,2:0:0:0:
276,61,100245,6,0,P|218:51|154:90,1,120,10|0,2:0|2:0,2:0:0:0:
138,99,100542,2,0,P|81:114|39:90,1,80,2|0,2:0|2:0,2:0:0:0:
0,39,100839,1,10,3:2:0:0:
0,39,100992,1,2,2:0:0:0:
62,108,101145,6,0,P|73:152|56:195,1,80,2|2,3:2|2:0,2:0:0:0:
11,266,101440,1,10,2:0:0:0:
11,266,101588,2,0,P|45:242|144:286,1,160,2|2,3:2|2:0,2:0:0:0:
207,362,102031,2,0,P|251:368|293:354,1,80,8|2,2:0|2:0,2:0:0:0:
427,289,102327,2,0,P|383:283|341:297,1,80,0|0,3:2|2:0,2:0:0:0:
392,370,102618,1,8,2:0:0:0:
392,370,102763,1,0,3:2:0:0:
484,352,102909,6,0,P|509:315|482:227,1,120,2|0,3:2|2:0,2:0:0:0:
476,213,103206,2,0,P|460:174|471:130,1,80,10|0,2:0|2:0,2:0:0:0:
501,23,103503,2,0,P|452:46|416:44,1,80,6|0,3:2|2:0,2:0:0:0:
334,15,103795,1,8,2:0:0:0:
334,15,103942,1,2,3:2:0:0:
264,80,104088,2,0,P|276:127|244:194,1,120,0|0,2:0|2:0,2:0:0:0:
217,211,104381,6,0,L|125:210,1,80,8|2,2:0|2:0,2:0:0:0:
17,115,104696,2,0,L|54:201,1,80,0|2,3:2|2:0,2:0:0:0:
107,304,104984,1,8,2:0:0:0:
107,304,105133,2,0,P|159:323|221:303,1,120,2|0,3:2|2:0,2:0:0:0:
218,304,105431,1,0,2:0:0:0:
302,261,105581,2,0,P|350:249|394:266,1,80,10|2,3:2|2:0,2:0:0:0:
485,336,105879,6,0,P|469:294|472:272,1,40,10|0,3:2|2:0,2:0:0:0:
497,146,106174,6,0,P|482:182|465:196,1,40,10|0,3:2|2:0,2:0:0:0:
461,191,106322,2,0,P|453:143|456:121,1,40,10|0,3:2|2:0,2:0:0:0:
496,37,106617,5,10,3:2:0:0:
409,70,106762,2,0,L|369:64,3,40,10|8|8|8,3:2|3:2|3:2|3:2,2:0:0:0:
339,37,107053,6,0,L|282:46,1,40,14|0,3:2|2:0,2:0:0:0:
236,128,107357,6,0,L|187:110,1,40,14|0,3:2|2:0,2:0:0:0:
136,32,107662,6,0,L|90:45,1,40,14|0,3:2|2:0,2:0:0:0:
8,137,107966,6,0,L|63:144,1,40,14|0,3:2|2:0,2:0:0:0:
126,203,108234,6,0,P|139:246|114:290,1,90.0000000000002,6|0,3:2|2:0,2:0:0:0:
82,307,108519,2,0,P|114:294|194:319,1,120,10|0,2:0|2:0,2:0:0:0:
292,372,108962,2,0,P|287:341|298:300,1,60.0000000000002,2|0,3:2|2:0,2:0:0:0:
367,240,109257,2,0,L|356:171,1,60.4060022888184,10|0,2:0|2:0,2:0:0:0:
294,113,109552,5,0,3:2:0:0:
294,113,109700,2,0,P|335:90|411:106,1,120,10|2,2:0|3:2,2:0:0:0:
357,180,110143,1,0,3:2:0:0:
269,197,110291,2,0,P|231:176|212:141,1,60.0000000000002,10|0,2:0|2:0,2:0:0:0:
138,63,110587,2,0,P|146:96|132:152,1,90.0000000000002,2|0,3:2|2:0,2:0:0:0:
115,176,110882,6,0,P|99:212|105:257,1,60.0000000000002,10|0,2:0|2:0,2:0:0:0:
126,326,111182,1,2,2:0:0:0:
126,326,111332,1,0,3:2:0:0:
189,256,111482,1,2,2:0:0:0:
189,256,111639,6,0,P|222:239|286:273,1,90.0000000000002,10|0,2:0|2:0,2:0:0:0:
284,272,111934,1,0,3:2:0:0:
284,272,112008,1,0,2:0:0:0:
284,272,112082,1,8,2:0:0:0:
339,355,112230,1,0,2:0:0:0:
339,355,112377,1,2,3:2:0:0:
417,300,112525,1,0,3:2:0:0:
417,300,112599,1,0,2:0:0:0:
417,300,112673,6,0,P|435:261|431:222,1,60.0000000000001,10|0,2:0|3:2,2:0:0:0:
428,209,112892,1,0,3:2:0:0:
428,209,112965,2,0,P|411:175|414:142,1,60.0000000000001,2|0,3:2|2:0,2:0:0:0:
446,41,113261,2,0,P|421:66|337:52,1,120,10|0,2:0|2:0,2:0:0:0:
223,5,113705,2,0,P|248:43|253:71,1,60.0000000000001,2|0,3:2|2:0,2:0:0:0:
290,140,114002,2,0,P|253:146|199:128,1,89.5950034332277,10|0,2:0|2:0,2:0:0:0:
179,115,114297,1,0,2:0:0:0:
81,49,114445,6,0,P|94:86|89:155,1,90.0000000000002,10|0,2:0|2:0,2:0:0:0:
86,159,114741,1,2,3:2:0:0:
37,238,114888,1,0,3:2:0:0:
37,238,115036,2,0,L|45:317,1,60.0000000000002,10|0,2:0|2:0,2:0:0:0:
116,357,115332,6,0,B|148:372|148:372|240:360,2,120,6|8|2,3:2|2:0|3:2,2:0:0:0:
43,297,116060,1,2,3:2:0:0:
119,240,116205,2,0,P|161:230|201:236,1,60.0000000000002,8|2,2:0|2:0,2:0:0:0:
281,299,116497,6,0,P|262:268|300:195,2,120,4|8|0,3:2|2:0|3:2,2:0:0:0:
300,314,117235,1,8,2:0:0:0:
300,314,117309,1,8,2:0:0:0:
300,314,117383,2,0,L|350:311,3,30.0000000000001,8|8|8|8,2:0|2:0|2:0|2:0,2:0:0:0:
391,361,117679,6,0,P|406:321|379:257,1,90.0000000000002,14|0,3:2|2:0,2:0:0:0:
395,276,117979,1,10,2:0:0:0:
323,177,118129,2,0,P|361:194|414:180,1,90.0000000000002,2|0,2:0|2:0,2:0:0:0:
407,184,118429,1,2,3:2:0:0:
508,94,118579,2,0,P|474:81|433:82,1,60.0000000000002,8|2,2:0|2:0,2:0:0:0:
345,13,118874,6,0,P|369:43|361:134,2,118.376004577637,0|8|0,3:2|2:0|2:0,2:0:0:0:
287,82,119606,1,0,3:2:0:0:
308,172,119755,2,0,B|326:209|326:209|312:254,1,80,10|0,2:0|2:0,2:0:0:0:
249,326,120054,2,0,P|209:338|131:314,1,120,2|0,3:2|2:0,2:0:0:0:
111,293,120348,2,0,P|95:251|105:209,1,80,10|2,2:0|2:0,2:0:0:0:
156,143,120642,1,0,3:2:0:0:
156,143,120789,1,2,3:2:0:0:
108,66,120936,6,0,L|9:67,1,80,8|2,2:0|2:0,2:0:0:0:
0,171,121231,2,0,B|27:139|27:139|117:138,2,119.192004577637,0|10|0,2:0|2:0|2:0,2:0:0:0:
29,260,121971,1,0,3:2:0:0:
29,260,122122,2,0,L|23:337,1,60.0000000000002,10|0,2:0|2:0,2:0:0:0:
99,354,122407,6,0,B|106:254|106:254|124:289,2,121.568004577637,6|8|0,3:2|2:0|2:0,2:0:0:0:
197,273,123156,1,0,3:2:0:0:
197,273,123304,2,0,P|201:234|191:206,1,60.0000000000002,8|0,2:0|2:0,2:0:0:0:
96,112,123599,6,0,P|129:126|201:115,1,90.0000000000002,2|0,3:2|2:0,2:0:0:0:
213,109,123894,2,0,P|245:102|284:114,1,60.0000000000002,10|2,2:0|2:0,2:0:0:0:
363,212,124190,2,0,P|354:177|376:120,1,90.0000000000002,0|0,3:2|2:0,2:0:0:0:
370,126,124485,1,14,2:0:0:0:
256,192,124559,12,0,125815,2:0:0:0:
150,48,125963,6,0,L|176:45,1,20,8|0,3:2|2:0,2:0:0:0:
331,115,126413,6,0,L|297:112,1,20,8|0,3:2|2:0,2:0:0:0:
146,228,126852,6,0,P|185:206|247:258,1,120,10|0,3:2|2:0,2:0:0:0:
248,275,127144,6,0,B|224:157|224:157|202:203,2,160,6|8|0,3:2|2:0|3:2,2:0:0:0:
340,368,127882,1,0,3:2:0:0:
340,368,128030,2,0,P|400:377|451:328,1,120,10|0,2:0|2:0,2:0:0:0:
444,342,128327,1,0,2:0:0:0:
498,229,128475,1,0,3:2:0:0:
498,229,128624,2,0,B|509:188|509:188|493:148,1,80,10|2,2:0|2:0,2:0:0:0:
412,58,128921,1,0,3:2:0:0:
367,176,129069,1,2,3:2:0:0:
412,58,129218,6,0,P|453:44|516:69,1,80,10|2,2:0|2:0,2:0:0:0:
367,176,129509,2,0,P|329:153|304:114,1,80,0|0,3:2|2:0,2:0:0:0:
483,170,129804,2,0,P|483:216|408:303,1,160,10|2,2:0|3:2,2:0:0:0:
290,343,130247,1,0,3:2:0:0:
290,343,130395,2,0,L|207:340,1,80,10|2,2:0|2:0,2:0:0:0:
152,250,130691,6,0,P|181:293|123:374,2,160,0|8|2,3:2|2:0|3:2,2:0:0:0:
89,171,131430,1,2,3:2:0:0:
89,171,131577,1,8,2:0:0:0:
143,88,131725,1,6,2:0:0:0:
143,88,131873,6,0,B|219:59|212:134|310:92,2,160,0|8|0,2:0|2:0|3:2,2:0:0:0:
89,171,132612,1,0,3:2:0:0:
156,241,132760,2,0,P|206:247|263:212,1,120,10|0,2:0|2:0,2:0:0:0:
285,189,133055,2,0,P|266:231|260:280,1,80,0|2,3:2|2:0,2:0:0:0:
417,299,133356,2,0,P|381:267|335:264,1,80,8|2,2:0|2:0,2:0:0:0:
343,344,133658,5,0,3:2:0:0:
343,344,133800,1,2,3:2:0:0:
485,334,133943,2,0,P|494:288|471:248,1,80,8|2,2:0|3:2,2:0:0:0:
379,129,134229,6,0,P|406:174|439:103,1,160,10|2,2:0|3:2,2:0:0:0:
375,25,134672,2,0,P|319:13|213:36,1,160,10|2,2:0|3:2,2:0:0:0:
170,118,135119,2,0,B|183:240|183:240|158:207,1,160,10|0,2:0|3:2,2:0:0:0:
32,168,135567,2,0,B|19:46|19:46|44:79,1,160,14|0,2:0|3:2,2:0:0:0:
160,210,136004,2,0,P|176:257|142:323,1,120,10|0,2:0|2:0,2:0:0:0:
125,346,136299,2,0,P|170:330|208:337,1,80,14|0,2:0|2:0,2:0:0:0:
298,364,136595,6,0,P|355:379|450:346,2,162.364,6|8|0,3:2|2:0|2:0,2:0:0:0:
224,258,137342,1,0,3:2:0:0:
224,258,137490,2,0,P|213:206|253:130,1,120,10|0,2:0|2:0,2:0:0:0:
264,120,137785,2,0,P|211:140|161:131,1,80,0|0,3:2|2:0,2:0:0:0:
74,35,138080,2,0,P|110:98|82:161,1,120,10|0,2:0|2:0,2:0:0:0:
99,140,138376,5,2,3:2:0:0:
33,249,138523,1,0,3:2:0:0:
33,249,138671,2,0,L|40:342,1,80,8|2,2:0|2:0,2:0:0:0:
139,357,138967,2,0,B|117:314|117:314|110:232,1,120,2|0,3:2|2:0,2:0:0:0:
110,242,139259,1,10,2:0:0:0:
216,171,139406,1,0,3:2:0:0:
216,171,139552,6,0,P|266:164|297:180,1,80,2|0,2:0|3:2,2:0:0:0:
370,314,139850,2,0,P|339:272|412:219,1,160,10|0,2:0|2:0,2:0:0:0:
488,157,140298,1,2,3:2:0:0:
488,157,140447,5,8,2:0:0:0:
417,52,140594,1,2,3:2:0:0:
392,51,140668,1,8,2:0:0:0:
371,51,140742,2,0,L|276:52,1,80,0|0,3:2|3:2,2:0:0:0:
175,12,141038,2,0,P|200:64|191:98,1,80,8|0,2:0|2:0,2:0:0:0:
52,88,141333,6,0,P|93:68|150:72,1,80,6|0,3:2|2:0,2:0:0:0:
158,200,141628,2,0,P|120:170|109:138,1,80,2|0,2:0|2:0,2:0:0:0:
243,187,141924,2,0,P|229:245|137:283,1,160,10|2,2:0|2:0,2:0:0:0:
10,347,142376,2,0,P|54:336|100:346,1,80,2|0,3:2|2:0,2:0:0:0:
190,366,142670,1,2,2:0:0:0:
190,366,142817,2,0,P|234:375|279:372,1,80,2|0,3:2|2:0,2:0:0:0:
381,320,143111,2,0,B|394:209|394:209|391:229|356:253,1,160,10|2,2:0|2:0,2:0:0:0:
322,187,143552,1,0,2:0:0:0:
246,251,143699,6,0,B|189:199|127:240|127:240|84:295|0:258,1,240,6|0,3:2|2:0,2:0:0:0:
35,122,144290,2,0,B|65:85|65:85|62:201,1,160,10|0,2:0|2:0,2:0:0:0:
180,302,144733,1,0,3:2:0:0:
251,366,144881,2,0,L|350:362,1,80,2|0,2:0|2:0,2:0:0:0:
404,291,145176,2,0,L|508:291,1,80,0|0,3:2|2:0,2:0:0:0:
508,191,145472,2,0,B|481:216|481:216|380:216,1,120,10|0,2:0|2:0,2:0:0:0:
368,197,145776,2,0,L|220:196,1,120,0|0,3:2|2:0,2:0:0:0:
248,196,146067,5,14,3:2:0:0:
254,220,146214,1,0,2:0:0:0:
139,362,146510,2,0,L|125:261,1,80,0|0,2:0|2:0,2:0:0:0:
52,224,146805,1,0,2:0:0:0:
52,224,146953,2,0,L|59:94,1,120,0|0,2:0|2:0,2:0:0:0:
86,82,147249,6,0,L|92:-9,1,80,0|0,2:0|2:0,2:0:0:0:
209,73,147544,1,0,2:0:0:0:
213,105,147692,1,0,2:0:0:0:
151,180,147988,1,0,2:0:0:0:
145,211,148135,2,0,L|143:295,1,80,0|0,2:0|2:0,2:0:0:0:
220,360,148431,6,0,P|269:377|344:360,1,120,0|0,2:0|2:0,2:0:0:0:
369,342,148727,2,0,P|392:305|385:227,1,120,0|0,2:0|2:0,2:0:0:0:
387,231,149022,1,0,2:0:0:0:
377,203,149170,1,0,2:0:0:0:
229,144,149466,6,0,L|244:52,1,80,0|0,2:0|2:0,2:0:0:0:
334,19,149761,1,0,2:0:0:0:
334,19,149909,2,0,P|388:15|459:43,1,120,0|0,2:0|2:0,2:0:0:0:
478,67,150204,2,0,P|496:116|489:194,1,120,0|0,2:0|2:0,2:0:0:0:
492,182,150500,1,4,2:0:0:0:
484,221,150648,1,0,2:0:0:0:
393,351,150945,5,0,2:0:0:0:
356,365,151094,2,0,P|304:373|235:348,1,120,0|0,2:0|2:0,2:0:0:0:
214,324,151393,2,0,P|194:279|198:194,1,120,0|0,2:0|2:0,2:0:0:0:
211,172,151691,2,0,L|210:122,3,40,0|0|0|0,2:0|2:0|2:0|2:0,2:0:0:0:
236,95,151990,6,0,P|286:79|352:108,1,120,6|0,3:2|2:0,2:0:0:0:
366,136,152288,2,0,P|352:94|358:42,1,80,12|0,2:0|2:0,2:0:0:0:
509,111,152587,2,0,P|514:177|497:217,1,80,2|2,3:2|3:2,2:0:0:0:
440,263,152876,2,0,P|425:307|476:369,1,120,10|0,2:0|2:0,2:0:0:0:
463,364,153166,1,0,2:0:0:0:
353,332,153311,1,0,3:2:0:0:
353,332,153456,6,0,P|310:317|263:322,1,80,8|0,2:0|2:0,2:0:0:0:
185,369,153750,1,0,3:2:0:0:
185,369,153897,1,0,3:2:0:0:
219,268,154044,2,0,P|239:231|224:145,1,120,8|0,2:0|2:0,2:0:0:0:
207,121,154338,6,0,L|106:122,1,80,0|2,2:0|2:0,2:0:0:0:
1,31,154633,2,0,L|125:21,1,120,10|0,2:0|2:0,2:0:0:0:
120,21,154929,1,0,2:0:0:0:
222,9,155076,1,2,3:2:0:0:
222,9,155224,2,0,L|385:18,1,160,10|0,2:0|2:0,2:0:0:0:
463,94,155668,5,2,3:2:0:0:
463,94,155815,2,0,P|480:138|475:177,1,80,8|2,3:2|2:0,2:0:0:0:
366,284,156111,2,0,P|350:239|375:172,1,120,0|0,3:2|2:0,2:0:0:0:
396,145,156406,2,0,P|343:164|309:162,1,80,10|2,2:0|2:0,2:0:0:0:
226,111,156697,6,0,P|281:157|221:235,2,160,4|8|0,3:2|2:0|3:2,2:0:0:0:
154,52,157435,1,0,3:2:0:0:
154,52,157583,1,10,2:0:0:0:
76,109,157733,2,0,P|65:149|77:193,1,80,2|0,3:2|2:0,2:0:0:0:
125,265,158035,1,0,3:2:0:0:
125,265,158186,2,0,P|133:311|120:353,1,80,8|0,2:0|2:0,2:0:0:0:
31,365,158478,1,0,3:2:0:0:
31,365,158625,1,0,3:2:0:0:
3,277,158771,2,0,L|0:187,1,80,8|0,2:0|3:2,2:0:0:0:
76,109,159064,6,0,P|128:84|226:116,1,160,14|0,3:2|3:2,2:0:0:0:
321,150,159503,2,0,B|282:178|282:178|334:114|289:49,1,160,14|0,2:0|3:2,2:0:0:0:
202,189,159942,2,0,P|220:228|332:238,1,160,14|0,2:0|3:2,2:0:0:0:
403,290,160381,2,0,P|417:241|390:183,1,80,14|0,2:0|3:2,2:0:0:0:
321,150,160673,1,0,3:2:0:0:
302,73,160820,6,0,B|340:56|340:56|429:74,1,120,14|0,2:0|2:0,2:0:0:0:
441,106,161123,2,0,L|529:99,1,80,14|0,2:0|3:2,2:0:0:0:
464,275,161426,2,0,B|426:292|426:292|337:274,1,120,6|0,3:2|2:0,2:0:0:0:
325,242,161721,2,0,L|237:249,1,80,10|0,2:0|2:0,2:0:0:0:
172,308,162017,1,2,3:2:0:0:
172,308,162164,1,0,3:2:0:0:
121,231,162312,2,0,B|112:193|112:193|132:155,1,80,10|0,2:0|3:2,2:0:0:0:
249,78,162608,6,0,P|205:86|168:78,1,80,2|0,2:0|3:2,2:0:0:0:
94,20,162903,1,10,2:0:0:0:
94,20,163051,1,0,2:0:0:0:
28,88,163199,2,0,L|32:172,1,80,2|0,3:2|3:2,2:0:0:0:
121,231,163494,2,0,L|120:327,1,80,10|0,2:0|2:0,2:0:0:0:
205,358,163790,6,0,B|243:368|243:368|365:351,2,160,6|10|2,3:2|2:0|3:2,2:0:0:0:
308,281,164529,1,0,3:2:0:0:
308,281,164677,2,0,L|418:267,1,80.5413333333333,10|2,2:0|3:2,2:0:0:0:
510,329,164974,2,0,L|481:227,1,80,0|0,2:0|3:2,2:0:0:0:
454,107,165272,2,0,L|417:183,1,80,8|2,2:0|2:0,2:0:0:0:
308,281,165571,2,0,L|418:267,1,80,0|0,3:2|3:2,2:0:0:0:
510,329,165869,2,0,L|471:197,1,120,12|0,2:0|2:0,2:0:0:0:
418,178,166154,6,0,L|389:82,1,80,6|0,3:2|2:0,2:0:0:0:
332,32,166449,2,0,P|283:28|229:38,1,80,8|0,2:0|2:0,2:0:0:0:
245,173,166745,2,0,P|283:120|295:79,2,80,2|2|10,3:2|3:2|2:0,2:0:0:0:
139,281,167188,2,0,P|190:260|295:275,1,160,6|2,3:2|3:2,2:0:0:0:
402,365,167631,2,0,P|380:314|371:258,1,80,10|2,2:0|2:0,2:0:0:0:
490,179,167931,2,0,P|507:223|511:283,1,80,0|0,2:0|3:2,2:0:0:0:
331,181,168231,2,0,P|321:128|336:46,1,120,8|0,2:0|2:0,2:0:0:0:
348,32,168515,6,0,L|433:27,1,80,6|0,3:2|2:0,2:0:0:0:
251,173,168813,2,0,L|355:183,1,80,10|0,2:0|2:0,2:0:0:0:
178,65,169112,1,2,3:2:0:0:
120,180,169261,1,0,3:2:0:0:
263,89,169410,1,10,2:0:0:0:
108,208,169559,6,0,P|86:264|120:343,1,120,6|0,3:2|2:0,2:0:0:0:
115,346,169862,1,2,3:2:0:0:
261,363,170013,2,0,L|264:268,1,80,10|2,2:0|2:0,2:0:0:0:
182,116,170297,2,0,L|185:171,3,40,10|0|10|8,3:2|2:0|3:2|3:2,2:0:0:0:
270,202,170592,2,0,L|273:146,3,40,10|0|2|0,3:2|2:0|3:2|2:0,2:0:0:0:
315,102,170888,6,0,P|360:86|475:128,1,160,14|0,3:2|2:0,2:0:0:0:
418,216,171354,2,0,P|373:232|258:190,1,160,14|0,3:2|2:0,2:0:0:0:
127,190,171797,2,0,B|185:128|185:128|176:309,1,240,14|0,3:2|2:0,2:0:0:0:
268,254,172382,6,0,L|269:191,2,53.3333333333333,8|8|8,2:3|2:3|2:3,2:0:0:0:
327,310,172675,2,0,L|326:368,2,53.3333333333333,4|4|4,2:3|2:3|2:3,2:0:0:0:
383,258,172967,2,0,P|447:249|503:277,1,106.666666666667,4|0,2:3|3:2,2:0:0:0:
508,293,173255,6,0,B|479:247|479:247|509:106,1,160,14|0,3:2|2:0,2:0:0:0:
375,108,173698,2,0,B|404:154|404:154|374:295,1,160,14|0,3:2|2:0,2:0:0:0:
320,332,174141,2,0,P|280:339|196:316,1,120,14|0,3:2|2:0,2:0:0:0:
181,297,174437,6,0,L|109:306,2,53.3333333333333,8|8|8,2:3|2:3|2:3,2:0:0:0:
233,235,174729,2,0,L|309:249,2,53.3333333333333,8|8|8,2:3|2:3|2:3,2:0:0:0:
167,185,175022,5,4,2:3:0:0:
155,146,175119,5,4,2:3:0:0:
165,105,175217,5,4,2:3:0:0:
201,81,175315,5,6,2:3:0:0:
232,82,175413,5,4,2:3:0:0:
245,89,175512,5,4,2:3:0:0:
252,97,175625,5,6,2:0:0:0:
50,80,183601,6,0,P|96:60|206:96,1,160,10|0,2:0|2:0,2:0:0:0:
192,164,184031,2,0,P|146:184|36:148,1,160,10|0,2:0|2:0,2:0:0:0:
50,80,184474,6,0,L|60:-9,2,80,10|8|6,2:0|2:3|2:3,2:0:0:0:
44,156,184922,1,0,2:0:0:0:
44,156,185075,6,0,P|63:197|66:235,1,60.0000000000001,6|0,3:2|2:0,2:0:0:0:
8,320,185379,2,0,P|43:298|71:293,1,60.0000000000001,0|0,3:2|3:2,2:0:0:0:
146,339,185684,2,0,P|185:351|268:335,1,120,12|2,2:0|2:0,2:0:0:0:
363,266,186127,2,0,P|376:231|374:193,1,60.0000000000002,2|4,3:2|2:0,2:0:0:0:
348,127,186422,2,0,P|377:162|456:177,1,120.406004577637,0|2,2:0|2:0,2:0:0:0:
487,112,186853,6,0,P|458:77|379:62,1,120,8|0,2:0|3:2,2:0:0:0:
348,127,187296,1,2,3:2:0:0:
348,127,187444,2,0,P|311:137|286:132,1,60.0000000000002,6|0,3:2|2:0,2:0:0:0:
167,68,187739,2,0,P|190:92|209:127,1,60.0000000000002,2|0,2:0|3:2,2:0:0:0:
295,236,188035,2,0,P|268:196|309:121,1,120,10|2,2:0|2:0,2:0:0:0:
375,228,188478,6,0,P|371:271|351:300,1,60.4060022888184,2|0,3:2|2:0,2:0:0:0:
298,368,188772,2,0,L|222:357,1,60.0000000000001,2|0,3:2|2:0,2:0:0:0:
158,308,189065,1,2,3:2:0:0:
158,308,189138,1,0,2:0:0:0:
158,308,189211,2,0,L|117:316,3,30.0000000000001,8|0|8|8,2:0|2:0|2:0|2:0,2:0:0:0:
52,347,189504,6,0,L|45:298,3,40,8|8|8|8,2:0|2:0|2:0|2:0,2:0:0:0:
95,247,189799,6,0,B|88:202|88:202|76:173|76:173|63:112,2,120,6|10|2,3:2|2:0|3:2,2:0:0:0:
146,139,190556,1,0,3:2:0:0:
146,139,190708,2,0,L|130:71,1,60.0000000000001,10|2,2:0|2:0,2:0:0:0:
226,15,190997,2,0,L|226:92,1,60.0000000000001,0|2,3:2|2:0,2:0:0:0:
308,143,191287,2,0,L|324:75,1,60.0000000000001,10|0,2:0|2:0,2:0:0:0:
387,22,191577,5,2,3:2:0:0:
387,22,191724,1,0,3:2:0:0:
438,177,191871,2,0,L|420:100,1,60.0000000000002,10|0,2:0|2:0,2:0:0:0:
366,201,192165,6,0,B|375:245|375:245|348:340,1,120,14|0,2:0|2:0,2:0:0:0:
305,373,192468,2,0,P|249:379|187:352,1,120,14|0,2:0|2:0,2:0:0:0:
141,301,192771,2,0,P|91:284|108:356,2,160,14|14|14,3:2|2:0|2:0,2:0:0:0:
214,277,193507,1,8,2:0:0:0:
214,277,193653,1,8,2:0:0:0:
266,198,193798,1,8,2:0:0:0:
236,114,193944,5,2,2:0:0:0:
14,53,194387,2,0,B|48:14|48:14|55:138,1,160,6|0,3:2|2:0,2:0:0:0:
144,219,194830,2,0,L|138:133,1,80,8|0,2:0|2:0,2:0:0:0:
209,35,195121,2,0,P|259:22|298:37,1,80,0|0,3:2|3:2,2:0:0:0:
403,98,195412,1,10,2:0:0:0:
282,255,195560,6,0,P|261:205|257:94,1,160,2|0,3:2|3:2,2:0:0:0:
401,213,196006,2,0,P|408:263|401:305,1,80,10|2,2:0|2:0,2:0:0:0:
269,372,196303,1,0,3:2:0:0:
282,255,196451,1,2,3:2:0:0:
269,372,196600,2,0,P|210:376|182:368,1,80,10|6,2:0|2:0,2:0:0:0:
91,240,196897,6,0,P|103:283|104:346,1,80,0|0,2:0|2:0,2:0:0:0:
14,201,197192,2,0,P|44:171|136:167,1,120,10|0,2:0|2:0,2:0:0:0:
145,175,197488,2,0,P|200:181|239:165,1,80,2|0,3:2|3:2,2:0:0:0:
346,89,197783,2,0,P|319:150|306:186,1,80,10|2,2:0|2:0,2:0:0:0:
424,308,198079,6,0,B|443:268|443:268|431:189,1,120,0|0,3:2|2:0,2:0:0:0:
470,165,198374,2,0,L|455:56,1,80,8|2,2:0|2:0,2:0:0:0:
357,7,198670,1,2,3:2:0:0:
357,7,198818,1,2,3:2:0:0:
292,155,198965,1,8,2:0:0:0:
231,10,199113,1,6,3:2:0:0:
292,155,199261,6,0,P|312:207|301:290,1,120,0|0,2:0|2:0,2:0:0:0:
282,291,199557,2,0,P|241:303|191:287,1,80,8|0,2:0|2:0,2:0:0:0:
109,172,199852,2,0,P|135:222|124:275,1,80,0|0,3:2|3:2,2:0:0:0:
51,238,200148,1,10,2:0:0:0:
51,238,200292,1,2,2:0:0:0:
30,147,200437,6,0,P|56:104|142:102,1,120,0|0,3:2|2:0,2:0:0:0:
156,62,200737,2,0,P|205:90|216:133,1,80,8|2,2:0|2:0,2:0:0:0:
289,206,201037,2,0,L|279:287,2,80,0|2|8,3:2|3:2|2:0,2:0:0:0:
377,160,201487,1,2,3:2:0:0:
377,160,201637,6,0,B|358:120|358:120|370:4,1,160,10|2,2:0|3:2,2:0:0:0:
451,136,202073,2,0,P|445:203|334:229,1,160,10|2,2:0|3:2,2:0:0:0:
294,265,202510,6,0,P|300:198|411:172,1,160,10|0,2:0|3:2,2:0:0:0:
368,241,202953,2,0,P|362:308|251:334,1,160,14|0,2:0|3:2,2:0:0:0:
197,298,203396,2,0,L|147:300,3,40,10|0|8|8,2:0|2:0|2:0|2:0,2:0:0:0:
90,331,203692,2,0,L|74:264,3,40,10|8|8|8,2:0|2:0|2:0|2:0,2:0:0:0:
19,244,203990,6,0,P|62:217|136:237,1,120,6|0,3:2|2:0,2:0:0:0:
155,198,204285,2,0,P|204:206|243:191,1,80,12|0,2:0|2:0,2:0:0:0:
335,121,204581,1,0,3:2:0:0:
335,121,204728,1,0,3:2:0:0:
202,42,204876,2,0,P|191:84|200:144,1,80,10|2,2:0|2:0,2:0:0:0:
342,274,205172,6,0,P|369:228|314:233,1,120,0|0,3:2|2:0,2:0:0:0:
299,238,205467,2,0,P|289:293|314:364,1,120,10|0,2:0|2:0,2:0:0:0:
341,374,205763,1,2,3:2:0:0:
341,374,205911,1,0,3:2:0:0:
484,299,206058,2,0,B|501:254|501:254|479:164,1,120,8|0,2:0|2:0,2:0:0:0:
460,156,206354,5,6,3:2:0:0:
460,156,206502,1,0,3:2:0:0:
354,72,206650,2,0,P|364:128|352:165,1,80,10|0,2:0|3:2,2:0:0:0:
233,258,206945,2,0,P|221:208|234:159,1,80,2|0,2:0|3:2,2:0:0:0:
313,285,207241,2,0,P|283:328|212:341,1,120,10|0,2:0|2:0,2:0:0:0:
180,324,207536,5,0,2:0:0:0:
180,324,207684,1,2,3:2:0:0:
83,240,207832,1,8,2:0:0:0:
83,240,207980,1,2,3:2:0:0:
143,162,208127,2,0,L|140:74,1,80,0|0,2:0|3:2,2:0:0:0:
237,62,208423,2,0,B|217:30|217:30|221:138,1,120,12|0,2:0|2:0,2:0:0:0:
241,153,208719,6,0,P|278:173|371:138,1,120,6|0,3:2|2:0,2:0:0:0:
378,143,209014,1,2,2:0:0:0:
491,204,209162,1,0,2:0:0:0:
491,204,209310,2,0,B|510:242|510:242|482:360,1,160,10|2,2:0|2:0,2:0:0:0:
381,353,209753,6,0,B|325:358|325:358|286:335|286:335|214:344,1,160,2|2,3:2|2:0,2:0:0:0:
119,361,210196,2,0,P|139:314|141:275,1,80,2|0,3:2|2:0,2:0:0:0:
25,180,210492,2,0,P|13:233|18:274,1,80,10|0,2:0|2:0,2:0:0:0:
123,197,210788,1,2,2:0:0:0:
83,104,210935,1,8,2:0:0:0:
83,104,211009,1,8,2:0:0:0:
83,104,211083,6,0,B|44:104|44:104|89:51|167:118,1,160,6|0,3:2|2:0,2:0:0:0:
242,205,211533,1,0,2:0:0:0:
242,205,211683,2,0,P|282:226|360:157,1,160,10|0,2:0|2:0,2:0:0:0:
414,18,212133,2,0,P|392:72|395:102,1,80,0|2,3:2|2:0,2:0:0:0:
486,222,212430,2,0,P|445:167|405:159,1,80,8|0,2:0|3:2,2:0:0:0:
307,67,212726,1,0,3:2:0:0:
307,67,212874,2,0,L|202:79,1,80,14|0,2:0|3:2,2:0:0:0:
137,157,213169,2,0,L|226:172,1,80,12|0,2:0|3:2,2:0:0:0:
267,223,213465,5,14,3:2:0:0:
272,247,213616,1,2,2:0:0:0:
197,359,213919,2,0,L|191:288,1,60.0000000000002,10|0,3:2|2:0,2:0:0:0:
125,226,214204,1,2,2:0:0:0:
181,145,214347,5,10,3:2:0:0:
176,122,214493,1,2,2:0:0:0:
82,32,214786,1,10,2:0:0:0:
82,32,214932,2,0,L|21:27,1,60.0000000000001,0|2,2:0|2:0,2:0:0:0:
7,134,215225,2,0,L|86:119,1,60.0000000000001,10|2,3:2|2:0,2:0:0:0:
114,227,215517,2,0,L|42:222,1,60.0000000000001,10|2,3:2|3:2,2:0:0:0:
1,294,215815,5,14,3:2:0:0:
8,319,215968,1,10,3:2:0:0:
108,349,216274,2,0,P|150:332|223:354,1,120,14|10,3:2|3:2,2:0:0:0:
370,358,216708,2,0,P|335:332|307:242,1,120,14|0,3:2|2:0,2:0:0:0:
195,193,217143,1,0,2:0:0:0:
195,193,217288,6,0,P|207:154|207:93,1,90.0000000000002,10|0,3:2|2:0,2:0:0:0:
199,70,217591,2,0,P|193:31|192:17,2,30.0000000000001,10|0|0,3:2|2:0|2:0,2:0:0:0:
99,142,217894,5,10,3:2:0:0:
103,160,218041,1,0,2:0:0:0:
172,231,218189,1,14,3:2:0:0:
168,252,218337,1,2,2:0:0:0:
261,339,218640,2,0,L|271:269,1,60.0000000000001,10|0,3:2|2:0,2:0:0:0:
367,175,219079,1,10,3:2:0:0:
362,206,219225,1,2,2:0:0:0:
290,83,219518,1,10,2:0:0:0:
318,72,219664,2,0,L|391:51,1,60.0000022888184,0|2,2:0|2:0,2:0:0:0:
425,190,219959,6,0,L|360:173,1,60.0000000000001,10|2,3:2|2:0,2:0:0:0:
265,286,220257,2,0,L|330:269,1,60.0000000000001,10|2,3:2|2:0,2:0:0:0:
430,318,220556,5,14,3:2:0:0:
441,341,220703,1,2,2:0:0:0:
265,286,220999,2,0,L|288:220,1,60.0000000000002,14|0,3:2|2:0,2:0:0:0:
173,156,221294,1,10,3:2:0:0:
179,177,221442,2,0,L|201:245,1,60.0000000000002,14|0,3:2|2:0,2:0:0:0:
108,353,222026,5,14,3:2:0:0:
108,353,222170,1,8,3:2:0:0:
32,252,222314,1,10,3:2:0:0:
32,252,222459,1,8,3:2:0:0:
97,179,222603,2,0,L|71:79,1,90.0000000000002,10|0,3:2|2:0,2:0:0:0:
146,58,222891,6,0,L|166:143,1,80,6|0,3:2|2:0,2:0:0:0:
263,228,223189,2,0,P|311:245|369:208,1,120,10|0,3:2|3:2,2:0:0:0:
392,183,223488,2,0,P|375:231|381:293,1,80,8|0,3:2|3:2,2:0:0:0:
497,313,223786,2,0,P|506:263|494:180,1,120,8|0,3:2|3:2,2:0:0:0:
482,162,224085,6,0,P|471:115|475:69,1,80,10|0,3:2|3:2,2:0:0:0:
370,5,224380,2,0,L|379:46,3,40,10|0|2|0,3:2|3:2|3:2|3:2,2:0:0:0:
294,41,224676,2,0,L|285:92,3,40,8|0|10|0,3:2|2:0|3:2|2:0,2:0:0:0:
203,52,224971,1,8,3:2:0:0:
209,73,225045,1,0,2:0:0:0:
210,96,225119,1,10,3:2:0:0:
204,121,225193,1,0,2:0:0:0:
193,140,225267,6,0,L|106:132,1,80,4|0,3:2|2:0,2:0:0:0:
6,244,225562,2,0,B|45:219|45:219|126:242,1,120,10|0,2:0|2:0,2:0:0:0:
136,278,225858,2,0,L|222:304,1,80,2|2,3:2|2:0,2:0:0:0:
333,211,226161,2,0,L|249:227,1,80,8|2,2:0|2:0,2:0:0:0:
146,117,226464,2,0,L|270:144,1,120,0|0,3:2|2:0,2:0:0:0:
293,133,226756,1,10,2:0:0:0:
293,133,226903,1,2,2:0:0:0:
359,17,227049,2,0,P|359:57|376:102,1,80,2|2,3:2|2:0,2:0:0:0:
486,178,227342,2,0,P|446:164|400:172,1,80,8|2,2:0|2:0,2:0:0:0:
308,276,227637,6,0,P|332:227|319:160,1,120,0|0,3:2|2:0,2:0:0:0:
293,133,227932,2,0,L|200:129,1,80,8|0,2:0|2:0,2:0:0:0:
105,66,228228,2,0,P|85:108|96:186,1,120,0|0,3:2|2:0,2:0:0:0:
123,206,228523,2,0,L|121:288,1,80,8|0,2:0|2:0,2:0:0:0:
259,358,228819,6,0,B|273:320|273:320|254:227,1,120,2|0,3:2|2:0,2:0:0:0:
269,203,229117,2,0,L|249:114,1,80,8|0,2:0|2:0,2:0:0:0:
154,4,229416,1,2,3:2:0:0:
135,136,229565,1,0,2:0:0:0:
246,23,229714,1,8,2:0:0:0:
227,152,229863,1,0,2:0:0:0:
154,4,230013,6,0,P|171:52|148:126,1,120,4|0,3:2|2:0,2:0:0:0:
135,136,230304,2,0,P|110:194|125:229,1,80,10|0,2:0|2:0,2:0:0:0:
173,333,230595,2,0,L|298:317,1,120,2|0,3:2|2:0,2:0:0:0:
328,330,230886,6,0,L|421:317,1,80,8|2,2:0|2:0,2:0:0:0:
498,222,231184,1,0,3:2:0:0:
498,222,231333,1,2,2:0:0:0:
408,140,231483,1,8,2:0:0:0:
408,140,231632,1,2,2:0:0:0:
476,30,231781,2,0,L|497:120,1,80,2|2,3:2|2:0,2:0:0:0:
396,219,232076,2,0,L|408:133,1,80,10|0,2:0|3:2,2:0:0:0:
342,35,232372,5,12,2:0:0:0:
274,50,233697,6,0,P|235:26|211:91,1,120,8|0,3:2|2:0,2:0:0:0:
262,130,233992,2,0,P|260:175|329:164,1,120,8|0,3:2|2:0,2:0:0:0:
336,102,234288,2,0,P|376:80|331:26,1,120,8|0,3:2|2:0,2:0:0:0:
274,50,234580,6,0,P|235:26|211:91,1,120,8|0,3:2|2:0,2:0:0:0:
262,130,234873,2,0,P|260:175|329:164,1,120,8|0,3:2|2:0,2:0:0:0:
336,102,235166,2,0,P|376:80|331:26,1,120,8|0,3:2|2:0,2:0:0:0:
274,50,235454,6,0,L|138:37,1,120,8|0,3:2|2:0,2:0:0:0:
154,38,235734,1,6,3:2:0:0:
