osu file format v14

[General]
AudioFilename: audio.mp3
AudioLeadIn: 0
PreviewTime:175178
Countdown: 0
SampleSet: Soft
StackLeniency: 0.7
Mode: 0
LetterboxInBreaks: 0
WidescreenStoryboard: 1

[Editor]
DistanceSpacing: 0.8
BeatDivisor: 4
GridSize: 8
TimelineZoom: 2.7

[Metadata]
Title:Seven Doors
TitleUnicode:Seven Doors
Artist:ZAQ
ArtistUnicode:ZAQ
Creator:SkyFlame
Version:Alex's Normal
Source:トリニティセブン
Tags:grandfinals hr1 gf osu! world cup owc 2019 trinity 7人の魔書使い op opening full version ver. japanese 7-nin no Mahoutsukai anime pop rock jpop jrock j-pop j-rock alexsander paradogi nelliel knowledgeking
BeatmapID:2409303
BeatmapSetID:1078911

[Difficulty]
HPDrainRate:4
CircleSize:3
OverallDifficulty:4
ApproachRate:5
SliderMultiplier:1.2
SliderTickRate:1

[Events]
//Background and Video events
0,0,"51666.jpg",0,0
//Break Periods
2,91882,96388
2,175825,182401
//Storyboard Layer 0 (Background)
//Storyboard Layer 1 (Fail)
//Storyboard Layer 2 (Pass)
//Storyboard Layer 3 (Foreground)
//Storyboard Layer 4 (Overlay)
//Storyboard Sound Samples

[TimingPoints]
656,295.566502463054,4,2,1,70,1,0
5680,291.26213592233,4,2,1,70,1,0
5971,295.566502463054,4,2,1,70,1,0
6562,295.566502463054,4,2,1,70,1,0
9517,291.26213592233,4,2,1,70,1,0
10099,295.566502463054,4,2,1,70,1,0
12167,300,4,2,1,70,1,0
12467,295.566502463054,4,2,1,70,1,0
13353,303.030303030303,4,2,1,70,1,0
13656,285.714285714286,4,2,1,70,1,0
14227,295.566502463054,4,2,1,70,1,0
14818,307.692307692308,4,2,1,70,1,0
15125,294.117647058824,4,2,1,70,1,0
16007,295.566502463054,4,2,1,70,1,0
16893,300,4,2,1,70,1,0
17193,295.566502463054,4,2,1,70,1,0
21922,300,4,2,1,60,1,0
22672,295.566502463054,4,2,1,60,1,0
23115,279.06976744186,4,2,1,60,1,0
23254,295.566502463054,4,2,1,70,1,0
23992,307.692307692308,4,2,1,70,1,0
24299,295.566502463054,4,2,1,40,1,0
26072,315.789473684211,4,2,1,40,1,0
26387,285.714285714286,4,2,1,40,1,0
26672,295.566502463054,4,2,1,40,1,0
27263,287.081339712919,4,2,1,40,1,0
27693,300,4,2,1,40,1,0
28443,307.692307692308,4,2,1,40,1,0
28750,291.26213592233,4,2,1,40,1,0
29041,295.566502463054,4,2,1,40,1,0
29927,324.324324324324,4,2,1,40,1,0
30089,279.06976744186,4,2,1,40,1,0
30368,289.855072463768,4,2,1,40,1,0
31092,295.566502463054,4,2,1,40,1,0
31387,295.566502463054,4,2,1,40,1,0
33603,301.507537688442,4,2,1,40,1,0
33753,-100,4,2,1,40,0,0
34055,-100,4,2,1,65,0,0
34356,295.566502463054,4,2,1,70,1,0
34947,283.018867924528,4,2,1,65,1,0
35230,291.26213592233,4,2,1,65,1,0
35958,300.751879699248,4,2,1,65,1,0
36709,288.461538461538,4,2,1,65,1,0
37285,298.507462686567,4,2,1,65,1,0
38479,288.461538461538,4,2,1,65,1,0
39055,312.5,4,2,1,65,1,0
39367,295.566502463054,4,2,1,65,1,0
39662,295.566502463054,4,2,1,65,1,0
41139,288.461538461538,4,2,1,65,1,0
41715,295.566502463054,4,2,1,65,1,0
42010,309.278350515464,4,2,1,65,1,0
42319,292.682926829268,4,2,1,65,1,0
43197,301.507537688442,4,2,1,65,1,0
44101,287.081339712919,4,2,1,65,1,0
44388,294.840294840295,4,2,1,65,1,0
45567,295.566502463054,4,2,1,65,1,0
46749,300,4,2,1,65,1,0
47649,287.081339712919,4,2,1,65,1,0
48223,301.507537688442,4,2,1,65,1,0
48826,292.682926829268,4,2,1,65,1,0
49118,295.566502463054,4,2,1,65,1,0
51186,297.029702970297,4,2,1,65,1,0
52522,-100,4,2,1,5,0,0
52671,301.507537688442,4,2,1,70,1,0
53123,285.714285714286,4,2,1,70,1,0
53551,300,4,2,1,70,1,0
53851,292.682926829268,4,2,1,80,1,0
53851,-100,4,2,1,80,0,1
54436,295.566502463054,4,2,1,80,1,1
55027,295.566502463054,4,2,1,80,1,1
56800,292.682926829268,4,2,1,80,1,1
57385,298.507462686567,4,2,1,80,1,1
58579,294.117647058824,4,2,1,80,1,1
59755,295.566502463054,4,2,1,80,1,1
60346,303.030303030303,4,2,1,80,1,1
60649,295.566502463054,4,2,1,80,1,1
60944,301.507537688442,4,2,1,80,1,1
61396,292.682926829268,4,2,1,80,1,1
61688,279.06976744186,4,2,1,80,1,1
61827,292.682926829268,4,2,1,80,1,1
62705,309.278350515464,4,2,1,80,1,1
63014,291.26213592233,4,2,1,100,1,1
63305,294.840294840295,4,2,1,80,1,0
63305,-100,4,2,1,80,0,1
64484,295.566502463054,4,2,1,80,1,1
67439,306.122448979592,4,2,1,80,1,1
67745,287.081339712919,4,2,1,80,1,1
68032,295.566502463054,4,2,1,100,1,1
69362,-100,4,2,1,80,0,1
69509,-100,4,2,1,100,0,1
69805,299.25187032419,4,2,1,100,1,1
69954,-100,4,2,1,80,0,1
70104,-100,4,2,1,100,0,1
70403,291.26213592233,4,2,1,100,1,1
70985,303.030303030303,4,2,1,100,1,1
71288,337.078651685393,4,2,1,80,1,1
71456,281.69014084507,4,2,1,80,1,1
71596,288.461538461538,4,2,1,100,1,1
71884,-100,4,2,1,80,0,1
72172,295.566502463054,4,2,1,100,1,1
72763,295.566502463054,4,2,1,100,1,0
73501,283.018867924528,4,2,1,70,1,0
73642,300,4,2,1,70,1,0
74092,280.373831775701,4,2,1,70,1,0
74372,300,4,2,1,70,1,0
75122,312.5,4,2,1,70,1,0
75590,287.081339712919,4,2,1,70,1,0
76164,295.566502463054,4,2,1,70,1,0
76459,283.018867924528,4,2,1,70,1,0
76742,295.566502463054,4,2,1,70,1,0
77480,295.566502463054,4,2,1,80,1,1
78662,300,4,2,1,80,1,0
79262,295.566502463054,4,2,1,80,1,0
79853,297.029702970297,4,2,1,70,1,0
81041,294.117647058824,4,2,1,70,1,0
81923,303.030303030303,4,2,1,70,1,0
82377,293.398533007335,4,2,1,70,1,0
82817,295.566502463054,4,2,1,70,1,0
83408,292.682926829268,4,2,1,70,1,0
83700,307.692307692308,4,2,1,70,1,0
84007,300,4,2,1,70,1,0
84607,285.714285714286,4,2,1,70,1,0
84892,291.26213592233,4,2,1,70,1,0
86057,294.117647058824,4,2,1,70,1,0
86645,303.030303030303,4,2,1,70,1,0
87099,295.566502463054,4,2,1,70,1,0
87837,292.682926829268,4,2,1,70,1,0
88129,304.568527918782,4,2,1,70,1,0
88738,279.06976744186,4,2,1,70,1,0
89017,307.692307692308,4,2,1,70,1,0
89324,294.117647058824,4,2,1,50,1,0
90500,295.566502463054,4,2,1,50,1,0
91682,-100,4,2,1,5,0,0
91756,-100,4,2,1,50,0,0
93160,300,4,2,1,50,1,0
93760,287.081339712919,4,2,1,50,1,0
94047,294.117647058824,4,2,1,50,1,0
95223,292.682926829268,4,2,1,50,1,0
96101,300,4,2,1,50,1,0
96401,295.566502463054,4,2,1,50,1,0
97287,301.507537688442,4,2,1,50,1,0
97588,-100,4,2,1,100,0,0
97890,291.26213592233,4,2,1,100,1,0
98617,-100,4,2,1,60,0,0
98763,295.566502463054,4,2,1,70,1,0
99058,301.507537688442,4,2,1,70,1,0
99962,283.018867924528,4,2,1,70,1,0
100245,297.029702970297,4,2,1,70,1,0
100839,306.122448979592,4,2,1,70,1,0
101145,295.566502463054,4,2,1,70,1,0
102327,291.26213592233,4,2,1,70,1,0
102909,297.029702970297,4,2,1,70,1,0
103503,292.682926829268,4,2,1,70,1,0
104381,315.789473684211,4,2,1,70,1,0
104696,288.461538461538,4,2,1,70,1,0
104984,298.507462686567,4,2,1,70,1,0
105879,295.566502463054,4,2,1,70,1,0
106617,291.26213592233,4,2,1,70,1,0
106762,277.777777777778,4,2,1,70,1,0
106970,335.195530726257,4,2,1,70,1,0
107053,304.568527918782,4,2,1,70,1,0
107053,-100,4,2,1,70,0,0
107357,-100,4,2,1,70,0,0
107662,-100,4,2,1,70,0,0
107814,-100,4,2,1,75,0,0
107966,268.456375838926,4,2,1,75,1,0
108234,285.714285714286,4,2,1,100,1,0
108519,295.566502463054,4,2,1,100,1,0
108666,-100,4,2,1,65,0,0
108962,-100,4,2,1,100,0,0
109405,295.566502463054,4,2,1,65,1,0
109700,-100,4,2,1,100,0,0
110882,300,4,2,1,100,1,0
111482,315.789473684211,4,2,1,65,1,0
111639,295.566502463054,4,2,1,100,1,0
112673,292.682926829268,4,2,1,100,1,0
112965,296.296296296296,4,2,1,100,1,0
113409,-100,4,2,1,65,0,0
114002,-100,4,2,1,100,0,0
114150,295.566502463054,4,2,1,65,1,0
114445,-100,4,2,1,100,0,0
115332,291.26213592233,4,2,1,100,1,0
116497,295.566502463054,4,2,1,100,1,0
117679,300,4,2,1,100,1,0
118579,295.566502463054,4,2,1,65,1,0
118726,-100,4,2,1,100,0,0
119021,-100,4,2,1,65,0,0
119170,287.081339712919,4,2,1,65,1,0
119457,298.507462686567,4,2,1,65,1,0
120054,294.117647058824,4,2,1,65,1,0
121083,297.029702970297,4,2,1,65,1,0
121528,293.398533007335,4,2,1,65,1,0
121821,301.507537688442,4,2,1,65,1,0
122122,285.714285714286,4,2,1,100,1,0
122407,306.122448979592,4,2,1,100,1,0
122713,295.566502463054,4,2,1,65,1,0
123303,-100,4,2,1,100,0,0
123599,295.566502463054,4,2,1,100,1,0
124337,-100,4,2,1,65,0,0
124485,-100,4,2,1,100,0,0
124633,-100,4,2,1,65,0,0
125815,-100,4,2,1,5,0,0
125963,300,4,2,1,70,1,0
126413,292.682926829268,4,2,1,70,1,0
127144,295.566502463054,4,2,1,80,1,1
128030,297.029702970297,4,2,1,80,1,1
129218,291.26213592233,4,2,1,80,1,1
129509,295.566502463054,4,2,1,80,1,1
133055,301.507537688442,4,2,1,80,1,1
133658,285.714285714286,4,2,1,80,1,1
134229,295.566502463054,4,2,1,80,1,1
134672,298.507462686567,4,2,1,80,1,1
135567,295.566502463054,4,2,1,80,1,1
135862,284.36018957346,4,2,1,80,1,1
136004,295.566502463054,4,2,1,80,1,1
136521,-100,4,2,1,80,0,0
136595,304.568527918782,4,2,1,80,1,1
136899,295.566502463054,4,2,1,80,1,1
137785,295.566502463054,4,2,1,80,1,1
138967,292.682926829268,4,2,1,80,1,1
139552,298.507462686567,4,2,1,80,1,1
140447,295.566502463054,4,2,1,80,1,1
141333,295.566502463054,4,2,1,100,1,1
142219,315.789473684211,4,2,1,80,1,1
142376,294.117647058824,4,2,1,80,1,1
143699,295.566502463054,4,2,1,80,1,1
145472,304.568527918782,4,2,1,80,1,1
145776,291.26213592233,4,2,1,80,1,1
146067,295.566502463054,4,2,1,70,1,0
150796,298.507462686567,4,2,1,70,1,0
151990,-100,4,2,1,70,0,0
152139,-100,4,2,1,74,0,0
152288,-100,4,2,1,70,0,0
152587,289.855072463768,4,2,1,74,1,0
153456,294.117647058824,4,2,1,74,1,0
154191,295.566502463054,4,2,1,74,1,0
154338,295.566502463054,4,2,1,74,1,0
156406,291.26213592233,4,2,1,74,1,0
156697,295.566502463054,4,2,1,74,1,0
157583,301.507537688442,4,2,1,74,1,0
158186,292.682926829268,4,2,1,74,1,0
159064,292.682926829268,4,2,1,80,1,0
160820,303.030303030303,4,2,1,80,1,0
161426,295.566502463054,4,2,1,74,1,0
164825,298.507462686567,4,2,1,74,1,0
165869,285.714285714286,4,2,1,74,1,0
166154,295.566502463054,4,2,1,80,1,0
167631,300,4,2,1,80,1,0
168231,284.36018957346,4,2,1,80,1,0
168515,298.507462686567,4,2,1,80,1,0
169559,303.030303030303,4,2,1,80,1,0
170013,284.36018957346,4,2,1,80,1,0
170297,295.566502463054,4,2,1,80,1,0
170888,310.880829015544,4,2,1,82,1,0
171354,295.566502463054,4,2,1,82,1,0
171797,292.682926829268,4,2,1,82,1,0
172382,-100,4,2,1,82,0,0
172967,288.461538461538,4,2,1,75,1,0
173255,295.566502463054,4,2,1,85,1,0
174437,292.682926829268,4,2,1,75,1,0
175315,295.566502463054,4,2,1,70,1,0
175512,340.909090909091,4,2,1,70,1,0
175625,295.566502463054,4,2,1,40,1,0
177398,300,4,2,1,40,1,0
177998,295.566502463054,4,2,1,40,1,0
179623,270.27027027027,4,2,1,40,1,0
179758,300,4,2,1,40,1,0
180358,295.566502463054,4,2,1,40,1,0
183165,291.26213592233,4,2,1,40,1,0
183601,287.081339712919,4,2,1,70,1,0
183601,-100,4,2,1,70,0,0
184031,295.566502463054,4,2,1,70,1,0
184769,306.122448979592,4,2,1,70,1,0
185075,304.568527918782,4,2,1,100,1,0
185075,-100,4,2,1,100,0,0
185684,295.566502463054,4,2,1,100,1,0
186570,-100,4,2,1,68,0,0
186718,271.493212669683,4,2,1,68,1,0
186853,295.566502463054,4,2,1,100,1,0
188182,-100,4,2,1,68,0,0
188330,-100,4,2,1,100,0,0
188626,292.682926829268,4,2,1,68,1,0
188773,-100,4,2,1,100,0,0
189357,-100,4,2,1,100,0,0
189504,295.566502463054,4,2,1,72,1,0
189799,303.030303030303,4,2,1,100,1,0
190708,289.855072463768,4,2,1,100,1,0
191577,294.117647058824,4,2,1,70,1,0
191871,-100,4,2,1,100,0,0
192165,303.030303030303,4,2,1,80,1,0
192165,-100,4,2,1,80,0,1
192771,295.566502463054,4,2,1,80,1,1
193362,291.26213592233,4,2,1,80,1,1
193944,295.566502463054,4,2,1,70,1,0
194387,-100,4,2,1,70,0,1
194535,295.566502463054,4,2,1,84,1,1
194830,291.26213592233,4,2,1,84,1,1
195412,297.029702970297,4,2,1,84,1,1
195709,297.029702970297,4,2,1,84,1,1
196897,295.566502463054,4,2,1,84,1,1
200148,289.855072463768,4,2,1,84,1,1
200437,300,4,2,1,84,1,1
201637,291.26213592233,4,2,1,84,1,1
202510,295.566502463054,4,2,1,84,1,1
203692,298.507462686567,4,2,1,84,1,1
203915,-100,4,2,1,84,0,0
203990,295.566502463054,4,2,1,84,1,0
204285,-100,4,2,1,84,0,1
211083,300,4,2,1,84,1,1
212283,295.566502463054,4,2,1,84,1,1
213465,303.030303030303,4,2,1,70,1,0
213919,285.714285714286,4,2,1,100,1,0
214347,292.682926829268,4,2,1,70,1,0
215078,-100,4,2,1,100,0,0
215517,298.507462686567,4,2,1,100,1,0
215815,306.122448979592,4,2,1,70,1,0
216274,289.855072463768,4,2,1,100,1,0
217288,303.030303030303,4,2,1,100,1,0
217894,295.566502463054,4,2,1,100,1,0
218189,-100,4,2,1,100,0,0
218337,303.030303030303,4,2,1,80,1,0
218640,292.682926829268,4,2,1,100,1,0
218932,-100,4,2,1,80,0,0
219078,-100,4,2,1,100,0,0
219810,298.507462686567,4,2,1,80,1,0
219959,-100,4,2,1,100,0,0
220556,295.566502463054,4,2,1,80,1,0
220999,-100,4,2,1,100,0,0
221738,288.461538461538,4,2,1,80,1,0
222602,-100,4,2,1,100,0,0
222891,298.507462686567,4,2,1,80,1,0
222891,-100,4,2,1,80,0,1
223338,-100,4,2,1,84,0,1
223488,-100,4,2,1,80,0,1
224085,295.566502463054,4,2,1,84,1,1
225267,-100,4,2,1,84,0,0
225857,-100,4,2,1,70,0,0
225858,303.030303030303,4,2,1,70,1,0
226464,292.682926829268,4,2,1,70,1,0
227342,295.566502463054,4,2,1,70,1,0
227637,295.566502463054,4,2,1,70,1,0
228819,298.507462686567,4,2,1,70,1,0
230013,291.26213592233,4,2,1,70,1,0
230886,298.507462686567,4,2,1,70,1,0
231781,295.566502463054,4,2,1,70,1,0
232372,295.566502463054,4,2,1,60,1,0
233554,287.081339712919,4,2,1,60,1,0
233697,295.566502463054,4,2,1,70,1,0
234288,292.682926829268,4,2,1,70,1,0
234434,-100,4,2,1,75,0,0
234580,-100,4,2,1,70,0,0
235166,288.461538461538,4,2,1,75,1,0
235454,280.373831775701,4,2,1,75,1,0
235594,-100,4,2,1,80,0,0
235734,272.727272727273,4,2,1,80,1,0

[Colours]
Combo1 : 192,63,75
Combo2 : 231,184,220
Combo3 : 75,192,226
Combo4 : 190,176,196
SliderBorder : 190,176,196

[HitObjects]
44,7,5385,5,4,3:2:0:0:
5,96,5680,2,0,L|28:231,1,120,10|2,0:0|3:2,0:0:0:0:
24,262,6118,1,2,0:0:0:0:
113,226,6414,2,0,P|183:206|238:231,1,120,2|0,0:0|0:0,0:0:0:0:
270,237,6857,2,0,L|296:179,2,60,10|0|2,0:0|0:0|3:2,0:0:0:0:
276,284,7300,1,2,0:0:0:0:
360,339,7596,1,2,0:0:0:0:
360,339,7744,6,0,P|418:304|428:251,2,120,0|8|0,3:2|0:0|3:2,0:0:0:0:
266,360,8630,1,8,0:0:0:0:
170,357,8926,2,0,L|41:348,1,120,2|8,3:2|0:0,0:0:0:0:
15,257,9517,2,0,P|13:198|50:147,1,120,2|8,3:2|0:0,0:0:0:0:
141,149,10099,5,4,3:2:0:0:
229,188,10394,2,0,P|302:200|359:192,1,120,10|2,0:0|3:2,0:0:0:0:
384,164,10837,1,2,0:0:0:0:
478,144,11133,2,0,P|493:95|452:28,1,120,0|2,0:0|0:0,0:0:0:0:
417,22,11576,1,8,0:0:0:0:
321,35,11872,2,0,L|333:99,2,60,2|0|14,3:2|0:0|0:0,0:0:0:0:
237,85,12467,6,0,P|191:87|116:46,1,120,10|0,0:0|3:2,0:0:0:0:
95,18,12910,1,8,0:0:0:0:
26,85,13205,1,0,3:2:0:0:
26,85,13353,2,0,L|46:220,1,120,8|0,0:0|3:2,0:0:0:0:
57,249,13798,2,0,P|103:229|181:236,1,120,8|0,0:0|3:2,0:0:0:0:
211,257,14227,1,8,0:0:0:0:
283,194,14522,1,12,0:0:0:0:
220,126,14818,6,0,P|272:102|340:124,1,120,4|10,3:2|0:0,0:0:0:0:
417,156,15419,2,0,B|426:223,1,60,2|2,3:2|0:0,0:0:0:0:
445,309,15860,2,0,P|400:299|320:302,1,120,2|0,0:0|0:0,0:0:0:0:
281,318,16302,1,10,0:0:0:0:
189,346,16598,1,2,3:2:0:0:
106,305,16893,2,0,P|86:284|75:252,1,60,8|2,0:0|0:0,0:0:0:0:
81,206,17193,6,0,L|92:87,2,120,0|8|0,3:2|0:0|3:2,0:0:0:0:
174,227,18079,1,8,0:0:0:0:
260,185,18375,2,0,P|322:159|386:188,1,120,2|8,3:2|0:0,0:0:0:0:
365,270,18966,2,0,P|303:296|239:267,1,120,2|8,3:2|0:0,0:0:0:0:
174,227,19557,1,4,3:2:0:0:
136,138,19853,2,0,L|156:15,1,120,10|2,0:0|3:2,0:0:0:0:
202,12,20296,1,2,0:0:0:0:
254,92,20592,6,0,P|316:98|381:76,1,120,2|2,0:0|0:0,0:0:0:0:
463,57,21183,2,0,L|500:-1,2,60,2|2|0,0:0|3:2|0:0,0:0:0:0:
468,104,21626,1,10,0:0:0:0:
492,195,21922,5,14,0:0:0:0:
74,83,23254,1,10,3:2:0:0:
155,133,23549,1,10,3:2:0:0:
176,226,23845,1,10,3:2:0:0:
176,226,23992,1,10,3:2:0:0:
95,284,24299,6,0,B|194:245|185:326|275:278,1,180,6|2,0:0|0:0,0:0:0:0:
305,251,24890,1,2,0:0:0:0:
217,136,25333,2,0,P|210:80|263:25,1,120,2|2,0:0|0:0,0:0:0:0:
293,20,25776,1,2,0:0:0:0:
376,52,26072,1,0,0:0:0:0:
480,66,26387,2,0,L|500:129,1,60,2|2,0:0|0:0,0:0:0:0:
498,169,26672,6,0,P|452:148|372:158,1,120,2|2,0:0|0:0,0:0:0:0:
329,235,27263,2,0,L|350:309,2,60,2|2|2,0:0|0:0|0:0,0:0:0:0:
291,208,27693,2,0,P|237:189|170:220,1,120,2|0,0:0|0:0,0:0:0:0:
139,235,28143,1,0,0:0:0:0:
93,316,28443,1,0,0:0:0:0:
236,355,28895,1,2,0:0:0:0:
236,355,29041,6,0,P|278:336|354:336,1,120,2|2,0:0|0:0,0:0:0:0:
398,333,29484,2,0,L|432:275,1,60,2|2,0:0|0:0,0:0:0:0:
379,131,30089,2,0,P|356:162|343:200,1,60,2|0,0:0|0:0,0:0:0:0:
280,241,30512,1,2,0:0:0:0:
187,216,30802,1,2,0:0:0:0:
93,223,31092,1,2,0:0:0:0:
256,192,31387,12,0,32569,0:0:0:0:
142,166,33753,6,0,L|117:39,2,120,10|10|10,3:2|3:2|3:2,0:0:0:0:
225,215,34651,1,14,3:2:0:0:
281,132,34947,6,0,P|333:103|397:113,1,120,6|10,3:2|0:0,0:0:0:0:
433,132,35375,1,2,3:2:0:0:
489,54,35666,1,2,3:2:0:0:
402,18,35958,2,0,L|275:10,1,120,10|0,0:0|3:2,0:0:0:0:
243,39,36409,1,10,0:2:0:0:
144,25,36709,2,0,P|106:23|76:31,1,60,2|0,3:2|3:2,0:0:0:0:
47,57,36997,1,10,0:0:0:0:
23,146,37285,6,0,L|58:270,1,120,2|10,3:2|0:0,0:0:0:0:
146,292,37882,2,0,P|194:278|218:278,1,60,2|0,3:2|3:2,0:0:0:0:
247,295,38180,1,2,0:0:0:0:
247,295,38329,2,0,P|265:255|266:211,1,60,10|0,0:0|0:0,0:0:0:0:
265,143,38767,2,0,L|137:144,1,120,8|2,0:0|3:2,0:0:0:0:
102,160,39211,1,0,3:2:0:0:
102,160,39367,1,10,0:0:0:0:
99,63,39662,6,0,P|141:37|217:45,1,120,2|10,3:2|0:0,0:0:0:0:
252,61,40105,1,2,3:2:0:0:
347,55,40400,1,2,3:2:0:0:
411,126,40696,2,0,L|389:256,1,120,10|0,0:0|3:2,0:0:0:0:
368,288,41139,1,10,0:0:0:0:
273,270,41427,1,2,3:2:0:0:
192,317,41715,2,0,P|170:292|165:250,1,60,10|0,0:0|0:0,0:0:0:0:
168,221,42010,6,0,L|41:213,1,120,6|8,3:2|0:0,0:0:0:0:
7,132,42611,1,2,3:2:0:0:
7,132,42758,2,0,L|28:72,1,60,2|8,3:2|0:0,0:0:0:0:
113,41,43197,2,0,B|163:28|163:28|239:46,1,120,4|8,3:2|0:0,0:0:0:0:
254,136,43800,2,0,L|236:203,1,60,0|0,3:2|3:2,0:0:0:0:
258,240,44101,1,8,0:0:0:0:
333,295,44388,6,0,L|461:276,1,120,14|10,3:2|0:0,0:0:0:0:
484,242,44830,1,0,0:0:0:0:
428,163,45125,1,2,3:2:0:0:
488,88,45419,2,0,P|438:67|374:87,1,120,2|0,0:0|0:0,0:0:0:0:
342,118,45862,1,8,0:0:0:0:
259,69,46158,2,0,L|249:3,2,60,2|0|10,3:2|3:2|0:0,0:0:0:0:
191,135,46749,6,0,P|144:119|69:142,1,120,2|10,3:2|0:0,0:0:0:0:
44,170,47199,1,2,0:0:0:0:
30,265,47499,1,0,0:0:0:0:
104,328,47792,2,0,L|236:311,1,120,2|0,0:0|0:0,0:0:0:0:
266,297,48223,1,10,0:0:0:0:
213,218,48524,1,2,3:2:0:0:
261,131,48826,1,10,0:0:0:0:
352,156,49118,6,0,P|406:167|469:135,2,120,6|8|0,3:2|0:0|3:2,0:0:0:0:
261,131,50004,1,8,0:0:0:0:
180,183,50300,2,0,L|54:176,1,120,2|10,3:2|0:0,0:0:0:0:
17,154,50743,2,0,P|51:218|33:262,1,120,2|0,0:0|0:0,0:0:0:0:
9,298,51186,1,14,0:0:0:0:
256,192,51334,12,8,52671,3:2:0:0:
46,33,53851,6,0,P|105:60|171:47,1,120,6|8,3:2|0:0,0:0:0:0:
251,69,54436,2,0,L|240:133,2,60,0|0|10,3:2|3:2|0:0,0:0:0:0:
288,38,54879,2,0,P|345:25|407:54,1,120,2|0,3:2|3:2,0:0:0:0:
454,127,55470,2,0,L|433:255,1,120,0|2,0:0|3:2,0:0:0:0:
414,289,55913,1,10,0:0:0:0:
414,289,56061,6,0,P|379:255|299:251,1,120,2|0,0:0|0:0,0:0:0:0:
274,278,56504,1,10,0:0:0:0:
180,251,56800,1,2,3:2:0:0:
94,294,57092,1,10,0:0:0:0:
94,294,57239,2,0,P|66:255|63:227,1,60,2|0,0:0|3:2,0:0:0:0:
74,197,57534,1,0,0:0:0:0:
161,154,57832,1,2,0:0:0:0:
161,154,57982,2,0,L|234:149,1,60,2|2,3:2|3:2,0:0:0:0:
275,71,58429,1,2,0:0:0:0:
275,71,58579,6,0,P|234:37|161:41,1,120,4|8,3:2|0:0,0:0:0:0:
76,58,59167,2,0,L|70:-6,2,60,0|0|10,3:2|3:2|0:0,0:0:0:0:
74,105,59608,2,0,L|57:231,1,120,2|0,0:0|0:0,0:0:0:0:
108,304,60198,1,2,0:0:0:0:
198,274,60497,1,2,3:2:0:0:
280,336,60796,1,0,0:0:0:0:
280,336,60944,6,0,P|332:346|391:312,1,120,10|2,0:0|3:2,0:0:0:0:
427,283,61396,2,0,L|410:153,1,120,10|2,0:0|3:2,0:0:0:0:
386,125,61827,2,0,P|334:115|275:149,1,120,10|0,0:0|3:2,0:0:0:0:
255,188,62266,1,14,0:0:0:0:
126,142,62705,2,0,L|114:58,1,60,10|0,0:0|0:0,0:0:0:0:
129,33,63014,1,14,0:0:0:0:
223,28,63305,6,0,B|265:39|265:39|353:8,1,120,6|8,3:2|0:0,0:0:0:0:
433,17,63894,2,0,L|424:82,1,60,0|0,3:2|3:2,0:0:0:0:
410,122,64189,1,10,0:0:0:0:
410,122,64336,2,0,L|431:252,1,120,2|0,0:0|0:0,0:0:0:0:
416,287,64779,1,10,0:0:0:0:
337,342,65075,2,0,P|282:356|217:334,1,120,2|8,3:2|0:0,0:0:0:0:
186,306,65518,1,2,0:0:0:0:
186,306,65666,6,0,L|205:177,1,120,2|10,3:2|0:0,0:0:0:0:
181,93,66257,2,0,P|129:65|60:84,1,120,2|10,0:0|0:0,0:0:0:0:
41,113,66700,1,0,0:0:0:0:
105,184,66996,1,2,3:2:0:0:
61,269,67291,2,0,P|98:278|138:273,1,60,2|0,3:2|3:2,0:0:0:0:
203,217,67745,1,8,0:0:0:0:
278,273,68032,6,0,L|403:259,1,120,6|2,3:2|0:0,0:0:0:0:
439,173,68623,2,0,L|319:186,1,120,10|2,0:0|0:0,0:0:0:0:
281,157,69066,1,2,3:2:0:0:
203,217,69362,1,0,0:0:0:0:
203,217,69509,1,2,3:2:0:0:
147,140,69805,2,0,L|138:71,1,60,10|0,0:0|0:0,0:0:0:0:
163,38,70104,1,2,0:0:0:0:
262,44,70403,6,0,P|306:58|385:28,1,120,6|0,3:2|0:0,0:0:0:0:
465,54,70985,2,0,L|447:182,1,120,10|0,0:0|0:0,0:0:0:0:
408,267,71596,2,0,P|364:249|285:263,1,120,2|0,0:0|0:0,0:0:0:0:
225,322,72172,2,0,B|182:335|182:335|93:317,1,120,10|0,0:0|3:2,0:0:0:0:
70,290,72615,1,0,0:0:0:0:
70,290,72763,6,0,L|87:221,1,60,14|2,3:2|0:0,0:0:0:0:
148,160,73206,1,10,3:2:0:0:
239,199,73501,1,2,0:0:0:0:
239,199,73642,2,0,P|280:198|305:187,1,60,10|2,3:2|0:0,0:0:0:0:
375,124,74092,1,10,3:2:0:0:
317,55,74372,2,0,B|340:-4,2,60,2|10|2,3:2|3:2|3:2,0:0:0:0:
276,81,74822,1,10,3:2:0:0:
190,46,75122,6,0,P|142:35|85:78,1,120,14|0,3:2|0:0,0:0:0:0:
69,122,75590,2,0,L|93:257,1,120,14|2,3:2|3:2,0:0:0:0:
87,287,76020,1,14,3:2:0:0:
269,359,76600,2,0,L|335:349,1,60,10|8,0:0|0:0,0:0:0:0:
370,327,76889,2,0,P|357:287|356:252,1,60,10|8,0:0|0:0,0:0:0:0:
375,225,77185,1,10,0:0:0:0:
304,159,77480,6,0,L|178:171,1,120,14|10,3:2|3:2,0:0:0:0:
140,150,77923,1,0,0:0:0:0:
140,150,78071,2,0,P|128:86|157:33,1,120,8|8,3:2|3:2,0:0:0:0:
245,32,78662,2,0,L|380:44,1,120,10|10,3:2|3:2,0:0:0:0:
402,72,79112,1,2,3:2:0:0:
454,152,79409,1,10,3:2:0:0:
385,219,79705,1,10,3:2:0:0:
385,219,79853,5,4,3:2:0:0:
432,302,80150,2,0,P|377:313|313:282,1,120,10|2,0:0|3:2,0:0:0:0:
290,253,80595,1,2,0:0:0:0:
196,274,80892,2,0,L|65:270,1,120,2|0,0:0|0:0,0:0:0:0:
28,262,81335,2,0,L|9:334,2,60,10|2|2,0:0|0:0|3:2,0:0:0:0:
22,214,81776,1,2,0:0:0:0:
111,177,82074,1,0,0:0:0:0:
111,177,82226,6,0,L|191:168,1,60
263,210,82670,1,0,0:0:0:0:
263,210,82817,1,0,3:2:0:0:
358,208,83112,1,8,0:0:0:0:
440,258,83408,2,0,P|470:210|453:130,1,120,2|8,3:2|0:0,0:0:0:0:
407,68,84007,2,0,L|269:82,1,120,2|8,3:2|0:0,0:0:0:0:
191,48,84607,5,4,3:2:0:0:
100,74,84892,2,0,P|83:47|81:11,2,60,10|0|2,0:0|0:0|3:2,0:0:0:0:
126,116,85328,1,2,0:0:0:0:
198,179,85620,2,0,P|215:245|189:291,1,120,0|2,0:0|0:0,0:0:0:0:
154,312,86057,1,10,0:0:0:0:
230,369,86351,2,0,L|299:363,1,60,2|2,3:2|0:0,0:0:0:0:
382,347,86796,6,0,B|404:307|404:307|383:228,1,120,2|0,0:0|0:0,0:0:0:0:
358,195,87246,1,8,0:0:0:0:
294,267,87542,1,0,3:2:0:0:
214,212,87837,2,0,L|149:209,1,60,8|0,0:0|0:0,0:0:0:0:
116,235,88129,2,0,P|64:251|1:215,1,120,2|8,3:2|0:0,0:0:0:0:
71,139,88738,2,0,P|86:98|77:59,1,60,0|0,3:2|0:0,0:0:0:0:
77,39,89017,2,0,L|145:29,1,60,8|0,0:0|0:0,0:0:0:0:
184,46,89324,1,14,0:0:0:0:
256,192,89471,12,0,91682,0:0:0:0:
411,358,97588,5,14,0:0:0:0:
470,277,97890,2,0,P|482:239|475:207,1,60,8|8,0:3|0:3,0:0:0:0:
454,132,98326,1,8,0:3:0:0:
454,132,98472,2,0,P|418:126|392:132,1,60,4|0,0:3|0:0,0:0:0:0:
360,163,98763,6,0,L|328:38,1,120,6|10,3:2|0:0,0:0:0:0:
289,22,99208,1,2,3:2:0:0:
212,79,99510,1,2,3:2:0:0:
150,13,99811,1,2,0:0:0:0:
150,13,99962,2,0,L|85:30,1,60,2|0,3:2|0:0,0:0:0:0:
49,45,100245,2,0,P|80:75|77:159,1,120,10|2,0:0|0:0,0:0:0:0:
37,229,100839,2,0,P|79:242|98:242,1,60,10|2,3:2|0:0,0:0:0:0:
144,237,101145,6,0,L|166:360,1,120,2|10,3:2|0:0,0:0:0:0:
207,378,101588,2,0,P|252:349|326:359,1,120,2|2,3:2|0:0,0:0:0:0:
411,342,102179,1,2,0:0:0:0:
411,342,102327,2,0,B|440:304|440:304|426:222,1,120,0|8,3:2|0:0,0:0:0:0:
348,181,102909,1,2,3:2:0:0:
262,225,103206,1,10,0:0:0:0:
175,180,103503,6,0,P|152:127|178:61,1,120,6|8,3:2|0:0,0:0:0:0:
198,30,103942,1,2,3:2:0:0:
284,72,104234,1,0,0:0:0:0:
363,24,104538,2,0,P|396:19|426:27,1,60,2|0,0:0|3:2,0:0:0:0:
454,59,104840,1,2,0:0:0:0:
481,149,105133,2,0,L|463:289,1,120,2|0,3:2|0:0,0:0:0:0:
456,315,105581,1,10,3:2:0:0:
372,364,105879,5,10,3:2:0:0:
287,319,106174,1,10,3:2:0:0:
287,319,106322,1,10,3:2:0:0:
205,372,106617,1,10,3:2:0:0:
205,372,106762,2,0,L|127:358,1,60,10|8,3:2|3:2,0:0:0:0:
106,334,107053,2,0,P|130:276|110:213,1,120,14|14,3:2|3:2,0:0:0:0:
54,148,107662,2,0,P|46:106|53:75,1,60,14|0,3:2|0:0,0:0:0:0:
77,43,107966,1,14,3:2:0:0:
155,87,108234,6,0,L|283:78,1,120,6|10,3:2|0:0,0:0:0:0:
309,109,108666,1,0,0:0:0:0:
264,195,108962,1,2,3:2:0:0:
321,271,109257,2,0,P|265:295|203:270,1,120,10|0,0:0|3:2,0:0:0:0:
176,246,109700,1,10,0:2:0:0:
128,162,109996,2,0,L|136:89,1,60,2|0,3:2|3:2,0:0:0:0:
107,65,110291,1,10,0:0:0:0:
41,135,110587,6,0,L|29:266,1,120,2|10,3:2|0:0,0:0:0:0:
2,346,111182,2,0,P|39:346|74:332,1,60,2|0,0:0|3:2,0:0:0:0:
110,338,111482,1,2,0:0:0:0:
110,338,111639,2,0,L|244:343,1,120,10|0,0:0|3:2,0:0:0:0:
273,362,112082,1,8,0:0:0:0:
367,346,112377,2,0,L|434:351,1,60,2|0,3:2|3:2,0:0:0:0:
474,335,112673,1,10,0:0:0:0:
444,245,112965,6,0,P|392:227|331:249,1,120,2|10,3:2|0:0,0:0:0:0:
301,283,113409,1,0,0:0:0:0:
227,230,113705,1,0,0:0:0:0:
290,150,114002,2,0,P|237:124|180:139,1,120,10|0,0:0|0:0,0:0:0:0:
143,169,114445,1,10,0:0:0:0:
80,95,114741,1,2,3:2:0:0:
136,17,115036,2,0,L|203:7,1,60,10|0,0:0|0:0,0:0:0:0:
244,11,115332,6,0,L|375:19,1,120,6|8,3:2|0:0,0:0:0:0:
430,79,115914,1,2,3:2:0:0:
430,79,116060,2,0,P|399:135|414:191,1,120,2|2,3:2|0:0,0:0:0:0:
441,223,116497,2,0,L|317:219,1,120,4|8,3:2|0:0,0:0:0:0:
229,201,117087,2,0,L|237:273,1,60,0|8,3:2|0:0,0:0:0:0:
272,292,117383,2,0,L|264:364,1,60,8|8,0:0|0:0,0:0:0:0:
222,372,117679,6,0,P|172:346|96:356,1,120,14|10,3:2|0:0,0:0:0:0:
68,366,118129,1,2,0:0:0:0:
15,285,118429,1,2,3:2:0:0:
78,213,118726,2,0,B|93:168|93:168|71:91,1,120,2|0,0:0|0:0,0:0:0:0:
36,63,119170,1,8,0:0:0:0:
119,23,119457,2,0,L|185:28,1,60,0|0,0:0|3:2,0:0:0:0:
212,62,119755,1,10,0:0:0:0:
256,149,120054,6,0,P|279:206|247:268,1,120,2|10,3:2|0:0,0:0:0:0:
227,294,120495,1,2,0:0:0:0:
284,370,120789,1,2,3:2:0:0:
348,299,121083,2,0,L|476:295,1,120,2|0,0:0|0:0,0:0:0:0:
498,257,121528,1,10,0:0:0:0:
456,173,121821,2,0,P|442:134|444:106,1,60,0|0,0:0|3:2,0:0:0:0:
462,75,122122,1,10,0:0:0:0:
380,37,122407,6,0,B|339:23|339:23|236:36,1,120,6|8,3:2|0:0,0:0:0:0:
203,107,123008,2,0,L|218:184,2,60,0|0|8,0:0|3:2|0:0,0:0:0:0:
122,55,123599,2,0,P|66:44|7:85,1,120,2|10,3:2|0:0,0:0:0:0:
6,122,124042,2,0,L|39:258,1,120,2|0,0:0|0:0,0:0:0:0:
24,285,124485,1,14,0:0:0:0:
256,192,124633,12,8,125963,3:2:0:0:
11,335,127144,6,0,L|142:323,1,120,6|8,3:2|0:0,0:0:0:0:
219,288,127735,2,0,P|219:253|199:213,2,60,0|0|10,3:2|3:2|0:0,0:0:0:0:
242,329,128178,2,0,P|304:342|366:317,1,120,0|0,0:0|3:2,0:0:0:0:
440,278,128772,2,0,L|439:143,1,120,2|2,0:0|3:2,0:0:0:0:
436,113,129218,1,10,0:0:0:0:
436,113,129363,6,0,L|358:102,1,60,2|0,0:0|3:2,0:0:0:0:
289,144,129804,1,10,0:0:0:0:
209,89,130100,1,2,3:2:0:0:
152,166,130395,1,10,0:0:0:0:
152,166,130543,2,0,L|80:156,1,60,2|0,0:0|3:2,0:0:0:0:
42,151,130839,2,0,P|20:96|41:32,1,120
77,16,131282,1,2,3:2:0:0:
77,16,131430,1,2,3:2:0:0:
168,47,131725,1,6,0:0:0:0:
168,47,131873,6,0,B|206:59|206:59|299:42,1,120,0|8,0:0|0:0,0:0:0:0:
376,74,132466,2,0,L|441:62,2,60,0|0|10,3:2|3:2|0:0,0:0:0:0:
355,117,132908,1,0,0:0:0:0:
395,202,133205,1,2,0:0:0:0:
352,288,133507,2,0,L|288:279,1,60,2|0,0:0|3:2,0:0:0:0:
261,316,133800,1,2,3:2:0:0:
176,352,134086,1,2,3:2:0:0:
176,352,134229,6,0,L|47:331,1,120,10|2,0:0|3:2,0:0:0:0:
26,296,134672,2,0,B|12:252|12:252|25:163,1,120,10|2,0:0|3:2,0:0:0:0:
53,142,135119,2,0,P|111:169|188:148,1,120,10|0,0:0|3:2,0:0:0:0:
204,132,135567,1,14,0:0:0:0:
258,263,136004,2,0,L|254:334,1,60,10|0,0:0|0:0,0:0:0:0:
285,365,136299,1,14,0:0:0:0:
360,317,136595,6,0,P|403:296|480:318,1,120,6|8,3:2|0:0,0:0:0:0:
505,221,137194,2,0,L|487:156,1,60,0|0,0:0|3:2,0:0:0:0:
467,126,137490,1,10,0:0:0:0:
467,126,137637,2,0,B|428:142|428:142|332:125,1,120
316,95,138080,1,10,0:0:0:0:
249,164,138376,2,0,L|264:289,1,120,2|8,3:2|0:0,0:0:0:0:
245,327,138819,1,2,0:0:0:0:
245,327,138967,6,0,P|192:301|122:307,1,120,2|10,3:2|0:0,0:0:0:0:
39,286,139552,2,0,L|55:150,1,120,2|10,0:0|0:0,0:0:0:0:
74,124,139999,1,0,0:0:0:0:
153,177,140298,1,2,3:2:0:0:
249,164,140594,2,0,P|285:153|324:159,1,60,2|0,3:2|3:2,0:0:0:0:
349,180,140890,1,0,3:2:0:0:
349,180,141038,1,8,0:0:0:0:
432,134,141333,6,0,L|437:1,1,120,6|2,3:2|0:0,0:0:0:0:
345,43,141924,2,0,P|292:52|225:27,1,120,10|2,0:0|0:0,0:0:0:0:
185,5,142376,1,2,3:2:0:0:
129,80,142670,1,2,0:0:0:0:
129,80,142817,1,2,3:2:0:0:
191,153,143111,2,0,P|199:188|194:216,1,60,10|0,0:0|0:0,0:0:0:0:
168,251,143405,1,2,0:0:0:0:
260,277,143699,6,0,L|387:271,1,120,6|0,3:2|0:0,0:0:0:0:
334,356,144290,2,0,L|214:361,1,120,10|0,0:0|0:0,0:0:0:0:
124,327,144881,2,0,P|100:282|111:208,1,120,2|0,0:0|3:2,0:0:0:0:
177,153,145472,2,0,P|185:94|160:41,1,120,10|0,0:0|3:2,0:0:0:0:
94,108,146067,1,14,3:2:0:0:
256,192,146214,12,4,150500,0:0:0:0:
259,56,151990,6,0,L|228:116,1,60,6|0,3:2|0:0,0:0:0:0:
243,155,152288,1,12,0:0:0:0:
341,147,152587,2,0,L|368:93,2,60,2|2|10,3:2|3:2|0:0,0:0:0:0:
348,195,153021,1,0,0:0:0:0:
348,195,153166,2,0,L|364:331,1,120,0|8,0:0|0:0,0:0:0:0:
285,372,153750,1,0,3:2:0:0:
207,326,154044,1,8,0:0:0:0:
207,326,154191,6,0,P|156:303|85:327,1,120,0|2,0:0|0:0,0:0:0:0:
54,341,154633,1,10,0:0:0:0:
54,341,154781,2,0,L|30:218,1,120,0|2,0:0|3:2,0:0:0:0:
75,137,155372,2,0,P|118:115|194:140,1,120,0|2,0:0|3:2,0:0:0:0:
222,161,155815,1,8,3:2:0:0:
222,161,155963,1,2,0:0:0:0:
271,78,156259,1,0,0:0:0:0:
271,78,156406,2,0,L|340:62,1,60,10|2,0:0|0:0,0:0:0:0:
374,49,156697,6,0,L|502:67,2,120,4|8|0,3:2|0:0|3:2,0:0:0:0:
386,142,157583,1,10,0:0:0:0:
386,142,157733,2,0,P|404:208|380:267,1,120,2|0,3:2|3:2,0:0:0:0:
348,284,158186,1,8,0:0:0:0:
252,277,158478,2,0,P|238:248|238:214,2,60,0|0|8,3:2|3:2|0:0,0:0:0:0:
167,323,159064,5,14,3:2:0:0:
167,323,159210,2,0,L|93:318,1,60,0|0,0:0|3:2,0:0:0:0:
63,298,159503,2,0,B|79:257|79:257|62:171,1,120,14|0,0:0|3:2,0:0:0:0:
37,142,159942,1,14,0:0:0:0:
104,73,160234,1,0,3:2:0:0:
104,73,160381,2,0,L|231:82,1,120,14|0,0:0|3:2,0:0:0:0:
258,112,160820,1,14,0:0:0:0:
310,192,161123,2,0,P|317:238|309:262,1,60,14|0,0:0|3:2,0:0:0:0:
303,298,161426,6,0,L|316:361,2,60,6|0|10,3:2|0:0|0:0,0:0:0:0:
398,309,162017,2,0,P|437:309|460:301,1,60,2|0,3:2|3:2,0:0:0:0:
487,265,162312,1,10,0:0:0:0:
442,179,162608,2,0,P|420:130|451:57,1,120,2|10,0:0|0:0,0:0:0:0:
475,38,163051,1,0,0:0:0:0:
475,38,163199,2,0,L|338:27,1,120,2|10,3:2|0:0,0:0:0:0:
285,94,163790,6,0,P|229:112|165:86,1,120,6|10,3:2|0:0,0:0:0:0:
132,67,164233,1,0,0:0:0:0:
132,67,164381,2,0,L|103:3,1,60,2|0,3:2|3:2,0:0:0:0:
45,85,164825,2,0,L|98:202,1,120,2|0,3:2|3:2,0:0:0:0:
134,281,165422,2,0,L|129:356,2,60,2|0|0,0:0|3:2|3:2,0:0:0:0:
172,248,165869,1,12,0:0:0:0:
243,306,166154,6,0,P|296:325|360:297,1,120,6|8,3:2|0:0,0:0:0:0:
300,223,166745,2,0,P|291:190|295:159,1,60,2|2,3:2|3:2,0:0:0:0:
321,125,167040,1,10,0:0:0:0:
321,125,167188,2,0,L|450:130,1,120,6|2,3:2|3:2,0:0:0:0:
501,203,167781,2,0,L|488:339,1,120,2|0,0:0|3:2,0:0:0:0:
460,364,168231,1,8,0:0:0:0:
374,331,168515,6,0,P|339:315|308:317,1,60,6|0,3:2|0:0,0:0:0:0:
279,343,168813,2,0,L|214:341,1,60,10|0,0:0|0:0,0:0:0:0:
177,316,169112,1,2,3:2:0:0:
90,356,169410,1,10,0:0:0:0:
90,356,169559,2,0,P|59:307|71:230,1,120,6|2,3:2|3:2,0:0:0:0:
98,211,170013,1,10,0:0:0:0:
158,141,170297,2,0,L|219:150,1,60,10|10,3:2|3:2,0:0:0:0:
263,163,170592,2,0,L|329:155,1,60,10|2,3:2|3:2,0:0:0:0:
366,170,170888,6,0,B|395:133|395:133|398:53,1,120,14|0,3:2|0:0,0:0:0:0:
360,25,171354,2,0,P|317:37|240:20,1,120,14|0,3:2|0:0,0:0:0:0:
198,8,171797,1,14,3:2:0:0:
54,135,172382,2,0,B|86:115|86:115|193:126,1,120,8|4,0:3|0:3,0:0:0:0:
225,201,172967,1,4,0:3:0:0:
301,147,173255,6,0,P|352:130|426:169,1,120,14|0,3:2|0:0,0:0:0:0:
444,187,173698,2,0,L|424:312,1,120,14|0,3:2|0:0,0:0:0:0:
391,339,174141,1,14,3:2:0:0:
304,294,174437,2,0,P|255:269|184:290,1,120,8|8,0:3|0:3,0:0:0:0:
125,349,175022,1,4,0:3:0:0:
77,266,175315,2,0,L|65:169,1,80,6|4,0:3|0:3,0:0:0:0:
83,153,175625,5,6,0:0:0:0:
76,206,183601,6,0,P|127:231|200:208,1,120,10|0,0:0|0:0,0:0:0:0:
227,196,184031,2,0,L|242:337,1,120,10|0,0:0|0:0,0:0:0:0:
271,351,184474,1,10,0:0:0:0:
350,303,184769,1,6,0:3:0:0:
425,362,185075,2,0,P|447:318|426:245,1,120,6|0,3:2|3:2,0:0:0:0:
346,192,185684,6,0,L|358:69,1,120,12|2,0:0|0:0,0:0:0:0:
335,29,186127,1,2,3:2:0:0:
335,29,186275,2,0,P|284:57|217:35,1,120,4|0,0:0|0:0,0:0:0:0:
158,103,186853,2,0,P|211:136|219:210,1,120,8|0,0:0|3:2,0:0:0:0:
220,236,187296,1,2,3:2:0:0:
220,236,187444,2,0,L|99:221,1,120,6|2,3:2|0:0,0:0:0:0:
4,221,188035,6,0,L|29:291,1,60,10|0,0:0|0:0,0:0:0:0:
26,325,188330,1,2,0:0:0:0:
26,325,188478,2,0,P|72:300|144:329,1,120,2|2,3:2|3:2,0:0:0:0:
221,357,189065,2,0,P|276:375|328:350,1,120,2|8,3:2|0:0,0:0:0:0:
359,312,189504,2,0,L|335:232,1,60,8|8,0:0|0:0,0:0:0:0:
306,223,189799,5,6,3:2:0:0:
286,129,190102,1,10,0:0:0:0:
361,69,190405,1,2,3:2:0:0:
442,136,190708,1,10,0:0:0:0:
442,136,190852,2,0,L|471:264,1,120,2|2,0:0|0:0,0:0:0:0:
466,301,191287,1,10,0:0:0:0:
403,371,191577,1,2,3:2:0:0:
312,338,191871,1,10,0:0:0:0:
221,360,192165,6,0,P|186:360|155:344,1,60,14|0,0:0|0:0,0:0:0:0:
127,318,192468,2,0,L|141:252,1,60,14|0,0:0|0:0,0:0:0:0:
165,217,192771,1,14,3:2:0:0:
90,156,193066,1,14,0:0:0:0:
11,211,193362,1,14,0:0:0:0:
11,211,193507,2,0,L|23:281,2,60,8|8|8,0:0|0:0|0:0,0:0:0:0:
4,164,193944,1,2,0:0:0:0:
66,34,194387,6,0,P|123:13|191:48,1,120,6|0,3:2|0:0,0:0:0:0:
230,111,194975,2,0,P|251:93|269:54,2,60,0|0|0,0:0|3:2|3:2,0:0:0:0:
203,151,195412,1,10,0:0:0:0:
203,151,195560,2,0,L|225:285,1,120,2|0,3:2|3:2,0:0:0:0:
252,307,196006,2,0,P|303:271|368:286,1,120,10|0,0:0|3:2,0:0:0:0:
441,235,196600,1,10,0:0:0:0:
441,235,196748,6,0,L|457:101,1,120,6|0,0:0|0:0,0:0:0:0:
430,75,197192,1,10,0:0:0:0:
343,116,197488,2,0,P|288:125|231:95,1,120,2|10,3:2|0:0,0:0:0:0:
206,56,197931,1,2,0:0:0:0:
125,109,198227,1,0,0:0:0:0:
38,82,198522,1,2,0:0:0:0:
38,82,198670,2,0,L|19:150,1,60,2|2,3:2|3:2,0:0:0:0:
73,220,199113,1,6,3:2:0:0:
73,220,199261,6,0,P|125:195|189:231,1,120,0|8,0:0|0:0,0:0:0:0:
255,276,199852,2,0,L|258:354,2,60,0|0|10,3:2|3:2|0:0,0:0:0:0:
287,237,200292,2,0,L|286:155,1,60,2|0,0:0|3:2,0:0:0:0:
292,129,200587,2,0,B|328:106|328:106|414:115,1,120,0|2,0:0|0:0,0:0:0:0:
493,152,201187,1,2,3:2:0:0:
442,233,201487,1,2,3:2:0:0:
442,233,201637,6,0,L|405:353,1,120,10|2,0:0|3:2,0:0:0:0:
365,372,202073,2,0,P|308:343|243:352,1,120,10|2,0:0|3:2,0:0:0:0:
208,361,202510,2,0,B|163:377|163:377|74:348,1,120,10|0,0:0|3:2,0:0:0:0:
59,319,202953,1,14,0:0:0:0:
44,177,203396,2,0,P|75:160|108:161,1,60,10|8,0:0|0:0,0:0:0:0:
143,177,203692,2,0,P|172:174|198:159,1,60,10|8,0:0|0:0,0:0:0:0:
233,125,203990,6,0,L|263:254,1,120,6|12,3:2|0:0,0:0:0:0:
328,311,204581,2,0,P|359:312|402:296,1,60,0|0,3:2|3:2,0:0:0:0:
429,280,204876,1,10,0:0:0:0:
429,280,205024,2,0,L|394:143,1,120,2|0,0:0|0:0,0:0:0:0:
414,118,205467,1,10,0:0:0:0:
370,32,205763,2,0,L|248:42,1,120,2|8,3:2|0:0,0:0:0:0:
208,60,206206,1,0,0:0:0:0:
208,60,206354,6,0,P|156:33|77:54,1,120,6|10,3:2|0:0,0:0:0:0:
25,105,206945,2,0,L|37:237,1,120,2|10,0:0|0:0,0:0:0:0:
70,258,207389,1,0,0:0:0:0:
154,212,207684,1,2,3:2:0:0:
231,269,207980,2,0,P|288:279|348:236,1,120,2|0,3:2|3:2,0:0:0:0:
362,202,208423,1,12,0:0:0:0:
271,179,208719,6,0,B|249:143|249:143|264:49,1,120,6|2,3:2|0:0,0:0:0:0:
341,13,209310,2,0,L|469:10,1,120,10|2,0:0|0:0,0:0:0:0:
494,44,209753,1,2,3:2:0:0:
441,125,210049,1,2,0:0:0:0:
441,125,210196,1,2,3:2:0:0:
494,204,210492,2,0,L|477:287,1,60,10|0,0:0|0:0,0:0:0:0:
460,306,210788,1,2,0:0:0:0:
390,369,211083,6,0,L|255:356,1,120,6|0,3:2|0:0,0:0:0:0:
236,267,211683,2,0,L|101:254,1,120,10|0,0:0|0:0,0:0:0:0:
36,199,212283,2,0,P|10:133|35:83,1,120,2|0,0:0|3:2,0:0:0:0:
109,140,212874,2,0,P|175:166|225:141,1,120,14|12,0:0|0:0,0:0:0:0:
238,107,213317,1,0,3:2:0:0:
238,107,213465,6,0,L|218:38,1,60,14|2,3:2|0:0,0:0:0:0:
133,7,213919,1,10,3:2:0:0:
40,32,214204,1,2,0:0:0:0:
40,32,214347,2,0,L|26:94,1,60,10|2,3:2|0:0,0:0:0:0:
36,186,214786,1,10,0:0:0:0:
105,254,215078,2,0,B|172:247,2,60,2|10|2,0:0|3:2|0:0,0:0:0:0:
77,292,215517,1,10,3:2:0:0:
150,354,215815,6,0,L|277:338,1,120,14|0,3:2|0:0,0:0:0:0:
313,315,216274,2,0,P|291:275|316:195,1,120,14|10,3:2|3:2,0:0:0:0:
346,176,216708,1,14,3:2:0:0:
206,56,217288,2,0,B|165:39|165:39|78:56,2,120,10|10|10,3:2|3:2|3:2,0:0:0:0:
288,105,218189,5,14,3:2:0:0:
288,105,218337,1,2,0:0:0:0:
355,31,218640,1,10,3:2:0:0:
432,87,218932,2,0,L|423:156,1,60,0|10,0:0|3:2,0:0:0:0:
401,189,219225,1,2,0:0:0:0:
461,264,219518,1,10,0:0:0:0:
395,330,219810,6,0,L|330:323,1,60,2|10,0:0|3:2,0:0:0:0:
295,350,220108,2,0,L|234:359,1,60,2|10,0:0|3:2,0:0:0:0:
187,352,220407,1,2,0:0:0:0:
187,352,220556,2,0,P|147:301|149:234,1,120,14|0,3:2|0:0,0:0:0:0:
168,205,220999,1,14,3:2:0:0:
261,225,221294,1,10,3:2:0:0:
261,225,221442,1,14,3:2:0:0:
366,61,222026,2,0,P|314:33|251:42,2,120,14|10|10,3:2|3:2|3:2,0:0:0:0:
295,122,222891,6,0,L|161:120,1,120,6|10,3:2|3:2,0:0:0:0:
131,121,223338,1,0,0:0:0:0:
131,121,223488,2,0,P|106:164|135:244,1,120,8|8,3:2|3:2,0:0:0:0:
177,308,224085,2,0,L|305:294,1,120,10|10,3:2|3:2,0:0:0:0:
337,320,224528,2,0,L|461:296,1,120,2|10,3:2|3:2,0:0:0:0:
491,266,224971,1,8,3:2:0:0:
417,204,225267,5,4,3:2:0:0:
465,121,225562,2,0,P|411:107|344:142,1,120,10|2,0:0|3:2,0:0:0:0:
319,161,226009,1,2,0:0:0:0:
226,186,226312,2,0,L|149:179,1,60,2|0,0:0|3:2,0:0:0:0:
70,192,226756,2,0,L|61:118,2,60,10|2|2,0:0|0:0|3:2,0:0:0:0:
64,239,227195,1,2,0:0:0:0:
129,316,227489,1,2,0:0:0:0:
129,316,227637,6,0,P|67:341|0:320,2,120,0|8|0,3:2|0:0|3:2,0:0:0:0:
197,248,228523,1,8,0:0:0:0:
268,312,228819,2,0,L|405:305,1,120,2|8,3:2|0:0,0:0:0:0:
465,248,229416,2,0,P|483:197|448:131,1,120,2|8,3:2|0:0,0:0:0:0:
374,86,230013,5,4,3:2:0:0:
289,131,230304,2,0,P|223:130|183:96,1,120,10|2,0:0|3:2,0:0:0:0:
160,54,230741,1,0,0:0:0:0:
86,113,231035,2,0,L|108:235,1,120,2|2,0:0|0:0,0:0:0:0:
157,313,231632,1,2,0:0:0:0:
157,313,231781,2,0,L|229:318,2,60,2|2|10,3:2|0:0|0:0,0:0:0:0:
73,360,232372,1,12,0:0:0:0:
339,22,233697,5,8,3:2:0:0:
392,101,233992,1,8,3:2:0:0:
364,194,234288,1,8,3:2:0:0:
270,216,234580,2,0,P|213:216|152:162,1,120,8|8,3:2|3:2,0:0:0:0:
144,84,235166,1,8,3:2:0:0:
61,138,235454,1,8,3:2:0:0:
6,56,235734,1,6,3:2:0:0:
