osu file format v14

[General]
AudioFilename: audio.mp3
AudioLeadIn: 0
PreviewTime: 52395
Countdown: 0
SampleSet: Soft
StackLeniency: 0.6
Mode: 0
LetterboxInBreaks: 0
WidescreenStoryboard: 1

[Editor]
Bookmarks: 4219,11313,13677,18394,20770,33775,51509,52691,62149,66878,71607,76336
DistanceSpacing: 1.2
BeatDivisor: 2
GridSize: 16
TimelineZoom: 3.2

[Metadata]
Title:Seven Doors
TitleUnicode:Seven Doors
Artist:ZAQ
ArtistUnicode:ZAQ
Creator:Mir
Version:bor's Easy
Source:トリニティセブン
Tags:trinity 7人の魔書使い op opening bor _83 borborygmos
BeatmapID:1394433
BeatmapSetID:657401

[Difficulty]
HPDrainRate:2
CircleSize:2.5
OverallDifficulty:2
ApproachRate:4
SliderMultiplier:0.699999999999999
SliderTickRate:1

[Events]
//Background and Video events
0,0,"nogoodbg.jpg",0,0
//Break Periods
2,23334,31152
//Storyboard Layer 0 (Background)
//Storyboard Layer 1 (Fail)
//Storyboard Layer 2 (Pass)
//Storyboard Layer 3 (Foreground)
//Storyboard Sound Samples

[TimingPoints]
1855,295.566502463054,4,2,1,60,1,0
11313,294.117647058824,4,2,1,60,1,0
17223,287.081339712919,4,2,1,60,1,0
17797,298.507462686567,4,2,1,60,1,0
18394,298.507462686567,4,2,1,60,1,0
19588,295.566502463054,4,2,1,60,1,0
23134,-100,4,2,1,30,0,0
32592,-100,4,2,1,50,0,0
33775,-100,4,2,1,60,0,0
52691,-90.9090909090909,4,2,1,60,0,1
66878,-100,4,2,1,60,0,0
72494,292.682926829268,4,2,1,70,1,0
73972,295.566502463054,4,2,1,70,1,0
75435,288.461538461538,4,2,1,60,1,0
76336,295.566502463054,4,2,1,90,1,0
86970,292.682926829268,4,2,1,100,1,0
88141,291.26213592233,4,2,1,100,1,0

[Colours]
Combo1 : 198,168,168
Combo2 : 255,159,159
Combo3 : 222,184,184
Combo4 : 235,160,192

[HitObjects]
64,144,4219,6,0,P|47:204|163:268,1,210,4|8,3:2|0:2,0:0:0:0:
229,231,5401,2,0,L|313:243,1,69.9999999999999,2|10,3:2|0:2,0:0:0:0:
370,283,5992,2,0,L|454:271,1,69.9999999999999,2|8,3:2|0:2,0:0:0:0:
484,202,6584,6,0,P|484:144|351:104,1,210,2|10,3:2|0:2,0:0:0:0:
303,160,7766,2,0,B|144:200|144:200,1,140,2|2,0:0|0:2,0:0:0:0:
64,63,8948,5,4,3:2:0:0:
226,21,9539,2,0,P|217:64|223:131,2,105,2|2|8,3:2|3:2|0:2,0:0:0:0:
307,1,10721,1,2,3:2:0:0:
384,33,11017,1,14,0:2:0:0:
468,29,11313,6,0,B|461:95|482:132|482:132|424:135|390:175|390:175|357:123|302:104,1,315,12|12,0:2|0:2,0:0:0:0:
186,97,13077,1,12,3:2:0:0:
110,61,13371,1,4,3:2:0:0:
34,97,13665,6,0,P|81:183|76:302,1,210,4|8,3:2|0:2,0:0:0:0:
130,358,14842,2,0,L|201:347,1,69.9999999999999,2|10,3:2|0:2,0:0:0:0:
279,373,15430,2,0,L|348:383,1,69.9999999999999,2|8,3:2|0:2,0:0:0:0:
429,358,16018,6,0,P|435:259|338:226,1,210,0|0,3:2|0:0,0:0:0:0:
261,271,17223,2,0,L|114:281,1,140,2|2,3:2|3:2,0:0:0:0:
15,150,18394,5,4,3:2:0:0:
151,51,18991,2,0,P|153:98|180:160,2,104.75,2|2|8,3:2|3:2|0:2,0:0:0:0:
228,20,20179,1,2,3:2:0:0:
304,53,20474,1,10,0:2:0:0:
387,47,20770,5,4,3:2:0:0:
387,47,22100,6,0,B|404:115|404:115|357:168|357:168|374:232,1,175,4|4,3:2|3:2,0:0:0:0:
394,288,23134,1,2,0:2:0:0:
0,105,32592,5,6,3:2:0:0:
0,105,32888,1,6,3:2:0:0:
87,88,33184,1,6,3:2:0:0:
87,88,33479,1,6,3:2:0:0:
150,146,33775,6,0,L|163:282,1,105,6|2,3:2|3:2,0:0:0:0:
135,331,34514,1,2,3:2:0:0:
209,369,34809,2,0,P|259:368|322:339,1,105,10|10,3:2|0:2,0:0:0:0:
363,283,35548,2,0,L|373:211,1,69.9999999999999,0|10,3:0|3:2,0:0:0:0:
437,160,36139,6,0,L|270:175,1,140,2|2,3:2|0:2,0:0:0:0:
198,94,37174,2,0,P|265:102|275:206,1,175,10|2,3:2|3:2,0:0:0:0:
244,270,38208,1,10,0:2:0:0:
287,341,38504,6,0,L|415:323,1,105,2|2,3:2|3:2,0:0:0:0:
451,267,39243,1,2,3:2:0:0:
474,186,39538,2,0,L|346:166,1,105,10|10,3:2|0:2,0:0:0:0:
287,182,40277,1,0,3:0:0:0:
210,147,40573,1,10,0:2:0:0:
159,79,40868,6,0,P|100:77|55:168,1,140,6|2,3:2|3:2,0:0:0:0:
100,205,41755,1,10,0:2:0:0:
69,283,42051,2,0,L|215:308,1,140,6|0,3:2|3:2,0:0:0:0:
288,346,42937,1,10,0:2:0:0:
288,346,43233,6,0,P|336:310|353:242,1,105,6|2,3:2|0:2,0:0:0:0:
310,196,43972,1,2,3:2:0:0:
285,115,44267,2,0,P|307:54|367:53,1,105,2|8,0:2|0:2,0:0:0:0:
422,63,45006,2,0,P|447:92|455:126,1,69.9999999999999,2|10,3:2|0:2,0:0:0:0:
417,197,45597,6,0,L|437:318,1,105,2|2,3:2|0:2,0:0:0:0:
376,361,46336,1,2,0:2:0:0:
299,325,46632,2,0,L|181:342,1,105,2|10,3:2|0:2,0:0:0:0:
120,378,47371,2,0,L|43:373,1,69.9999999999999,2|10,3:2|0:2,0:0:0:0:
0,295,47962,6,0,B|37:250|28:196|28:196|20:144|45:90,1,210,6|8,3:2|0:2,0:0:0:0:
112,47,49144,2,0,L|246:42,1,105,2|2,3:2|3:2,0:0:0:0:
340,16,50031,6,0,P|314:52|281:298,1,280,6|0,3:2|0:0,0:0:0:0:
350,339,51509,1,4,3:3:0:0:
350,339,51952,1,4,3:3:0:0:
350,339,52395,1,4,3:3:0:0:
431,294,52691,6,0,L|446:109,1,154.000004699707,6|0,3:2|3:2,0:0:0:0:
490,60,53578,2,0,B|467:94|467:94|329:80,1,154.000004699707,10|10,0:2|0:2,0:0:0:0:
278,30,54464,1,2,3:2:0:0:
185,38,54760,1,10,0:2:0:0:
94,19,55055,6,0,P|150:74|47:154,1,231.00000704956,2|10,3:2|0:2,0:0:0:0:
12,238,56238,2,0,L|19:365,1,115.50000352478,0|2,3:2|0:2,0:0:0:0:
105,383,56977,1,2,3:2:0:0:
192,354,57272,6,0,P|201:287|326:267,1,192.500005874634,6|0,0:2|3:2,0:0:0:0:
352,337,58307,2,0,B|327:308|327:308|359:237|359:237|322:171|322:171|355:56,1,308.000009399414,10|8,0:2|0:2,0:0:0:0:
265,32,59785,6,0,B|225:82|242:144|242:144|185:120|132:141|132:141|132:82|92:34|92:34,1,346.500010574341,14|14,0:2|0:2,0:0:0:0:
32,159,61558,2,0,L|21:247,1,77.0000023498535,14|10,0:2|0:2,0:0:0:0:
59,320,62149,6,0,P|53:255|188:285,1,231.00000704956,6|10,3:2|0:2,0:0:0:0:
240,324,63331,2,0,L|337:339,1,77.0000023498535,0|10,3:2|0:2,0:0:0:0:
407,320,63922,1,2,3:2:0:0:
490,215,64514,6,0,P|468:175|464:115,2,77.0000023498535,2|10|2,3:2|0:2|0:2,0:0:0:0:
461,302,65400,2,0,B|446:340|446:340|347:341,1,115.50000352478,10|2,0:2|3:2,0:0:0:0:
285,307,66139,2,0,P|228:311|157:324,1,115.50000352478,2|8,3:2|0:2,0:0:0:0:
111,380,66878,6,0,L|138:237,1,140,6|14,3:2|0:2,0:0:0:0:
275,147,68060,2,0,L|300:284,1,140,4|14,3:2|0:2,0:0:0:0:
462,330,69243,6,0,P|494:259|437:209,1,140,6|14,3:2|0:2,0:0:0:0:
297,173,70425,2,0,P|261:229|295:287,1,140,6|14,3:2|0:2,0:0:0:0:
438,199,71607,6,0,L|463:91,2,105,14|2|14,3:2|3:2|0:2,0:0:0:0:
343,338,73079,1,8,0:2:0:0:
252,313,73372,2,0,P|208:331|178:359,1,69.9999999999999,14|14,0:2|0:2,0:0:0:0:
108,374,73972,6,0,L|86:252,2,105,6|6|6,3:2|3:2|3:2,0:0:0:0:
276,366,75435,1,10,3:2:0:0:
349,324,75723,2,0,P|392:332|439:355,1,69.9999999999999,10|10,3:2|3:2,3:2:0:0:
473,269,76336,6,0,B|448:203|448:203|485:142|485:142|457:73,1,210,6|10,3:2|3:2,0:0:0:0:
378,55,77518,2,0,B|323:95|323:95|253:55,1,140,8|8,3:2|3:2,0:0:0:0:
192,9,78404,1,8,3:2:0:0:
109,23,78700,6,0,P|148:102|61:178,1,210,4|10,3:2|0:2,0:0:0:0:
11,237,79882,2,0,L|17:322,1,69.9999999999999,0|10,3:2|0:2,0:0:0:0:
73,368,80473,2,0,L|147:349,1,69.9999999999999,2|8,3:2|0:2,0:0:0:0:
214,310,81065,6,0,P|313:317|446:332,1,210,0|10,3:2|0:2,0:0:0:0:
491,279,82247,2,0,P|457:242|459:142,1,140,2|2,3:2|3:2,0:0:0:0:
512,0,83429,5,4,3:2:0:0:
346,29,84020,2,0,L|337:148,2,105,2|2|8,3:2|3:2|0:2,0:0:0:0:
262,45,85202,1,2,3:2:0:0:
262,45,85498,1,10,0:2:0:0:
177,12,85794,5,4,3:2:0:0:
434,295,87116,6,0,L|354:304,1,69.9999999999999,0|0,3:2|3:2,0:0:0:0:
285,332,87701,2,0,L|215:324,1,69.9999999999999,0|0,3:2|3:2,0:0:0:0:
150,269,88286,2,0,L|163:184,1,69.9999999999999,0|0,3:2|3:2,0:0:0:0:
232,156,88869,2,0,L|219:71,1,69.9999999999999,0|4,3:2|3:2,0:0:0:0:
