osu file format v14

[General]
AudioFilename: audio.mp3
AudioLeadIn: 0
PreviewTime: 52395
Countdown: 0
SampleSet: Soft
StackLeniency: 0.6
Mode: 0
LetterboxInBreaks: 0
WidescreenStoryboard: 1

[Editor]
Bookmarks: 4219,11313,13677,18394,20770,33775,51509,52691,62149,66878,71607,76336
DistanceSpacing: 1
BeatDivisor: 4
GridSize: 16
TimelineZoom: 2.7

[Metadata]
Title:Seven Doors
TitleUnicode:Seven Doors
Artist:ZAQ
ArtistUnicode:ZAQ
Creator:Mir
Version:Normal
Source:トリニティセブン
Tags:trinity 7人の魔書使い op opening bor _83 borborygmos
BeatmapID:1392501
BeatmapSetID:657401

[Difficulty]
HPDrainRate:3
CircleSize:3
OverallDifficulty:4
ApproachRate:5.5
SliderMultiplier:0.899999999999999
SliderTickRate:1

[Events]
//Background and Video events
0,0,"nogoodbg.jpg",0,0
//Break Periods
//Storyboard Layer 0 (Background)
//Storyboard Layer 1 (Fail)
//Storyboard Layer 2 (Pass)
//Storyboard Layer 3 (Foreground)
//Storyboard Sound Samples

[TimingPoints]
1855,295.566502463054,4,2,1,60,1,0
11313,294.117647058824,4,2,1,60,1,0
17223,287.081339712919,4,2,1,60,1,0
17797,298.507462686567,4,2,1,60,1,0
18394,298.507462686567,4,2,1,60,1,0
19588,295.566502463054,4,2,1,60,1,0
23134,-100,4,2,1,30,0,0
32592,-100,4,2,1,50,0,0
33775,-100,4,2,1,60,0,0
52691,-100,4,2,1,60,0,1
66878,-100,4,2,1,60,0,0
72494,292.682926829268,4,2,1,70,1,0
73972,295.566502463054,4,2,1,70,1,0
75435,288.461538461538,4,2,1,60,1,0
76336,295.566502463054,4,2,1,90,1,0
86970,292.682926829268,4,2,1,100,1,0
88141,291.26213592233,4,2,1,100,1,0

[Colours]
Combo1 : 198,168,168
Combo2 : 255,159,159
Combo3 : 222,184,184
Combo4 : 235,160,192

[HitObjects]
256,192,1855,12,0,3480,0:2:0:0:
103,94,4219,6,0,L|202:87,1,89.9999999999999,4|10,3:2|0:2,0:0:0:0:
263,31,4810,2,0,L|352:37,1,89.9999999999999,2|8,3:2|0:2,0:0:0:0:
389,63,5254,2,0,P|406:120|399:160,1,89.9999999999999,2|0,3:2|0:2,0:0:0:0:
388,192,5697,1,10,0:2:0:0:
315,244,5992,1,2,3:2:0:0:
315,244,6140,2,0,L|216:250,1,89.9999999999999,2|2,0:2|0:2,0:0:0:0:
199,212,6584,6,0,P|201:161|179:118,1,89.9999999999999,2|10,3:2|0:2,0:0:0:0:
150,97,7027,1,2,0:2:0:0:
112,178,7322,2,0,L|107:238,2,45,2|10|2,3:2|0:2|3:2,0:0:0:0:
35,130,7914,2,0,L|31:85,2,45,2|10|2,3:2|0:2|3:2,0:0:0:0:
24,173,8357,1,2,0:2:0:0:
8,261,8653,1,8,0:2:0:0:
43,343,8948,6,0,P|92:343|142:313,1,89.9999999999999,4|10,3:2|0:2,0:0:0:0:
214,304,9539,2,0,L|312:313,1,89.9999999999999,2|8,3:2|0:2,0:0:0:0:
346,326,9983,2,0,P|365:287|359:232,1,89.9999999999999,2|2,3:2|0:2,0:0:0:0:
333,156,10574,2,0,L|343:106,2,45,2|2|2,0:2|3:2|0:2,0:0:0:0:
295,180,11017,1,14,0:2:0:0:
206,161,11313,6,0,L|107:146,1,89.9999999999999,12|0,0:2|3:2,0:0:0:0:
72,151,11754,2,0,P|44:203|43:251,1,89.9999999999999,12|0,0:2|3:2,0:0:0:0:
69,268,12195,2,0,P|97:320|98:368,1,89.9999999999999,12|0,0:2|3:2,0:0:0:0:
130,383,12636,2,0,L|218:369,1,89.9999999999999,12|0,0:2|3:2,0:0:0:0:
257,346,13077,1,12,3:2:0:0:
344,367,13371,1,4,3:2:0:0:
339,271,13665,6,0,P|338:221|359:169,1,89.9999999999999,4|10,3:2|0:2,0:0:0:0:
420,126,14254,2,0,P|421:81|408:38,1,89.9999999999999,2|8,3:2|0:2,0:0:0:0:
367,19,14695,2,0,L|256:24,1,89.9999999999999,2|0,3:2|0:2,0:0:0:0:
238,45,15136,1,10,0:2:0:0:
285,121,15430,2,0,P|302:161|291:217,1,89.9999999999999,2|8,3:2|0:2,0:0:0:0:
274,293,16018,6,0,L|171:295,1,89.9999999999999,0|8,3:2|0:2,0:0:0:0:
138,297,16460,1,0,0:2:0:0:
174,214,16754,2,0,L|165:169,2,45,2|10|2,3:2|0:2|3:2,0:0:0:0:
82,173,17366,2,0,L|90:128,2,45,2|10|2,3:2|0:2|3:2,0:0:0:0:
45,196,17797,1,2,3:2:0:0:
32,284,18095,1,8,0:2:0:0:
85,356,18394,6,0,L|196:362,1,89.9999999999999,4|10,3:2|0:2,0:0:0:0:
238,300,18991,2,0,L|327:295,1,89.9999999999999,2|8,3:2|0:2,0:0:0:0:
372,288,19438,2,0,P|401:235|399:192,1,89.9999999999999,2|0,3:2|0:0,0:0:0:0:
369,122,20031,2,0,L|370:66,2,45,2|2|2,0:2|3:2|0:2,0:0:0:0:
332,148,20474,1,10,0:2:0:0:
243,133,20770,5,4,3:2:0:0:
107,59,22100,5,4,3:2:0:0:
78,144,22395,1,4,3:2:0:0:
137,211,22691,2,0,L|134:264,1,45,4|4,3:2|3:2,0:0:0:0:
124,345,23134,5,2,0:2:0:0:
282,259,23725,2,0,P|360:251|423:277,1,135,2|2,0:2|0:2,0:0:0:0:
311,99,25499,5,2,0:2:0:0:
132,124,26090,2,0,P|89:91|83:87,2,45,2|2|2,0:2|0:2|0:2,0:0:0:0:
150,165,26533,1,2,0:2:0:0:
192,277,27863,6,0,P|253:275|291:255,1,89.9999999999999,2|2,0:2|0:2,0:0:0:0:
328,188,28454,1,2,0:2:0:0:
212,49,29046,6,0,L|112:48,1,89.9999999999999,0|2,0:0|0:2,0:0:0:0:
46,97,29637,1,2,0:2:0:0:
69,183,29932,1,2,0:2:0:0:
256,192,30228,12,2,31410,0:0:0:0:
167,91,32592,5,6,3:2:0:0:
168,181,32888,1,6,3:2:0:0:
168,271,33184,1,6,3:2:0:0:
168,360,33479,1,6,3:2:0:0:
246,316,33775,6,0,P|306:309|343:316,1,89.9999999999999,6|10,3:2|0:2,0:0:0:0:
375,333,34218,1,2,3:2:0:0:
448,280,34514,1,2,3:2:0:0:
395,207,34809,6,0,P|379:139|388:105,1,89.9999999999999,10|0,3:2|0:2,0:0:0:0:
408,83,35253,1,10,0:2:0:0:
333,32,35548,2,0,L|228:30,1,89.9999999999999,0|10,3:0|3:2,0:0:0:0:
182,99,36139,6,0,L|92:100,2,89.9999999999999,2|10|2,3:2|0:2|0:2,0:0:0:0:
250,157,37026,1,10,0:2:0:0:
250,157,37174,2,0,P|262:194|254:255,1,89.9999999999999,10|0,3:2|3:2,0:0:0:0:
244,287,37617,1,8,0:2:0:0:
184,355,37913,2,0,L|130:354,2,45,2|0|10,3:2|3:2|0:2,0:0:0:0:
271,375,38504,6,0,P|336:382|371:365,1,89.9999999999999,2|10,3:2|0:2,0:0:0:0:
397,352,38947,1,2,3:2:0:0:
426,266,39243,1,2,3:2:0:0:
373,194,39538,2,0,P|351:129|353:88,1,89.9999999999999,10|0,3:2|0:2,0:0:0:0:
364,64,39982,2,0,L|256:57,1,89.9999999999999,10|0,0:2|0:0,0:0:0:0:
188,31,40573,1,10,0:2:0:0:
127,96,40868,6,0,P|100:175|141:263,1,180,6|2,3:2|3:2,0:0:0:0:
166,293,41607,1,2,3:2:0:0:
246,253,41903,1,2,0:2:0:0:
246,253,42051,2,0,L|341:250,1,89.9999999999999,6|8,3:2|0:2,0:0:0:0:
409,301,42642,2,0,L|413:351,2,45,0|0|10,3:2|3:2|0:2,0:0:0:0:
438,215,43233,6,0,P|455:157|445:113,1,89.9999999999999,6|10,3:2|0:2,0:0:0:0:
428,89,43676,1,2,0:2:0:0:
338,75,43972,1,2,0:2:0:0:
294,153,44267,2,0,P|238:171|200:168,1,89.9999999999999,2|0,0:2|0:2,0:0:0:0:
170,142,44711,1,8,0:2:0:0:
88,180,45006,2,0,L|90:279,1,89.9999999999999,2|10,3:2|3:2,0:2:0:0:
150,336,45597,6,0,P|202:345|255:335,1,89.9999999999999,2|10,3:2|0:2,0:0:0:0:
281,324,46041,1,2,0:2:0:0:
370,332,46336,1,2,0:2:0:0:
457,310,46632,2,0,P|472:243|466:211,1,89.9999999999999,2|0,0:2|0:2,0:0:0:0:
438,189,47075,1,10,0:2:0:0:
460,101,47371,2,0,L|510:100,2,45,2|0|10,3:2|0:2|0:2,0:0:0:0:
379,60,47962,6,0,P|313:29|204:47,1,180,6|0,3:2|3:2,0:0:0:0:
157,116,48849,1,8,0:2:0:0:
226,176,49144,2,0,L|225:275,1,89.9999999999999,2|10,3:2|0:2,0:0:0:0:
217,310,49587,2,0,P|161:321|123:310,1,89.9999999999999,2|10,3:2|0:2,0:0:0:0:
93,285,50031,1,6,3:2:0:0:
92,75,51509,5,4,3:3:0:0:
213,134,51952,1,4,3:3:0:0:
95,200,52395,1,4,3:3:0:0:
100,289,52691,6,0,P|158:304|193:301,1,89.9999999999999,6|8,3:2|0:2,0:0:0:0:
260,248,53282,2,0,L|254:196,2,45,0|0|10,3:2|3:2|0:2,0:0:0:0:
282,286,53725,2,0,P|326:286|369:272,1,89.9999999999999,2|0,3:2|3:2,0:0:0:0:
406,246,54169,1,10,0:2:0:0:
406,246,54317,2,0,L|411:150,1,89.9999999999999,2|2,3:2|3:2,0:0:0:0:
410,111,54760,1,10,0:2:0:0:
409,21,55055,6,0,P|445:6|515:12,2,89.9999999999999,2|10|2,3:2|0:2|3:2,0:0:0:0:
336,74,55942,1,10,0:2:0:0:
336,74,56090,2,0,L|235:71,2,89.9999999999999,2|2|2,3:2|3:2|0:2,0:0:0:0:
361,111,56829,1,2,3:2:0:0:
327,194,57124,1,8,0:2:0:0:
293,277,57420,6,0,P|247:281|198:278,1,89.9999999999999,6|8,3:2|0:2,0:0:0:0:
134,221,58011,2,0,L|133:165,2,45,0|0|10,3:2|3:2|0:2,0:0:0:0:
118,263,58454,2,0,P|73:266|28:264,1,89.9999999999999,2|2,3:2|3:2,0:0:0:0:
5,176,59046,2,0,L|12:79,1,89.9999999999999,2|2,3:2|3:2,0:0:0:0:
14,41,59489,1,8,0:2:0:0:
98,72,59785,6,0,P|169:82|198:75,1,89.9999999999999,14|2,0:2|3:2,0:0:0:0:
226,57,60228,2,0,P|297:47|326:54,1,89.9999999999999,14|2,0:2|3:2,0:0:0:0:
352,74,60671,2,0,L|357:180,1,89.9999999999999,14|2,0:2|3:2,0:0:0:0:
356,209,61115,1,14,0:2:0:0:
275,317,61558,1,14,0:2:0:0:
211,253,61854,1,10,0:2:0:0:
135,297,62149,6,0,P|103:234|101:202,1,89.9999999999999,6|8,3:2|0:2,0:0:0:0:
74,129,62740,2,0,L|16:133,2,45,0|0|10,3:2|3:2|0:2,0:0:0:0:
101,92,63184,2,0,L|206:83,1,89.9999999999999,2|0,3:2|0:2,0:0:0:0:
222,116,63627,1,10,0:2:0:0:
296,66,63922,2,0,L|296:10,2,45,2|0|8,3:2|3:2|0:2,0:0:0:0:
372,114,64514,6,0,P|402:157|410:204,1,89.9999999999999,2|10,3:2|0:2,0:0:0:0:
330,236,65105,2,0,P|300:279|292:326,1,89.9999999999999,2|10,0:2|0:2,0:0:0:0:
314,354,65548,2,0,L|414:355,2,89.9999999999999,2|2|2,3:2|3:2|3:2,0:0:0:0:
278,382,66287,1,2,3:2:0:0:
196,344,66583,1,8,0:2:0:0:
112,309,66878,5,6,3:2:0:0:
284,256,67469,1,14,0:2:0:0:
109,210,68060,1,4,3:2:0:0:
280,154,68652,1,14,0:2:0:0:
224,83,68947,1,2,0:2:0:0:
281,21,69243,6,0,P|334:20|402:70,1,135,6|0,3:2|0:2,0:0:0:0:
421,104,69834,1,14,0:2:0:0:
458,257,70425,2,0,L|320:260,1,135,6|0,3:2|0:2,0:0:0:0:
278,268,71016,2,0,P|241:291|221:338,1,89.9999999999999,14|0,0:2|0:2,0:0:0:0:
133,350,71607,6,0,L|75:345,1,45,14|14,3:2|3:2,0:0:0:0:
37,271,72051,1,2,3:2:0:0:
94,201,72346,1,2,3:2:0:0:
94,201,72494,2,0,P|92:177|97:150,1,45,14|14,0:2|0:2,0:0:0:0:
175,115,72933,1,2,3:2:0:0:
121,43,73225,2,0,L|65:39,2,45,2|14|2,3:2|0:2|3:2,0:0:0:0:
153,11,73664,1,14,0:2:0:0:
227,67,73972,6,0,P|271:79|326:75,1,89.9999999999999,6|0,3:2|0:2,0:0:0:0:
357,62,74415,2,0,L|364:164,1,89.9999999999999,6|2,3:2|3:2,0:0:0:0:
362,196,74858,1,6,3:2:0:0:
370,375,75435,6,0,L|320:367,1,45,10|8,3:2|3:2,0:0:0:0:
291,339,75723,2,0,L|246:346,1,45,10|8,3:2|3:2,0:0:0:0:
203,357,76011,1,10,3:2:0:0:
126,294,76336,6,0,P|99:229|107:193,1,89.9999999999999,6|8,3:2|3:2,0:0:0:0:
131,126,76927,2,0,L|228:127,1,89.9999999999999,10|10,3:2|3:2,0:0:0:0:
309,129,77518,2,0,P|332:90|334:46,2,89.9999999999999,8|10|8,3:2|3:2|3:2,0:0:0:0:
307,174,78257,1,10,3:2:0:0:
370,237,78552,1,10,3:2:0:0:
370,237,78700,6,0,P|384:276|378:332,1,89.9999999999999,4|10,3:2|0:2,0:0:0:0:
302,367,79291,2,0,L|205:358,1,89.9999999999999,2|10,3:2|0:2,0:0:0:0:
171,339,79735,2,0,P|144:280|149:237,1,89.9999999999999,2|0,0:2|0:2,0:0:0:0:
163,215,80178,1,10,0:2:0:0:
237,164,80473,2,0,P|248:81|243:64,1,89.9999999999999,2|8,3:2|0:2,0:0:0:0:
223,37,80917,1,2,0:2:0:0:
223,37,81065,6,0,L|133:41,1,89.9999999999999,0|8,3:2|0:2,0:0:0:0:
89,28,81508,1,0,0:2:0:0:
76,116,81803,2,0,L|21:103,2,45,2|10|2,3:2|0:2|3:2,0:0:0:0:
142,177,82395,2,0,L|186:187,2,45,2|10|2,3:2|0:2|3:2,0:0:0:0:
107,205,82838,1,2,3:2:0:0:
96,295,83134,1,8,0:2:0:0:
163,354,83429,6,0,P|229:343|257:342,1,89.9999999999999,4|10,3:2|0:2,0:0:0:0:
339,362,84020,2,0,P|405:373|433:374,1,89.9999999999999,2|8,3:2|0:2,0:0:0:0:
443,331,84464,2,0,L|441:227,1,89.9999999999999,2|2,3:2|0:2,0:0:0:0:
425,151,85055,2,0,L|476:149,2,45,2|2|2,0:2|3:2|0:2,0:0:0:0:
388,124,85498,1,10,0:2:0:0:
349,42,85794,5,4,3:2:0:0:
122,0,87116,6,0,L|112:97,1,89.9999999999999,0|0,3:2|3:2,0:0:0:0:
197,121,87701,2,0,L|207:218,1,89.9999999999999,0|0,3:2|3:2,0:0:0:0:
148,280,88286,5,0,3:2:0:0:
195,355,88577,1,0,3:2:0:0:
282,332,88869,1,0,3:2:0:0:
289,242,89160,5,4,3:2:0:0:
