osu file format v14

[General]
AudioFilename: audio.mp3
AudioLeadIn: 0
PreviewTime: 52395
Countdown: 0
SampleSet: Soft
StackLeniency: 0.7
Mode: 0
LetterboxInBreaks: 0
WidescreenStoryboard: 1

[Editor]
Bookmarks: 4219,11313,13677,18394,20770,33775,51509,52691,62149,66878,71607,76336,78700
DistanceSpacing: 0.5
BeatDivisor: 4
GridSize: 16
TimelineZoom: 2.7

[Metadata]
Title:Seven Doors
TitleUnicode:Seven Doors
Artist:ZAQ
ArtistUnicode:ZAQ
Creator:Mir
Version:Insane
Source:トリニティセブン
Tags:trinity 7人の魔書使い op opening bor _83 borborygmos
BeatmapID:1394344
BeatmapSetID:657401

[Difficulty]
HPDrainRate:5
CircleSize:4
OverallDifficulty:7.5
ApproachRate:9
SliderMultiplier:1.6
SliderTickRate:1

[Events]
//Background and Video events
0,0,"nogoodbg.jpg",0,0
//Break Periods
//Storyboard Layer 0 (Background)
//Storyboard Layer 1 (Fail)
//Storyboard Layer 2 (Pass)
//Storyboard Layer 3 (Foreground)
//Storyboard Sound Samples

[TimingPoints]
1855,295.566502463054,4,2,1,60,1,0
11313,294.117647058824,4,2,1,60,1,0
17223,287.081339712919,4,2,1,60,1,0
17797,298.507462686567,4,2,1,60,1,0
18394,298.507462686567,4,2,1,60,1,0
19588,295.566502463054,4,2,1,60,1,0
23134,-200,4,2,1,30,0,0
32592,-200,4,2,1,50,0,0
33775,-125,4,2,1,60,0,0
52691,-83.3333333333333,4,2,1,60,0,1
66878,-100,4,2,1,60,0,0
72494,292.682926829268,4,2,1,70,1,0
73972,295.566502463054,4,2,1,70,1,0
75435,288.461538461538,4,2,1,60,1,0
76336,295.566502463054,4,2,1,90,1,0
86970,292.682926829268,4,2,1,100,1,0
88141,291.26213592233,4,2,1,100,1,0

[Colours]
Combo1 : 198,168,168
Combo2 : 255,159,159
Combo3 : 222,184,184
Combo4 : 235,160,192

[HitObjects]
256,192,1855,12,0,3923,0:2:0:0:
118,135,4219,6,0,P|168:124|225:129,1,80,4|0,3:2|0:2,0:0:0:0:
329,208,4515,2,0,P|289:207|250:197,1,80,10|2,0:2|0:2,0:0:0:0:
299,116,4810,1,2,3:2:0:0:
411,177,4958,2,0,P|416:220|391:274,1,80,2|8,0:2|0:2,0:0:0:0:
295,351,5254,6,0,P|217:361|116:335,1,160,2|0,3:2|0:2,0:0:0:0:
137,232,5697,1,10,0:2:0:0:
58,280,5845,1,2,0:2:0:0:
210,278,5992,1,2,3:2:0:0:
124,219,6140,2,0,P|113:168|118:115,1,80,2|8,0:2|0:2,0:0:0:0:
191,92,6436,1,2,0:2:0:0:
292,227,6584,6,0,L|371:228,1,80,2|2,3:2|0:2,0:0:0:0:
454,177,6879,1,10,0:2:0:0:
454,286,7027,1,2,0:2:0:0:
454,286,7322,5,2,3:2:0:0:
383,348,7470,1,10,0:2:0:0:
288,327,7618,1,2,3:2:0:0:
288,327,7914,5,2,3:2:0:0:
217,265,8062,1,10,0:2:0:0:
122,286,8210,1,2,3:2:0:0:
217,265,8357,1,2,0:2:0:0:
209,169,8505,2,0,P|201:122|175:78,2,80,2|8|0,3:2|0:2|0:2,0:0:0:0:
37,168,8948,6,0,L|149:161,1,80,4|0,3:2|0:2,0:0:0:0:
187,94,9244,2,0,L|267:90,1,80,10|0,0:2|0:2,0:0:0:0:
351,156,9539,1,2,3:2:0:0:
412,66,9687,2,0,P|442:91|458:128,1,80,2|8,0:2|0:2,0:0:0:0:
346,180,9983,6,0,L|266:184,1,80,2|0,3:2|0:0,0:0:0:0:
156,274,10278,2,0,L|235:278,1,80,2|8,0:2|0:2,0:0:0:0:
328,343,10574,2,0,P|381:341|418:322,2,80,2|2|2,0:2|3:2|0:2,0:0:0:0:
247,301,11017,1,14,0:2:0:0:
177,353,11165,1,0,0:2:0:0:
81,232,11313,5,12,0:2:0:0:
173,226,11460,2,0,L|269:217,1,80,0|0,3:2|3:2,0:0:0:0:
424,232,11754,5,12,0:2:0:0:
332,226,11901,2,0,L|236:217,1,80,0|0,3:2|3:2,0:0:0:0:
67,131,12195,5,12,0:2:0:0:
159,125,12342,2,0,L|255:116,1,80,0|0,3:2|3:2,0:0:0:0:
410,131,12636,5,12,0:2:0:0:
318,125,12783,2,0,L|222:116,1,80,0|0,3:2|3:2,0:0:0:0:
170,36,13077,5,12,3:2:0:0:
410,131,13371,1,4,3:2:0:0:
204,297,13665,6,0,P|280:306|337:253,1,160,4|10,3:2|0:2,0:0:0:0:
252,218,14107,1,0,0:2:0:0:
153,227,14254,2,0,L|66:229,2,80,2|2|8,3:2|0:2|0:2,0:0:0:0:
197,143,14695,6,0,P|200:90|179:42,1,80,2|0,3:2|0:0,0:0:0:0:
113,110,14989,1,0,0:2:0:0:
286,108,15136,2,0,L|365:106,2,80,10|2|2,0:2|0:2|3:2,0:0:0:0:
386,30,15577,2,0,L|465:28,1,80,2|8,0:2|0:2,0:0:0:0:
484,142,15871,5,2,0:2:0:0:
407,212,16018,2,0,P|397:264|416:308,1,80,0|0,3:2|0:2,0:0:0:0:
461,368,16313,1,8,0:2:0:0:
370,383,16460,1,0,0:2:0:0:
370,383,16754,5,2,3:2:0:0:
296,321,16901,1,10,0:2:0:0:
204,351,17048,1,2,3:2:0:0:
204,351,17366,5,2,3:2:0:0:
112,381,17510,1,10,0:2:0:0:
38,319,17653,1,2,3:2:0:0:
112,381,17797,1,2,3:2:0:0:
131,295,17946,2,0,P|136:236|121:202,2,80,2|8|0,0:2|0:2|0:2,0:0:0:0:
69,140,18394,6,0,L|176:137,1,80,4|0,3:2|0:2,0:0:0:0:
223,202,18692,2,0,L|302:204,1,80,10|0,0:2|0:2,0:0:0:0:
371,276,18991,1,2,3:2:0:0:
332,121,19140,2,0,P|331:59|357:16,1,80,2|8,0:2|0:2,0:0:0:0:
429,115,19438,6,0,B|439:153|439:153|434:192,1,80,2|0,3:2|0:2,0:0:0:0:
371,276,19735,2,0,B|360:314|360:314|365:353,1,80,2|8,0:2|0:2,0:0:0:0:
462,326,20031,2,0,L|554:328,2,80,2|2|2,0:2|3:2|0:2,0:0:0:0:
371,276,20474,1,10,0:2:0:0:
271,266,20622,1,0,0:2:0:0:
129,346,20770,5,4,3:2:0:0:
189,193,22100,5,4,3:2:0:0:
473,88,22395,1,4,3:2:0:0:
492,78,22691,5,4,3:2:0:0:
243,117,22839,1,4,3:2:0:0:
261,140,23134,6,0,P|276:171|270:222,1,80,2|0,0:2|0:2,0:0:0:0:
216,284,23578,1,0,0:2:0:0:
216,284,23725,2,0,L|218:340,2,40,2|2|2,0:2|0:2|0:2,0:0:0:0:
131,297,24169,6,0,L|40:293,1,80,2|0,0:2|0:2,0:0:0:0:
26,207,24612,1,2,0:2:0:0:
26,207,24760,1,0,0:2:0:0:
6,115,24908,1,0,0:2:0:0:
0,30,25055,2,0,P|22:29|52:32,2,40,2|2|2,0:2|0:2|0:2,0:0:0:0:
6,115,25499,6,0,L|57:117,1,40,2|0,0:2|0:2,0:0:0:0:
124,71,25794,2,0,L|163:69,1,40,2|0,0:2|0:2,0:0:0:0:
241,29,26090,2,0,P|263:28|293:31,2,40,2|2|2,0:2|0:2|0:2,0:0:0:0:
257,112,26533,6,0,P|273:156|302:188,1,80,2|0,0:2|0:2,0:0:0:0:
371,163,26977,2,0,P|393:162|423:165,2,40,0|0|0,0:2|0:2|0:2,0:0:0:0:
228,239,27568,1,2,0:2:0:0:
228,239,27716,1,2,0:2:0:0:
236,329,27863,6,0,P|291:342|320:332,1,80,2|2,0:2|0:2,0:0:0:0:
352,260,28307,1,2,0:2:0:0:
396,331,28454,2,0,P|433:344|472:337,1,80,2|0,0:2|0:0,0:0:0:0:
507,257,28898,6,0,L|500:165,1,80,2|0,0:2|0:0,0:0:0:0:
473,94,29341,2,0,B|471:55|471:55|490:1,2,80,2|2|2,0:2|0:0|0:0,0:0:0:0:
417,163,30228,5,2,0:0:0:0:
256,192,30302,12,0,32445,0:2:0:0:
253,184,32592,5,6,3:2:0:0:
213,80,32740,1,2,0:2:0:0:
149,221,32888,1,6,3:2:0:0:
109,117,33036,1,2,0:2:0:0:
253,184,33184,5,6,3:2:0:0:
429,141,33479,1,6,3:2:0:0:
382,214,33775,6,0,P|390:158|356:88,1,128,6|10,3:2|0:2,0:0:0:0:
277,79,34218,2,0,L|202:81,1,64,2|0,3:2|0:2,0:0:0:0:
87,30,34514,2,0,L|162:32,1,64,2|0,3:2|0:2,0:0:0:0:
134,117,34809,6,0,P|106:174|113:236,1,128,10|0,3:2|0:2,0:0:0:0:
207,299,35253,2,0,P|205:256|193:230,1,64,10|0,0:2|0:2,0:0:0:0:
125,317,35548,2,0,P|124:348|134:379,1,64,0|0,3:0|3:0,0:0:0:0:
218,324,35844,1,10,3:2:0:0:
375,328,35991,1,0,3:2:0:0:
375,328,36065,1,0,3:2:0:0:
375,328,36139,6,0,L|380:197,1,128,2|10,3:2|0:2,0:0:0:0:
446,136,36583,1,0,3:2:0:0:
357,109,36730,2,0,L|293:106,1,64,2|0,0:2|3:2,0:0:0:0:
127,71,37026,1,10,0:2:0:0:
206,28,37174,6,0,P|213:95|165:151,1,128,10|0,3:2|3:2,0:0:0:0:
37,175,37617,2,0,P|98:169|120:179,1,64,8|0,0:2|0:0,0:0:0:0:
164,231,37913,1,2,3:2:0:0:
164,231,38060,1,0,3:2:0:0:
78,320,38208,2,0,L|72:242,1,64,10|0,0:2|0:2,0:0:0:0:
164,231,38504,6,0,B|226:225|226:225|321:239,1,128,2|10,3:2|0:2,0:0:0:0:
357,329,38947,2,0,L|368:251,1,64,2|2,3:2|0:2,0:0:0:0:
439,207,39243,2,0,L|448:271,1,64,2|2,3:2|0:2,0:0:0:0:
488,123,39538,6,0,P|426:114|352:154,1,128,10|0,3:2|0:2,0:0:0:0:
231,107,39982,2,0,L|306:111,1,64,10|0,0:2|0:2,0:0:0:0:
189,173,40277,2,0,L|114:177,1,64,0|0,0:0|0:0,0:0:0:0:
13,106,40573,2,0,L|88:110,1,64,10|0,0:2|0:2,0:0:0:0:
140,266,40868,6,0,P|87:258|37:187,1,128,6|8,3:2|0:2,0:0:0:0:
275,202,41459,1,2,3:2:0:0:
321,273,41607,2,0,L|384:269,1,64,2|10,3:2|0:2,0:0:0:0:
437,188,41903,1,2,0:2:0:0:
276,103,42051,6,0,P|235:109|174:188,1,128,6|8,3:2|0:2,0:0:0:0:
202,336,42642,1,0,3:2:0:0:
202,336,42789,1,0,3:2:0:0:
127,280,42937,2,0,P|91:279|51:285,1,64,10|0,0:2|3:2,0:0:0:0:
49,290,43159,1,0,3:2:0:0:
35,299,43233,6,0,P|3:237|18:159,1,128,6|10,3:2|0:2,0:0:0:0:
149,186,43676,2,0,P|102:196|82:192,1,64,2|0,0:2|3:2,0:0:0:0:
141,102,43972,2,0,P|172:99|203:109,1,64,2|8,0:2|0:2,0:0:0:0:
246,197,44267,6,0,P|251:237|240:277,2,64,2|0|0,0:2|3:2|0:2,0:0:0:0:
214,116,44711,1,8,0:2:0:0:
450,168,45006,2,0,L|378:156,1,64,2|0,3:2|3:0,0:0:0:0:
313,90,45302,2,0,L|385:78,1,64,10|0,0:2|0:0,0:0:0:0:
499,109,45597,6,0,L|492:243,1,128,2|10,3:2|0:2,0:0:0:0:
348,272,46041,2,0,P|400:265|433:271,1,64,2|0,0:2|3:2,0:0:0:0:
369,363,46336,2,0,P|337:363|305:357,1,64,2|8,0:2|0:2,0:0:0:0:
256,285,46632,6,0,L|262:221,2,64,2|0|0,0:2|3:2|0:2,0:0:0:0:
191,352,47075,2,0,P|141:353|101:340,1,64,10|0,0:2|0:2,0:0:0:0:
0,291,47371,2,0,P|31:286|63:289,1,64,2|0,3:2|0:2,0:0:0:0:
145,264,47666,2,0,L|151:200,1,64,10|0,0:2|0:0,0:0:0:0:
43,68,47962,6,0,B|104:57|104:57|183:88,1,128,6|8,3:2|0:2,0:0:0:0:
245,149,48405,2,0,L|317:166,2,64,0|0|0,0:2|3:2|0:2,0:0:0:0:
254,60,48849,1,8,0:2:0:0:
392,342,49144,6,0,P|363:307|385:220,1,128,2|10,3:2|0:2,0:0:0:0:
457,198,49587,2,0,P|462:242|454:268,2,64,2|0|10,3:2|0:0|0:2,0:0:0:0:
380,148,50031,1,6,3:2:0:0:
256,192,50105,12,0,51213,0:2:0:0:
136,53,51509,5,4,3:3:0:0:
207,174,51952,5,4,3:3:0:0:
176,278,52395,5,4,3:3:0:0:
60,355,52691,6,0,P|106:324|263:362,1,191.999994140625,6|8,3:2|0:2,0:0:0:0:
305,384,53134,1,0,0:2:0:0:
268,224,53282,1,0,3:2:0:0:
268,224,53430,1,0,3:2:0:0:
343,291,53578,1,10,0:2:0:0:
312,141,53725,6,0,P|234:135|173:241,1,191.999994140625,2|0,3:2|3:2,0:0:0:0:
268,224,54169,1,10,0:2:0:0:
144,101,54317,2,0,L|12:99,2,95.9999970703126,2|0|2,3:2|0:2|3:2,0:0:0:0:
221,56,54760,1,10,0:2:0:0:
179,227,54908,1,2,0:2:0:0:
179,227,54982,1,2,0:2:0:0:
179,227,55055,6,0,B|188:274|188:274|167:343,1,95.9999970703126,2|0,3:2|0:0,0:0:0:0:
0,274,55351,2,0,L|110:273,1,95.9999970703126,10|0,0:2|0:2,0:0:0:0:
269,320,55647,2,0,L|159:319,1,95.9999970703126,2|0,3:2|3:2,0:0:0:0:
179,227,55942,1,10,0:2:0:0:
345,264,56090,6,0,P|360:315|348:368,1,95.9999970703126,2|0,3:2|0:2,0:0:0:0:
265,211,56386,2,0,P|258:163|273:118,1,95.9999970703126,2|8,3:2|0:2,0:0:0:0:
360,96,56681,1,2,0:2:0:0:
178,141,56829,1,2,3:2:0:0:
351,176,56977,2,0,L|466:169,1,95.9999970703126,2|8,3:2|0:2,0:0:0:0:
255,31,57272,5,2,0:2:0:0:
255,31,57346,1,2,0:2:0:0:
255,31,57420,2,0,L|48:44,1,191.999994140625,6|8,3:2|0:2,0:0:0:0:
19,132,57863,1,0,0:2:0:0:
88,202,58011,1,0,3:2:0:0:
88,202,58159,1,0,3:2:0:0:
118,121,58307,1,10,0:2:0:0:
41,276,58454,6,0,P|94:287|151:262,1,95.9999970703126,2|0,3:2|0:2,0:0:0:0:
272,191,58750,2,0,P|226:178|179:190,1,95.9999970703126,2|8,3:2|0:2,0:0:0:0:
230,364,59046,2,0,L|228:261,1,95.9999970703126,2|0,3:2|0:2,0:0:0:0:
226,98,59341,1,2,3:2:0:0:
353,200,59489,1,8,0:2:0:0:
334,108,59637,1,0,3:2:0:0:
466,303,59785,6,0,P|414:286|338:340,1,143.999995605469,14|0,0:2|0:0,0:0:0:0:
331,351,60080,1,2,3:2:0:0:
475,213,60228,2,0,L|490:63,1,143.999995605469,14|0,0:2|0:0,0:0:0:0:
492,45,60523,1,2,3:2:0:0:
384,116,60671,2,0,P|313:132|262:27,1,191.999994140625,14|2,0:2|3:2,0:0:0:0:
337,56,61115,6,0,B|303:100|303:100|148:100,1,191.999994140625,14|0,0:2|3:2,0:0:0:0:
96,76,61558,2,0,P|129:128|105:192,1,95.9999970703126,14|0,0:2|0:2,0:0:0:0:
25,292,61854,2,0,P|25:244|54:207,1,95.9999970703126,10|0,0:2|0:2,0:0:0:0:
299,275,62149,6,0,L|85:275,1,191.999994140625,6|8,3:2|0:2,0:0:0:0:
54,207,62592,1,0,0:2:0:0:
129,164,62740,1,0,3:2:0:0:
129,164,62888,1,0,3:2:0:0:
25,292,63036,1,10,0:2:0:0:
52,127,63184,6,0,L|51:15,2,95.9999970703126,2|0|0,3:2|3:2|0:2,0:0:0:0:
222,163,63627,2,0,P|142:159|103:179,1,95.9999970703126,10|0,0:2|0:2,0:0:0:0:
29,296,63922,1,2,3:2:0:0:
29,296,64070,1,0,3:2:0:0:
128,163,64218,1,8,0:2:0:0:
171,250,64366,1,2,0:2:0:0:
320,161,64514,6,0,L|108:164,1,191.999994140625,2|10,3:2|0:2,0:0:0:0:
217,80,64957,1,0,3:2:0:0:
266,252,65105,2,0,P|244:304|192:342,1,95.9999970703126,2|0,0:2|3:2,0:0:0:0:
131,364,65400,1,10,0:2:0:0:
290,379,65548,6,0,L|399:385,1,95.9999970703126,2|0,3:2|0:2,0:0:0:0:
509,301,65844,2,0,L|400:307,1,95.9999970703126,2|8,3:2|0:2,0:0:0:0:
332,182,66139,1,2,3:2:0:0:
332,182,66213,1,2,3:2:0:0:
332,182,66287,1,2,3:2:0:0:
424,216,66435,1,0,3:2:0:0:
242,152,66583,1,8,0:2:0:0:
488,32,66878,6,0,L|296:24,1,160,6|2,3:2|0:2,0:0:0:0:
228,60,67321,1,0,0:2:0:0:
228,60,67469,2,0,P|180:72|77:25,1,160,14|2,0:2|0:2,0:0:0:0:
34,108,67913,6,0,L|48:284,1,160,2|2,0:2|0:2,0:0:0:0:
205,256,68356,2,0,P|161:231|113:234,1,80,2|0,0:2|0:2,0:0:0:0:
205,348,68652,2,0,P|244:343|277:321,1,80,14|0,0:2|0:2,0:0:0:0:
292,230,68947,2,0,L|292:136,1,80,2|0,0:2|0:2,0:0:0:0:
449,124,69243,6,0,B|347:82|340:154|206:118,1,240,6|0,3:2|0:2,0:0:0:0:
136,60,69834,2,0,P|181:87|98:218,1,240,14|0,0:2|0:2,0:0:0:0:
28,310,70425,6,0,L|216:305,1,160,6|0,3:2|0:2,0:0:0:0:
506,338,71016,2,0,L|318:333,1,160,14|0,0:2|0:2,0:0:0:0:
258,147,71607,5,14,3:2:0:0:
241,284,71755,1,14,3:2:0:0:
240,308,72051,1,2,3:2:0:0:
239,324,72346,5,2,3:2:0:0:
352,216,72494,1,14,0:2:0:0:
140,258,72640,1,14,0:2:0:0:
121,266,72933,5,2,3:2:0:0:
213,211,73079,1,8,0:2:0:0:
104,276,73225,1,2,3:2:0:0:
237,360,73372,1,14,0:2:0:0:
227,202,73518,5,2,3:2:0:0:
141,356,73664,1,14,0:2:0:0:
128,169,73811,1,10,0:2:0:0:
313,265,73972,6,0,P|373:264|449:182,1,160,6|0,3:2|0:2,0:0:0:0:
213,110,74415,2,0,P|265:167|343:175,1,160,6|2,3:2|3:2,0:0:0:0:
310,87,74858,1,6,3:2:0:0:
310,87,75006,1,0,3:2:0:0:
310,87,75435,5,10,3:2:0:0:
380,38,75579,1,8,3:2:0:0:
393,123,75723,1,10,3:2:0:0:
298,5,75867,1,8,3:2:0:0:
462,71,76011,2,0,P|484:122|465:175,1,80,10|0,3:2|0:0,0:0:0:0:
421,252,76336,6,0,B|369:260|369:260|247:223,1,160,6|8,3:2|3:2,0:0:0:0:
174,192,76779,1,0,3:2:0:0:
174,192,76853,1,0,3:2:0:0:
174,192,76927,1,10,3:2:0:0:
109,273,77074,2,0,L|111:336,2,40,2|0|10,3:2|3:2|3:2,0:0:0:0:
58,151,77370,1,0,3:2:0:0:
58,151,77444,1,0,3:2:0:0:
58,151,77518,6,0,L|56:111,3,40,8|0|2|0,3:2|0:0|3:2|3:2,0:0:0:0:
138,79,77813,2,0,L|139:39,3,40,10|0|2|0,3:2|3:2|3:2|3:2,0:0:0:0:
224,119,78109,5,8,3:2:0:0:
59,32,78257,1,10,3:2:0:0:
222,25,78404,1,8,3:2:0:0:
138,79,78552,1,10,3:2:0:0:
238,198,78700,6,0,L|332:196,1,80,4|0,3:2|0:0,0:0:0:0:
450,129,78996,2,0,L|356:127,1,80,10|0,0:2|0:2,0:0:0:0:
317,196,79291,1,2,3:2:0:0:
402,356,79439,2,0,P|417:315|411:269,1,80,2|10,0:2|0:2,0:0:0:0:
318,307,79735,6,0,L|141:311,1,160,2|0,0:2|0:2,0:0:0:0:
53,321,80178,1,10,0:2:0:0:
88,210,80326,1,2,0:2:0:0:
146,337,80473,1,2,3:2:0:0:
86,182,80621,2,0,L|193:175,1,80,2|8,0:2|0:2,0:0:0:0:
217,103,80917,1,2,0:2:0:0:
368,132,81065,6,0,P|381:172|371:225,1,80,0|0,3:2|0:2,0:0:0:0:
328,305,81360,1,8,0:2:0:0:
229,339,81508,1,0,0:2:0:0:
229,339,81804,5,2,3:2:0:0:
328,305,81951,1,10,0:2:0:0:
425,341,82099,1,2,3:2:0:0:
425,341,82395,5,2,3:2:0:0:
328,305,82543,1,10,0:2:0:0:
324,201,82690,1,2,3:2:0:0:
408,140,82838,1,2,3:2:0:0:
324,201,82986,2,0,P|256:208|221:195,1,80,2|8,0:2|0:2,0:0:0:0:
161,143,83281,1,0,0:2:0:0:
148,311,83429,6,0,L|161:219,1,80,4|0,3:2|0:2,0:0:0:0:
68,108,83725,2,0,L|79:187,1,80,10|0,0:2|0:2,0:0:0:0:
161,143,84020,1,2,3:2:0:0:
106,33,84168,2,0,P|56:21|4:40,1,80,2|8,0:2|0:2,0:0:0:0:
177,126,84464,6,0,B|216:132|216:132|254:119,1,80,2|0,3:2|0:0,0:0:0:0:
360,47,84759,2,0,B|321:34|321:34|282:40,1,80,2|8,0:2|0:2,0:0:0:0:
352,152,85055,1,2,0:2:0:0:
449,95,85202,1,2,3:2:0:0:
381,247,85350,1,2,0:2:0:0:
340,130,85498,1,10,0:2:0:0:
481,210,85646,1,0,0:0:0:0:
234,217,85794,5,4,3:2:0:0:
330,285,87116,5,0,3:2:0:0:
229,308,87409,1,0,3:2:0:0:
148,244,87701,1,0,3:2:0:0:
148,139,87994,1,0,3:2:0:0:
229,75,88286,1,0,3:2:0:0:
330,98,88577,1,0,3:2:0:0:
375,192,88869,1,0,3:2:0:0:
148,244,89160,5,4,3:2:0:0:
