osu file format v14

[General]
AudioFilename: audio.mp3
AudioLeadIn: 0
PreviewTime: 52395
Countdown: 0
SampleSet: Soft
StackLeniency: 0.6
Mode: 0
LetterboxInBreaks: 0
WidescreenStoryboard: 1

[Editor]
Bookmarks: 4219,11313,13677,18394,20770,33775,51509,52691,62149,66878,71607,76336,78996
DistanceSpacing: 1.2
BeatDivisor: 4
GridSize: 16
TimelineZoom: 2.7

[Metadata]
Title:Seven Doors
TitleUnicode:Seven Doors
Artist:ZAQ
ArtistUnicode:ZAQ
Creator:Mir
Version:Hard
Source:トリニティセブン
Tags:trinity 7人の魔書使い op opening bor _83 borborygmos
BeatmapID:1392500
BeatmapSetID:657401

[Difficulty]
HPDrainRate:4
CircleSize:3.5
OverallDifficulty:6
ApproachRate:7.5
SliderMultiplier:1.4
SliderTickRate:1

[Events]
//Background and Video events
0,0,"nogoodbg.jpg",0,0
//Break Periods
//Storyboard Layer 0 (Background)
//Storyboard Layer 1 (Fail)
//Storyboard Layer 2 (Pass)
//Storyboard Layer 3 (Foreground)
//Storyboard Sound Samples

[TimingPoints]
1855,295.566502463054,4,2,1,60,1,0
11313,294.117647058824,4,2,1,60,1,0
17223,287.081339712919,4,2,1,60,1,0
17797,298.507462686567,4,2,1,60,1,0
18394,298.507462686567,4,2,1,60,1,0
19588,295.566502463054,4,2,1,60,1,0
23134,-125,4,2,1,30,0,0
32592,-100,4,2,1,50,0,0
33775,-100,4,2,1,60,0,0
52691,-100,4,2,1,60,0,1
66878,-100,4,2,1,60,0,0
72494,292.682926829268,4,2,1,70,1,0
73972,295.566502463054,4,2,1,70,1,0
75435,288.461538461538,4,2,1,60,1,0
76336,295.566502463054,4,2,1,90,1,0
86970,292.682926829268,4,2,1,100,1,0
88141,291.26213592233,4,2,1,100,1,0

[Colours]
Combo1 : 198,168,168
Combo2 : 255,159,159
Combo3 : 222,184,184
Combo4 : 235,160,192

[HitObjects]
256,192,1855,12,0,3480,0:2:0:0:
136,177,4219,5,4,3:2:0:0:
115,344,4515,2,0,L|199:346,1,70,10|2,0:2|0:2,0:0:0:0:
231,275,4810,1,2,3:2:0:0:
231,275,4958,2,0,L|300:273,1,70,2|8,0:2|0:2,0:0:0:0:
348,349,5254,2,0,L|493:348,1,140,2|0,3:2|0:2,0:0:0:0:
467,266,5697,2,0,L|473:196,2,70,10|2|2,0:2|0:2|3:2,0:0:0:0:
488,348,6140,1,2,0:2:0:0:
350,251,6436,6,0,L|253:247,2,70,2|2|2,0:2|3:2|0:2,0:0:0:0:
388,176,6879,1,10,0:2:0:0:
388,176,7027,1,2,0:2:0:0:
236,103,7322,2,0,P|228:50|234:23,2,70,2|10|2,3:2|0:2|3:2,0:0:0:0:
294,261,7914,2,0,P|296:295|288:329,2,70,2|10|2,3:2|0:2|3:2,0:0:0:0:
234,201,8357,2,0,L|147:198,1,70,2|2,0:2|3:2,0:0:0:0:
79,192,8653,1,8,0:2:0:0:
79,192,8800,1,0,0:2:0:0:
33,121,8948,6,0,P|34:75|44:34,1,70,4|0,3:2|0:2,0:0:0:0:
120,74,9244,2,0,P|168:81|200:75,1,70,10|0,0:2|0:2,0:0:0:0:
255,26,9539,1,2,3:2:0:0:
255,26,9687,2,0,P|303:19|335:25,1,70,2|8,0:2|0:2,0:0:0:0:
393,70,9983,2,0,L|383:149,1,70,2|0,3:2|0:0,0:0:0:0:
313,184,10278,2,0,L|323:263,1,70,2|8,0:2|0:2,0:0:0:0:
380,314,10574,2,0,P|429:317|464:310,2,70,2|2|2,0:2|3:2|0:2,0:0:0:0:
309,360,11017,1,14,0:2:0:0:
145,318,11313,6,0,L|132:224,1,70,12|0,0:2|3:2,0:0:0:0:
59,213,11607,1,0,3:2:0:0:
59,213,11754,2,0,L|72:119,1,70,12|0,0:2|3:2,0:0:0:0:
22,73,12048,1,0,3:2:0:0:
22,73,12195,2,0,P|63:57|107:63,1,70,12|0,0:2|3:2,0:0:0:0:
154,119,12489,1,0,3:2:0:0:
154,119,12636,2,0,L|248:132,1,70,12|0,0:2|3:2,0:0:0:0:
302,99,12930,1,0,3:2:0:0:
369,148,13077,1,12,3:2:0:0:
297,299,13371,1,4,3:2:0:0:
447,373,13665,6,0,P|496:362|522:343,1,70,4|0,3:2|0:0,0:0:0:0:
503,264,13960,2,0,L|497:187,1,70,10|0,0:2|0:2,0:0:0:0:
426,149,14254,1,2,3:2:0:0:
426,149,14401,2,0,L|432:72,1,70,2|8,0:2|0:2,0:0:0:0:
368,23,14695,2,0,P|291:18|219:32,1,140,2|0,3:2|0:2,0:0:0:0:
162,79,15136,2,0,P|96:77|61:64,2,70,10|2|2,0:2|0:2|3:2,0:0:0:0:
235,119,15577,2,0,P|250:162|250:200,1,70,2|8,0:2|0:2,0:0:0:0:
235,268,15871,6,0,P|167:266|142:260,2,70,2|0|0,0:2|3:2|0:2,0:0:0:0:
317,250,16313,1,8,0:2:0:0:
317,250,16460,1,0,0:2:0:0:
404,106,16754,2,0,L|411:27,2,70,2|10|2,3:2|0:2|3:2,0:0:0:0:
493,268,17366,2,0,L|499:337,2,70,2|10|2,3:2|0:2|3:2,0:0:0:0:
463,192,17797,1,2,3:2:0:0:
463,192,17946,1,2,0:2:0:0:
392,238,18095,2,0,P|337:253|318:248,1,70,8|0,0:2|0:2,0:0:0:0:
251,210,18394,6,0,L|247:112,1,70,4|0,3:2|0:2,0:0:0:0:
309,82,18692,2,0,L|313:-16,1,70,10|0,0:2|0:2,0:0:0:0:
227,17,18991,1,2,3:2:0:0:
227,17,19140,2,0,P|151:25|135:29,1,70,2|8,0:2|0:2,0:0:0:0:
91,74,19438,2,0,L|88:143,1,70,2|0,3:2|0:2,0:0:0:0:
157,190,19735,2,0,L|159:259,1,70,2|8,0:2|0:2,0:0:0:0:
122,335,20031,2,0,P|86:322|55:293,2,70,2|2|2,0:2|3:2|0:2,0:0:0:0:
206,335,20474,1,10,0:2:0:0:
329,212,20770,5,4,3:2:0:0:
209,69,22100,5,4,3:2:0:0:
143,223,22395,1,4,3:2:0:0:
302,276,22691,1,4,3:2:0:0:
287,193,22839,1,4,3:2:0:0:
265,359,23134,6,0,P|328:362|376:325,1,112,2|0,0:2|0:2,0:0:0:0:
400,264,23578,1,0,0:2:0:0:
400,264,23725,2,0,L|465:268,2,56,2|2|2,0:2|0:2|0:2,0:0:0:0:
371,190,24169,2,0,P|357:137|382:77,1,112,2|0,0:2|0:2,0:0:0:0:
357,8,24612,2,0,L|425:3,2,56,2|0|0,0:2|0:2|0:2,0:0:0:0:
282,33,25055,2,0,L|214:28,2,56,2|2|2,0:2|0:2|0:2,0:0:0:0:
271,111,25499,6,0,P|271:157|257:188,1,56,2|0,0:2|0:2,0:0:0:0:
194,194,25794,2,0,P|194:240|208:271,1,56,2|0,0:2|0:2,0:0:0:0:
182,326,26090,2,0,L|118:344,2,56,2|2|2,0:2|0:2|0:2,0:0:0:0:
257,304,26533,2,0,P|311:299|384:318,1,112,2|0,0:2|0:2,0:0:0:0:
443,330,26977,2,0,L|496:345,2,56,0|0|0,0:2|0:2|0:2,0:0:0:0:
463,174,27568,2,0,L|465:104,1,56,2|2,0:2|0:2,0:0:0:0:
386,123,27863,6,0,P|298:124|261:105,1,112,2|2,0:2|0:2,0:0:0:0:
217,63,28307,1,2,0:2:0:0:
178,130,28454,2,0,P|124:145|69:137,1,112,2|0,0:2|0:0,0:0:0:0:
29,205,28898,2,0,P|22:272|47:321,1,112,2|2,0:2|0:2,0:0:0:0:
100,360,29341,1,2,0:2:0:0:
231,274,29637,1,2,0:2:0:0:
376,332,29932,1,2,0:2:0:0:
256,192,30228,5,2,0:0:0:0:
256,192,30302,12,0,32001,0:2:0:0:
326,71,32445,5,0,0:0:0:0:
326,71,32592,6,0,L|232:64,1,70,6|2,3:2|0:2,0:0:0:0:
175,92,32888,1,6,3:2:0:0:
175,92,33036,1,2,0:2:0:0:
95,120,33184,2,0,P|94:171|103:204,1,70,6|0,3:2|0:0,0:0:0:0:
79,271,33479,1,6,3:2:0:0:
231,200,33775,6,0,P|293:184|372:210,1,140,6|10,3:2|0:2,0:0:0:0:
410,275,34218,2,0,L|406:355,1,70,2|0,3:2|0:2,0:0:0:0:
322,331,34514,2,0,P|279:325|236:333,1,70,2|0,3:2|0:2,0:0:0:0:
170,343,34809,2,0,P|123:355|26:335,1,140,10|0,3:2|0:2,0:0:0:0:
37,254,35253,2,0,L|41:177,1,70,10|0,0:2|0:2,0:0:0:0:
88,114,35548,1,0,3:0:0:0:
88,114,35696,1,0,3:0:0:0:
69,25,35844,2,0,P|121:9|156:20,1,70,10|0,3:2|3:2,0:0:0:0:
149,21,36065,1,0,3:0:0:0:
162,31,36139,6,0,P|231:43|314:6,1,140,2|10,3:2|0:2,0:0:0:0:
439,107,36730,2,0,P|456:138|450:185,2,70,2|0|10,0:2|3:2|0:2,0:0:0:0:
372,159,37174,2,0,L|361:313,1,140,10|0,3:2|3:2,0:0:0:0:
285,332,37617,1,8,0:2:0:0:
124,301,37913,1,2,3:2:0:0:
124,301,38060,1,0,3:2:0:0:
54,253,38208,2,0,P|39:195|46:156,1,70,10|0,0:2|0:2,0:0:0:0:
114,145,38504,6,0,L|263:151,1,140,2|10,3:2|0:2,0:0:0:0:
296,222,38947,2,0,P|328:188|334:156,1,70,2|2,3:2|0:2,0:0:0:0:
309,85,39243,2,0,L|401:85,1,70,2|2,3:2|0:2,0:0:0:0:
462,90,39538,2,0,P|488:159|464:235,1,140,10|0,3:2|0:2,0:0:0:0:
429,294,39982,2,0,P|415:345|418:371,1,70,10|0,0:2|0:2,0:0:0:0:
333,347,40277,1,0,0:0:0:0:
333,347,40425,1,0,0:0:0:0:
253,320,40573,2,0,P|233:265|237:225,1,70,10|0,0:2|0:2,0:0:0:0:
191,180,40868,6,0,L|40:187,1,140,6|8,3:2|0:2,0:0:0:0:
169,66,41459,1,2,3:2:0:0:
169,66,41607,1,2,3:2:0:0:
253,78,41755,2,0,P|313:87|336:83,1,70,10|2,0:2|0:2,0:0:0:0:
401,58,42051,2,0,P|437:126|433:198,1,140,6|8,3:2|0:2,0:0:0:0:
390,349,42642,1,0,3:2:0:0:
390,349,42789,1,0,3:2:0:0:
320,301,42937,2,0,P|240:301|227:305,1,70,10|0,0:2|3:2,0:0:0:0:
228,310,43159,1,0,3:2:0:0:
206,321,43233,6,0,L|205:166,1,140,6|10,3:2|0:2,0:0:0:0:
264,121,43676,2,0,L|348:118,1,70,2|0,0:2|3:2,0:0:0:0:
358,199,43972,2,0,L|442:196,1,70,2|8,0:2|0:2,0:0:0:0:
493,143,44267,2,0,P|511:181|505:234,2,70,2|0|0,0:2|3:2|0:2,0:0:0:0:
475,60,44711,2,0,L|405:62,1,70,8|0,0:2|0:2,0:0:0:0:
327,29,45006,1,0,3:2:0:0:
327,29,45154,1,0,3:2:0:0:
245,51,45302,2,0,P|174:65|162:65,1,70,10|0,0:2|0:0,0:0:0:0:
92,65,45597,6,0,L|95:214,1,140,2|10,3:2|0:2,0:0:0:0:
52,278,46041,2,0,P|109:287|131:279,1,70,2|0,0:2|3:2,0:0:0:0:
194,246,46336,2,0,P|251:237|273:245,1,70,2|8,0:2|0:2,0:0:0:0:
331,282,46632,2,0,L|326:358,2,70,2|0|0,0:2|3:2|0:2,0:0:0:0:
394,227,47075,2,0,P|415:185|417:142,1,70,10|0,0:2|0:2,0:0:0:0:
341,125,47371,2,0,P|320:83|318:40,1,70,2|0,3:2|0:2,0:0:0:0:
391,21,47666,2,0,L|480:27,1,70,10|0,0:2|0:0,0:0:0:0:
496,102,47962,6,0,B|516:142|516:142|500:255,1,140,6|8,3:2|0:2,0:0:0:0:
444,296,48405,2,0,L|462:371,2,70,0|0|0,0:2|3:2|0:2,0:0:0:0:
364,268,48849,2,0,B|326:263|326:263|286:267,1,70,8|0,0:2|0:2,0:0:0:0:
253,339,49144,2,0,L|252:182,1,140,2|10,3:2|0:2,0:0:0:0:
242,116,49587,2,0,P|277:119|308:136,2,70,2|0|10,3:2|0:0|0:2,0:0:0:0:
175,167,50031,1,6,3:2:0:0:
256,192,50179,12,0,51213,0:0:0:0:
331,123,51509,5,4,3:3:0:0:
248,308,51952,5,4,3:3:0:0:
98,315,52395,5,4,3:3:0:0:
65,207,52691,6,0,L|223:207,1,140,6|8,3:2|0:2,0:0:0:0:
357,277,53282,2,0,P|374:239|375:201,2,70,0|0|10,3:2|3:2|0:2,0:0:0:0:
292,223,53725,2,0,L|292:83,1,140,2|0,3:2|3:2,0:0:0:0:
227,28,54169,1,10,0:2:0:0:
175,94,54317,2,0,P|130:105|84:93,1,70,2|0,3:2|0:2,0:0:0:0:
34,59,54612,1,2,3:2:0:0:
38,143,54760,1,10,0:2:0:0:
44,226,54908,6,0,L|47:311,2,70,2|2|0,0:2|3:2|0:0,0:0:0:0:
127,212,55351,2,0,P|186:218|216:231,1,70,10|0,0:2|0:2,0:0:0:0:
248,287,55647,2,0,P|307:281|337:268,1,70,2|0,3:2|3:2,0:0:0:0:
378,220,55942,1,10,0:2:0:0:
308,172,56090,2,0,L|299:90,1,70,2|0,3:2|0:2,0:0:0:0:
383,88,56386,2,0,L|392:6,1,70,2|8,3:2|0:2,0:0:0:0:
306,15,56681,1,2,0:2:0:0:
221,12,56829,1,2,3:2:0:0:
136,9,56977,2,0,L|47:7,1,70,2|8,3:2|0:2,0:0:0:0:
26,81,57272,1,2,0:2:0:0:
80,145,57420,6,0,P|89:203|58:293,1,140,6|8,3:2|0:2,0:0:0:0:
229,322,58011,2,0,P|260:313|320:305,1,70,0|0,3:2|3:2,0:0:0:0:
377,332,58307,1,10,0:2:0:0:
358,250,58454,2,0,L|369:160,1,70,2|0,3:2|0:2,0:0:0:0:
285,155,58750,2,0,L|274:65,1,70,2|8,3:2|0:2,0:0:0:0:
205,39,59046,2,0,P|161:35|109:47,1,70,2|0,3:2|0:2,0:0:0:0:
110,118,59341,2,0,P|66:122|14:110,1,70,2|8,3:2|0:2,0:0:0:0:
12,198,59637,1,0,3:2:0:0:
54,270,59785,6,0,P|125:304|196:292,1,140,14|2,0:2|3:2,0:0:0:0:
242,236,60228,2,0,B|284:229|284:229|327:248|327:248|394:234,1,140,14|2,0:2|3:2,0:0:0:0:
440,183,60671,2,0,B|464:234|464:234|439:313,1,140,14|2,0:2|3:2,0:0:0:0:
377,371,61115,2,0,P|312:378|237:324,1,140,14|0,0:2|3:2,0:0:0:0:
212,265,61558,1,14,0:2:0:0:
339,155,61854,1,10,0:2:0:0:
235,23,62149,6,0,P|201:69|222:163,1,140,6|8,3:2|0:2,0:0:0:0:
357,66,62740,2,0,P|393:83|427:129,1,70,0|0,3:2|3:2,0:0:0:0:
430,187,63036,1,10,0:2:0:0:
379,254,63184,2,0,P|378:307|395:353,2,70,2|0|0,3:2|3:2|0:2,0:0:0:0:
296,268,63627,2,0,L|214:270,1,70,10|0,0:2|0:2,0:0:0:0:
174,335,63922,2,0,L|104:333,1,70,2|0,3:2|3:2,0:0:0:0:
27,298,64218,1,8,0:2:0:0:
36,214,64366,1,2,0:2:0:0:
45,130,64514,6,0,P|124:82|182:82,1,140,2|10,3:2|0:2,0:0:0:0:
246,113,64957,1,0,3:2:0:0:
313,63,65105,2,0,L|407:61,1,70,2|0,0:2|3:2,0:0:0:0:
445,118,65400,1,10,0:2:0:0:
377,168,65548,2,0,P|375:236|386:257,1,70,2|0,3:2|0:2,0:0:0:0:
452,271,65844,2,0,P|454:339|443:360,1,70,2|8,3:2|0:2,0:0:0:0:
371,356,66139,1,2,3:2:0:0:
371,356,66213,1,2,3:2:0:0:
371,356,66287,2,0,L|283:351,1,70,2|0,3:2|3:2,0:0:0:0:
216,348,66583,1,8,0:2:0:0:
265,187,66878,6,0,P|259:125|205:52,1,140,6|2,3:2|0:2,0:0:0:0:
135,82,67321,1,0,0:2:0:0:
135,82,67469,2,0,L|131:237,1,140,14|2,0:2|0:2,0:0:0:0:
61,269,67913,2,0,P|103:256|191:318,1,140,2|2,0:2|0:2,0:0:0:0:
234,365,68356,1,2,0:2:0:0:
331,228,68652,1,14,0:2:0:0:
468,324,68947,1,2,0:2:0:0:
408,166,69243,6,0,L|407:19,1,140,6|0,3:2|0:0,0:0:0:0:
281,137,69834,2,0,P|212:135|145:73,1,140,14|0,0:2|0:2,0:0:0:0:
101,30,70277,1,0,0:2:0:0:
30,76,70425,6,0,B|15:142|15:142|53:223,1,140,6|0,3:2|0:2,0:0:0:0:
184,302,71016,2,0,L|342:299,1,140,14|0,0:2|0:2,0:0:0:0:
459,200,71607,5,14,3:2:0:0:
389,152,71755,1,14,3:2:0:0:
221,119,72051,2,0,P|152:126|87:153,1,140,2|2,3:2|3:2,0:0:0:0:
36,221,72494,1,14,0:2:0:0:
72,296,72640,1,14,0:2:0:0:
240,298,72933,2,0,P|293:283|332:291,2,70,2|8|2,3:2|0:2|3:2,0:0:0:0:
168,342,73372,1,14,0:2:0:0:
168,342,73518,1,2,3:2:0:0:
167,258,73664,1,14,0:2:0:0:
167,258,73811,1,10,0:2:0:0:
235,197,73972,6,0,P|275:148|283:62,1,140,6|0,3:2|0:2,0:0:0:0:
229,10,74415,2,0,P|289:49|377:27,1,140,6|2,3:2|3:2,0:0:0:0:
429,3,74858,1,6,3:2:0:0:
429,3,75006,1,0,3:2:0:0:
480,247,75435,5,10,3:2:0:0:
480,247,75579,1,8,3:2:0:0:
398,226,75723,1,10,3:2:0:0:
398,226,75867,1,8,3:2:0:0:
333,279,76011,2,0,L|262:283,1,70,10|0,3:2|0:0,0:0:0:0:
179,343,76336,6,0,P|160:295|163:249,1,70,6|2,3:2|3:2,0:0:0:0:
183,196,76631,1,8,3:2:0:0:
156,109,76779,1,0,3:2:0:0:
156,109,76853,1,0,3:2:0:0:
156,109,76927,2,0,L|62:112,2,70,10|2|10,3:2|3:2|3:2,0:0:0:0:
242,85,77370,1,0,3:2:0:0:
313,41,77518,6,0,L|363:36,3,35,8|0|2|0,3:2|0:0|3:2|3:2,0:0:0:0:
375,69,77813,2,0,L|409:72,3,35,10|0|2|0,3:2|3:2|3:2|3:2,0:0:0:0:
450,58,78109,5,8,3:2:0:0:
450,58,78257,1,10,3:2:0:0:
458,141,78404,1,8,3:2:0:0:
458,141,78552,1,10,3:2:0:0:
404,205,78700,5,4,3:2:0:0:
305,341,78996,2,0,L|220:341,1,70,10|0,0:2|0:2,0:0:0:0:
159,303,79291,1,2,3:2:0:0:
159,303,79439,2,0,P|159:246|166:221,1,70,2|10,0:2|0:2,0:0:0:0:
230,184,79735,2,0,L|83:186,1,140,2|0,0:2|0:2,0:0:0:0:
6,191,80178,2,0,L|3:268,2,70,10|2|2,0:2|0:2|3:2,0:0:0:0:
48,118,80621,1,2,0:2:0:0:
48,118,80769,1,8,0:2:0:0:
200,46,81065,6,0,L|291:38,2,70,0|0|8,3:2|0:2|0:2,0:0:0:0:
124,83,81508,1,0,0:2:0:0:
286,126,81803,2,0,L|355:132,2,70,2|10|2,3:2|0:2|3:2,0:0:0:0:
424,222,82395,2,0,L|493:228,2,70,2|10|2,3:2|0:2|3:2,0:0:0:0:
387,297,82838,1,2,3:2:0:0:
387,297,82986,2,0,P|331:306|295:298,1,70,2|8,0:2|0:2,0:0:0:0:
290,224,83281,1,0,0:2:0:0:
290,224,83429,6,0,L|292:133,1,70,4|0,3:2|0:2,0:0:0:0:
253,78,83725,2,0,P|210:58|175:56,1,70,10|0,0:2|0:2,0:0:0:0:
163,135,84020,1,2,3:2:0:0:
163,135,84168,2,0,P|120:155|85:157,1,70,2|8,0:2|0:2,0:0:0:0:
106,241,84464,2,0,P|140:247|171:263,1,70,2|0,3:2|0:0,0:0:0:0:
202,341,84759,2,0,P|236:334|267:318,1,70,2|8,0:2|0:2,0:0:0:0:
340,275,85055,6,0,P|355:309|343:365,2,70,2|2|2,0:2|3:2|0:2,0:0:0:0:
284,211,85498,1,10,0:2:0:0:
368,65,85794,5,4,3:2:0:0:
144,112,87116,5,0,3:2:0:0:
312,117,87409,1,0,3:2:0:0:
227,262,87701,1,0,3:2:0:0:
135,106,87994,1,0,3:2:0:0:
320,112,88286,1,0,3:2:0:0:
226,271,88577,1,0,3:2:0:0:
144,112,88869,1,0,3:2:0:0:
227,352,89160,5,4,3:2:0:0:
