osu file format v14

[General]
AudioFilename: audio.mp3
AudioLeadIn: 0
PreviewTime: 52395
Countdown: 0
SampleSet: Soft
StackLeniency: 0.6
Mode: 0
LetterboxInBreaks: 0
WidescreenStoryboard: 0

[Editor]
Bookmarks: 4219,11313,13677,18394,20770,33775,51509,52691,62149,66878,71607,76336
DistanceSpacing: 0.7
BeatDivisor: 4
GridSize: 16
TimelineZoom: 2.7

[Metadata]
Title:Seven Doors
TitleUnicode:Seven Doors
Artist:ZAQ
ArtistUnicode:ZAQ
Creator:Mir
Version:Guilt
Source:トリニティセブン
Tags:trinity 7人の魔書使い op opening bor _83 borborygmos
BeatmapID:1392499
BeatmapSetID:657401

[Difficulty]
HPDrainRate:6.5
CircleSize:4
OverallDifficulty:9.2
ApproachRate:9.4
SliderMultiplier:2.3
SliderTickRate:1

[Events]
//Background and Video events
0,0,"nogoodbg.jpg",0,0
//Break Periods
//Storyboard Layer 0 (Background)
//Storyboard Layer 1 (Fail)
//Storyboard Layer 2 (Pass)
//Storyboard Layer 3 (Foreground)
//Storyboard Sound Samples

[TimingPoints]
1855,295.566502463054,4,2,1,60,1,0
11313,294.117647058824,4,2,1,60,1,0
17223,287.081339712919,4,2,1,60,1,0
17797,298.507462686567,4,2,1,60,1,0
18394,298.507462686567,4,2,1,60,1,0
19588,295.566502463054,4,2,1,60,1,0
23134,-200,4,2,1,30,0,0
32592,-200,4,2,1,50,0,0
33775,-125,4,2,1,60,0,0
52691,-83.3333333333333,4,2,1,60,0,1
66878,-100,4,2,1,60,0,0
72494,292.682926829268,4,2,1,70,1,0
73972,295.566502463054,4,2,1,70,1,0
75435,288.461538461538,4,2,1,60,1,0
76336,295.566502463054,4,2,1,90,1,0
86970,292.682926829268,4,2,1,100,1,0
88141,291.26213592233,4,2,1,100,1,0

[Colours]
Combo1 : 198,168,168
Combo2 : 255,159,159
Combo3 : 222,184,184
Combo4 : 235,160,192

[HitObjects]
256,192,1855,12,0,3923,0:2:0:0:
68,148,4219,6,0,P|125:140|208:142,1,115,4|0,3:2|0:2,0:2:0:0:
222,263,4515,1,10,0:2:0:0:
231,43,4662,1,2,0:2:0:0:
239,237,4810,1,2,3:2:0:0:
392,194,4958,2,0,P|422:126|408:79,1,115,2|8,0:2|0:2,0:2:0:0:
267,324,5254,6,0,B|390:368|381:282|507:334,1,230,2|0,3:2|0:2,0:2:0:0:
320,247,5697,1,10,0:2:0:0:
117,357,5845,1,2,0:2:0:0:
202,135,5992,1,2,3:2:0:0:
179,308,6140,2,0,P|120:303|25:306,1,115,2|8,0:2|0:2,0:2:0:0:
190,104,6436,1,2,0:2:0:0:
305,301,6584,5,2,3:2:0:0:
73,187,6731,1,2,0:2:0:0:
409,165,6879,1,10,0:2:0:0:
153,224,7027,1,2,0:2:0:0:
63,193,7322,5,2,3:2:0:0:
399,171,7470,1,10,0:2:0:0:
143,230,7618,1,2,3:2:0:0:
55,199,7914,5,2,3:2:0:0:
391,177,8062,1,10,0:2:0:0:
135,236,8210,1,2,3:2:0:0:
224,66,8357,5,2,0:2:0:0:
301,246,8505,2,0,B|318:299|318:299|302:376,1,115,2|8,3:2|0:2,0:2:0:0:
174,337,8800,1,0,0:2:0:0:
401,62,8948,5,4,3:2:0:0:
293,225,9096,1,0,0:2:0:0:
194,121,9244,2,0,L|338:121,1,115,10|0,0:2|0:2,0:2:0:0:
123,46,9539,1,2,3:2:0:0:
157,220,9687,2,0,P|96:174|84:116,1,115,2|8,0:2|0:2,0:2:0:0:
160,340,9983,6,0,L|404:326,1,230,2|2,3:2|0:2,0:2:0:0:
455,106,10426,1,8,0:2:0:0:
495,262,10574,1,2,0:2:0:0:
296,151,10721,1,2,3:2:0:0:
246,253,10869,1,2,0:2:0:0:
346,65,11017,2,0,P|291:52|208:96,1,115,14|0,0:2|0:2,0:2:0:0:
152,308,11313,5,12,0:2:0:0:
134,36,11460,1,0,3:2:0:0:
72,270,11607,1,0,3:2:0:0:
341,234,11754,5,12,0:2:0:0:
49,156,11901,1,0,3:2:0:0:
246,253,12048,1,0,3:2:0:0:
134,36,12195,5,12,0:2:0:0:
28,340,12342,1,0,3:2:0:0:
198,93,12489,1,0,3:2:0:0:
53,252,12636,5,12,0:2:0:0:
329,233,12783,1,0,3:2:0:0:
49,156,12930,1,0,3:2:0:0:
290,99,13077,5,12,3:2:0:0:
290,99,13151,1,0,3:2:0:0:
290,99,13224,1,0,3:2:0:0:
232,190,13371,2,0,P|319:201|401:117,1,172.5,4|0,3:2|0:2,0:2:0:0:
406,119,13665,6,0,B|433:90|433:90|429:274,1,172.5,4|0,3:2|0:2,0:2:0:0:
428,263,13960,1,10,0:2:0:0:
290,99,14107,1,0,0:2:0:0:
213,301,14254,1,2,3:2:0:0:
430,296,14401,2,0,P|376:298|310:292,1,115,2|8,0:2|0:2,0:2:0:0:
124,143,14695,6,0,B|81:259|81:259|124:356,1,230,2|0,3:2|0:2,0:2:0:0:
250,380,15136,1,10,0:2:0:0:
212,177,15283,1,2,0:2:0:0:
136,368,15430,1,2,3:2:0:0:
295,257,15577,2,0,P|324:186|314:132,1,115,2|8,0:2|0:2,0:2:0:0:
199,32,15871,1,2,0:2:0:0:
201,268,16018,5,0,3:2:0:0:
369,216,16165,1,0,0:2:0:0:
61,220,16313,1,8,0:2:0:0:
320,149,16460,1,0,0:2:0:0:
381,209,16754,5,2,3:2:0:0:
73,213,16902,1,10,0:2:0:0:
332,142,17049,1,2,3:2:0:0:
395,204,17366,5,2,3:2:0:0:
87,208,17510,1,10,0:2:0:0:
346,137,17653,1,2,3:2:0:0:
219,74,17797,5,2,3:2:0:0:
328,269,17946,2,0,P|379:293|463:278,1,115,0|8,0:0|0:0,0:0:0:0:
445,134,18244,1,0,0:2:0:0:
228,345,18394,6,0,L|220:186,1,115,4|0,3:2|0:2,0:2:0:0:
13,252,18692,2,0,P|67:297|135:299,1,115,10|0,0:2|0:2,0:2:0:0:
261,147,18991,1,2,3:2:0:0:
94,84,19140,2,0,L|99:198,1,115,2|8,0:2|0:2,0:2:0:0:
315,70,19438,6,0,P|229:59|186:84,1,115,2|0,3:2|0:2,0:2:0:0:
379,197,19735,2,0,P|433:211|488:196,1,115,2|8,0:2|0:2,0:2:0:0:
315,70,20031,1,2,0:2:0:0:
289,263,20179,1,2,3:2:0:0:
417,74,20326,1,2,0:2:0:0:
201,222,20474,1,10,0:2:0:0:
379,197,20622,1,0,0:2:0:0:
38,239,20770,5,4,3:2:0:0:
254,0,22100,5,4,3:2:0:0:
211,381,22395,1,4,3:2:0:0:
458,212,22691,5,4,3:2:0:0:
110,176,22839,1,4,3:2:0:0:
86,157,23134,6,0,P|133:145|210:151,1,115,2|0,0:2|0:2,0:2:0:0:
269,200,23578,1,0,0:2:0:0:
281,113,23725,2,0,L|282:47,2,57.5,2|2|2,0:2|0:2|0:2,0:2:0:0:
265,284,24169,6,0,P|312:296|389:290,1,115,2|0,0:2|0:2,0:2:0:0:
432,230,24612,1,2,0:2:0:0:
461,312,24760,1,0,0:2:0:0:
401,154,24908,1,0,0:2:0:0:
233,184,25055,5,2,0:2:0:0:
258,99,25203,1,2,0:2:0:0:
315,167,25351,1,2,0:2:0:0:
170,117,25499,6,0,P|177:64|191:44,1,57.5,2|0,0:2|0:2,0:2:0:0:
85,157,25794,2,0,P|94:184|93:212,1,57.5,2|0,0:2|0:2,0:2:0:0:
51,293,26090,1,2,0:2:0:0:
184,252,26238,1,2,0:2:0:0:
33,308,26386,1,2,0:2:0:0:
212,352,26533,6,0,P|277:352|326:310,1,115,2|0,0:2|0:2,0:2:0:0:
341,241,26977,1,0,0:2:0:0:
406,301,27124,1,0,0:2:0:0:
272,181,27272,1,0,0:2:0:0:
263,169,27568,5,2,0:2:0:0:
155,116,27716,1,2,0:2:0:0:
63,198,27863,1,2,0:2:0:0:
68,218,28159,5,2,0:2:0:0:
176,267,28307,1,2,0:2:0:0:
272,181,28454,1,2,0:2:0:0:
283,192,28898,6,0,P|343:174|403:181,1,115,2|2,0:2|0:2,0:2:0:0:
401,269,29341,2,0,P|461:287|521:280,2,115,2|2|2,0:2|0:2|0:2,0:2:0:0:
306,215,30228,5,2,0:0:0:0:
256,192,30302,12,0,32445,0:2:0:0:
222,94,32592,5,6,3:2:0:0:
243,200,32740,1,2,0:2:0:0:
451,36,32888,1,6,3:2:0:0:
426,138,33036,1,2,0:2:0:0:
194,0,33184,5,6,3:2:0:0:
353,369,33479,1,6,3:2:0:0:
362,361,33775,6,0,P|371:289|325:200,1,138,6|0,3:2|0:2,0:2:0:0:
331,201,34070,1,10,0:2:0:0:
160,288,34218,2,0,P|208:291|258:284,1,92,2|0,3:2|0:2,0:2:0:0:
132,198,34514,2,0,P|83:194|34:202,1,92,2|0,3:2|0:2,0:2:0:0:
200,39,34809,6,0,B|255:15|255:15|231:152,1,184,10|0,3:2|0:2,0:2:0:0:
375,289,35253,2,0,P|409:258|425:216,1,92,10|0,0:2|0:2,0:2:0:0:
331,201,35548,1,0,3:0:0:0:
301,342,35696,1,0,3:0:0:0:
391,135,35844,1,10,3:2:0:0:
399,108,35918,1,0,3:2:0:0:
408,77,35991,1,0,3:2:0:0:
417,46,36065,1,0,3:2:0:0:
424,14,36139,6,0,L|246:19,1,138,2|0,3:2|0:2,0:2:0:0:
260,37,36435,1,10,0:2:0:0:
391,139,36583,1,0,3:2:0:0:
217,149,36730,2,0,P|285:174|307:209,1,92,2|0,0:2|3:2,0:2:0:0:
152,250,37026,1,10,0:2:0:0:
59,41,37174,6,0,L|54:215,1,138,10|0,3:2|0:2,0:2:0:0:
53,211,37469,1,0,3:2:0:0:
49,371,37617,2,0,P|119:380|196:347,1,138,8|0,0:2|0:2,0:2:0:0:
208,339,37913,1,2,3:2:0:0:
61,225,38060,1,0,3:2:0:0:
296,187,38208,2,0,P|314:238|298:285,1,92,10|0,0:2|0:2,0:2:0:0:
198,89,38504,6,0,B|270:63|257:122|369:87,1,138,2|0,3:2|0:2,0:2:0:0:
364,84,38799,1,10,0:2:0:0:
132,35,38947,2,0,P|112:88|126:133,1,92,2|2,3:2|0:2,0:2:0:0:
196,261,39243,2,0,P|202:216|183:174,1,92,2|2,3:2|0:2,0:2:0:0:
493,223,39538,6,0,L|298:222,1,184,10|0,3:2|0:2,0:2:0:0:
295,367,39982,2,0,P|342:338|362:285,1,92,10|0,0:2|0:2,0:2:0:0:
311,131,40277,2,0,L|310:222,1,92,0|0,0:0|0:0,0:2:0:0:
91,174,40573,2,0,P|136:179|182:174,1,92,10|0,0:2|0:2,0:2:0:0:
353,47,40868,6,0,B|263:23|269:83|156:53,1,184,6|8,3:2|0:2,0:2:0:0:
172,56,41312,1,0,0:2:0:0:
375,59,41459,1,2,3:2:0:0:
310,222,41607,2,0,L|311:131,1,92,2|10,3:2|0:2,0:2:0:0:
375,59,41903,1,2,0:2:0:0:
380,287,42051,6,0,P|330:314|233:275,1,138,6|0,3:2|0:2,0:2:0:0:
228,277,42346,2,0,L|117:278,1,92,8|0,0:2|0:2,0:2:0:0:
63,221,42642,1,0,3:2:0:0:
124,359,42789,1,0,3:2:0:0:
149,186,42937,2,0,P|149:117|128:83,1,92,10|0,0:2|3:2,0:2:0:0:
117,73,43159,1,0,3:2:0:0:
92,52,43233,6,0,L|258:46,1,138,6|0,3:2|0:2,0:2:0:0:
262,45,43528,1,10,0:2:0:0:
354,120,43676,2,0,P|317:147|272:152,1,92,2|0,0:2|3:2,0:2:0:0:
347,31,43972,2,0,P|392:36|429:64,1,92,2|8,0:2|0:2,0:2:0:0:
474,173,44267,6,0,B|486:217|486:217|477:287,2,92,2|0|0,0:2|3:2|0:2,0:2:0:0:
301,256,44711,2,0,L|404:253,1,92,8|0,0:2|0:2,0:2:0:0:
363,346,45006,1,8,3:0:0:0:
272,152,45154,1,0,3:0:0:0:
186,305,45302,2,0,P|126:301|65:228,1,138,10|0,0:2|0:2,0:2:0:0:
58,219,45597,6,0,L|208:218,1,138,2|0,3:2|0:2,0:2:0:0:
228,220,45893,1,10,0:2:0:0:
240,58,46041,2,0,P|192:96|178:148,1,92,2|0,0:2|3:2,0:2:0:0:
348,233,46336,2,0,P|326:192|288:167,1,92,2|8,0:2|0:2,0:2:0:0:
340,331,46632,6,0,L|448:333,2,92,2|0|0,0:2|3:2|0:2,0:2:0:0:
227,329,47075,2,0,L|135:327,1,92,10|0,0:2|0:2,0:2:0:0:
108,149,47371,1,2,3:2:0:0:
69,237,47519,1,0,0:2:0:0:
120,59,47666,2,0,P|171:84|191:192,1,138,10|0,0:2|0:2,0:2:0:0:
210,187,47962,6,0,L|387:187,1,138,6|0,3:2|0:2,0:2:0:0:
380,187,48257,1,8,0:2:0:0:
431,87,48405,2,0,P|429:39|401:-1,2,92,0|0|0,0:2|3:2|0:2,0:2:0:0:
380,187,48849,2,0,P|355:225|354:270,1,92,8|0,0:2|0:2,0:2:0:0:
415,348,49144,6,0,P|353:322|256:354,1,138,2|0,3:2|0:2,0:2:0:0:
260,355,49440,1,10,0:2:0:0:
66,219,49587,2,0,P|128:193|225:225,1,138,2|0,3:2|0:2,0:2:0:0:
221,226,49883,1,10,0:2:0:0:
336,56,50031,5,6,3:2:0:0:
256,192,50105,12,0,51361,0:2:0:0:
424,28,51509,5,4,3:3:0:0:
118,185,51952,5,4,3:3:0:0:
270,357,52395,5,4,3:3:0:0:
457,134,52691,6,0,B|305:120|305:120|343:127|382:165,1,206.999993682861,6|0,3:2|0:2,0:2:0:0:
293,200,52987,2,0,L|303:343,1,137.999995788574,8|0,0:2|0:2,0:2:0:0:
462,258,53282,1,0,3:2:0:0:
224,149,53430,1,0,3:2:0:0:
393,384,53578,1,10,0:2:0:0:
254,59,53725,6,0,B|179:19|102:45|102:45|140:52|179:90,1,206.999993682861,2|0,3:2|0:2,0:2:0:0:
128,153,54021,1,0,3:2:0:0:
330,7,54169,1,10,0:2:0:0:
212,191,54317,2,0,P|164:239|97:246,1,137.999995788574,2|0,3:2|0:2,0:2:0:0:
147,64,54612,1,2,3:2:0:0:
190,331,54760,1,10,0:2:0:0:
380,137,54908,1,2,0:2:0:0:
380,137,54982,1,2,0:2:0:0:
380,137,55055,6,0,B|442:94|442:94|417:248,1,206.999993682861,2|0,3:2|0:2,0:2:0:0:
415,314,55351,2,0,L|265:314,1,137.999995788574,10|0,0:2|0:2,0:2:0:0:
111,191,55647,1,2,3:2:0:0:
199,364,55794,1,0,3:2:0:0:
198,68,55942,1,10,0:2:0:0:
33,248,56090,6,0,L|171:248,1,137.999995788574,2|0,3:2|0:2,0:2:0:0:
433,70,56386,2,0,L|295:70,1,137.999995788574,2|8,3:2|0:2,0:2:0:0:
171,248,56681,1,2,0:2:0:0:
175,45,56829,1,2,3:2:0:0:
262,276,56977,2,0,P|214:339|141:349,1,137.999995788574,2|8,3:2|0:2,0:2:0:0:
265,189,57272,5,2,0:2:0:0:
265,189,57346,1,2,0:2:0:0:
265,189,57420,2,0,B|406:185|406:185|339:224,1,206.999993682861,6|0,3:2|0:2,0:2:0:0:
262,276,57716,2,0,L|124:281,1,137.999995788574,8|0,0:2|0:2,0:2:0:0:
71,169,58011,1,0,3:2:0:0:
219,357,58159,1,0,3:2:0:0:
307,91,58307,1,10,0:2:0:0:
46,201,58454,6,0,L|215:192,1,137.999995788574,2|0,3:2|0:2,0:2:0:0:
399,268,58750,2,0,L|261:275,1,137.999995788574,2|8,3:2|0:2,0:2:0:0:
450,351,59046,2,0,P|492:299|491:232,1,137.999995788574,2|0,3:2|0:2,0:2:0:0:
433,90,59341,1,2,3:2:0:0:
399,268,59489,1,8,0:2:0:0:
348,158,59637,1,0,3:2:0:0:
106,357,59785,5,14,0:2:0:0:
126,39,59932,1,0,3:2:0:0:
199,290,60080,1,2,3:2:0:0:
452,150,60228,5,14,0:2:0:0:
102,226,60376,1,0,3:2:0:0:
280,310,60523,1,2,3:2:0:0:
464,22,60671,5,14,0:2:0:0:
429,250,60819,1,0,3:2:0:0:
366,147,60967,1,2,3:2:0:0:
106,320,61115,5,14,0:2:0:0:
201,124,61262,1,0,3:2:0:0:
208,248,61410,1,0,3:2:0:0:
135,56,61558,6,0,P|220:35|279:66,1,137.999995788574,14|0,0:2|0:2,0:2:0:0:
429,157,61854,2,0,P|364:176|300:154,1,137.999995788574,10|0,0:2|0:2,0:2:0:0:
465,72,62149,6,0,L|449:290,1,206.999993682861,6|0,3:2|0:2,0:2:0:0:
434,363,62445,2,0,B|385:351|385:351|265:358,1,137.999995788574,8|0,0:2|0:2,0:2:0:0:
194,372,62740,1,0,3:2:0:0:
212,206,62888,1,0,3:2:0:0:
90,324,63036,1,10,0:2:0:0:
296,249,63184,6,0,P|305:183|263:130,2,137.999995788574,2|0|0,3:2|3:2|0:2,0:2:0:0:
74,206,63627,2,0,L|239:206,1,137.999995788574,10|0,0:2|0:2,0:2:0:0:
322,78,63922,1,2,3:2:0:0:
224,294,64070,1,0,3:2:0:0:
242,51,64218,1,8,0:2:0:0:
448,186,64366,1,2,0:2:0:0:
224,37,64514,6,0,L|52:44,1,137.999995788574,2|0,3:2|0:2,0:2:0:0:
312,167,64809,2,0,L|477:167,1,137.999995788574,10|0,0:2|3:2,0:2:0:0:
264,257,65105,2,0,P|212:194|222:119,1,137.999995788574,2|0,0:2|3:2,0:2:0:0:
369,88,65400,1,10,0:2:0:0:
331,311,65548,6,0,L|193:311,1,137.999995788574,2|0,3:2|0:2,0:2:0:0:
98,359,65844,1,2,3:2:0:0:
212,140,65991,1,8,0:2:0:0:
413,275,66139,1,2,3:2:0:0:
413,275,66213,1,2,3:2:0:0:
413,275,66287,1,2,3:2:0:0:
160,217,66435,1,0,3:2:0:0:
321,68,66583,2,0,B|388:32|388:32|354:178,1,206.999993682861,8|0,0:2|0:2,0:2:0:0:
356,199,66878,6,0,P|271:187|201:201,1,115,6|0,3:2|0:2,0:2:0:0:
114,302,67174,2,0,P|171:304|227:293,1,115,2|0,0:2|0:2,0:2:0:0:
67,19,67469,2,0,B|38:102|38:102|66:224,1,172.5,14|0,0:2|0:2,0:2:0:0:
72,222,67765,1,2,0:2:0:0:
275,61,67913,6,0,P|337:53|422:93,1,115,2|4,0:2|3:2,0:2:0:0:
458,129,68208,1,2,0:2:0:0:
361,281,68356,2,0,P|353:218|385:167,1,115,2|0,0:2|0:2,0:2:0:0:
421,334,68652,2,0,L|281:338,1,115,14|0,0:2|0:2,0:2:0:0:
134,273,68947,2,0,L|248:269,1,115,2|0,0:2|0:2,0:2:0:0:
71,328,69243,6,0,B|25:379|25:379|51:73,1,345,6|0,3:2|0:2,0:2:0:0:
326,61,69834,2,0,P|277:122|116:79,1,230,14|0,0:2|0:2,0:2:0:0:
138,107,70277,1,0,0:2:0:0:
396,138,70425,6,0,B|421:80|421:80|440:268,1,230,6|0,3:2|0:2,0:2:0:0:
437,245,70868,1,0,0:2:0:0:
274,288,71016,2,0,P|317:277|497:333,1,230,14|0,0:2|0:2,0:2:0:0:
122,78,71607,5,14,3:2:0:0:
189,324,71755,1,14,3:2:0:0:
197,349,72051,1,2,3:2:0:0:
117,308,72346,5,2,3:2:0:0:
401,201,72494,1,14,0:2:0:0:
141,186,72640,1,14,0:2:0:0:
109,185,72933,5,2,3:2:0:0:
263,50,73079,1,8,0:2:0:0:
249,261,73225,1,2,3:2:0:0:
129,44,73372,5,14,0:2:0:0:
352,115,73518,1,2,3:2:0:0:
79,188,73664,1,14,0:2:0:0:
376,233,73811,1,10,0:2:0:0:
193,325,73972,6,0,B|153:377|153:377|165:142,1,287.5,6|0,3:2|0:2,0:2:0:0:
180,131,74415,2,0,L|173:269,1,115,6|0,3:2|0:2,0:2:0:0:
193,325,74710,1,2,3:2:0:0:
122,32,74858,1,6,3:2:0:0:
72,149,75006,1,0,3:2:0:0:
68,122,75435,5,10,3:2:0:0:
113,333,75579,1,8,3:2:0:0:
174,111,75723,1,10,3:2:0:0:
224,366,75867,1,8,3:2:0:0:
113,28,76011,2,0,L|287:22,1,172.5,10|0,3:2|0:2,0:2:0:0:
367,14,76336,5,6,3:2:0:0:
238,215,76483,1,2,3:2:0:0:
238,215,76557,1,0,3:2:0:0:
238,215,76631,1,8,3:2:0:0:
388,164,76780,2,0,L|445:165,2,57.5,2|0|8,3:2|3:2|3:2,0:2:0:0:
92,176,77074,2,0,L|34:177,2,57.5,2|0|10,3:2|3:2|3:2,0:2:0:0:
238,215,77370,1,0,3:2:0:0:
238,215,77444,1,0,3:2:0:0:
238,215,77518,5,8,3:2:0:0:
192,323,77666,2,0,L|255:325,1,57.5,2|0,3:2|3:2,0:2:0:0:
418,282,77813,1,10,3:2:0:0:
451,236,77886,1,0,3:2:0:0:
452,179,77960,1,2,3:2:0:0:
420,133,78034,1,0,3:2:0:0:
367,113,78108,5,8,3:2:0:0:
363,357,78257,1,10,3:2:0:0:
491,83,78404,1,8,3:2:0:0:
361,379,78552,1,10,3:2:0:0:
329,191,78700,6,0,B|296:160|296:160|278:313,1,172.5,4|0,3:2|0:2,0:2:0:0:
273,326,78996,2,0,L|139:323,1,115,10|0,0:2|0:2,0:2:0:0:
93,186,79291,1,2,3:2:0:0:
60,330,79439,1,2,0:2:0:0:
191,147,79587,1,10,0:2:0:0:
1,230,79735,6,0,P|-6:145|23:95,2,115,2|0|0,0:2|3:2|0:2,0:2:0:0:
160,339,80178,1,10,0:2:0:0:
276,113,80326,1,2,0:2:0:0:
66,304,80473,1,2,3:2:0:0:
311,235,80621,2,0,L|447:239,1,115,2|8,0:2|0:2,0:2:0:0:
267,317,80917,1,2,0:2:0:0:
321,37,81065,5,0,3:2:0:0:
161,210,81212,1,0,0:2:0:0:
467,120,81360,1,8,0:2:0:0:
82,163,81508,1,0,0:2:0:0:
151,216,81803,5,2,3:2:0:0:
457,126,81951,1,10,0:2:0:0:
72,169,82099,1,2,3:2:0:0:
140,223,82395,5,2,3:2:0:0:
446,133,82543,1,10,0:2:0:0:
61,176,82691,1,2,3:2:0:0:
289,269,82838,5,2,3:2:0:0:
238,47,82986,1,2,0:2:0:0:
223,339,83134,2,0,P|274:363|330:355,1,115,8|0,0:2|0:2,0:2:0:0:
503,188,83429,6,0,L|367:189,1,115,4|0,3:2|0:2,0:2:0:0:
170,244,83725,2,0,L|284:243,1,115,10|0,0:2|0:2,0:2:0:0:
346,82,84020,1,2,3:2:0:0:
476,278,84168,2,0,P|483:337|457:384,1,115,2|8,0:2|0:2,0:2:0:0:
184,151,84464,6,0,B|323:152,1,115,2|0,3:2|0:2,0:2:0:0:
493,111,84759,2,0,P|505:33|483:-5,1,115,2|8,0:2|0:2,0:2:0:0:
298,151,85055,1,2,0:2:0:0:
393,205,85202,1,2,3:2:0:0:
272,28,85350,1,2,0:2:0:0:
113,111,85498,1,10,0:2:0:0:
346,82,85646,1,0,0:0:0:0:
242,357,85794,5,4,3:2:0:0:
76,61,87116,5,0,3:2:0:0:
450,131,87409,1,0,3:2:0:0:
57,72,87701,1,0,3:2:0:0:
468,149,87994,1,0,3:2:0:0:
40,86,88286,1,0,3:2:0:0:
489,170,88577,1,0,3:2:0:0:
24,103,88869,1,0,3:2:0:0:
267,378,89160,5,4,3:2:0:0:
