osu file format v14

[General]
AudioFilename: audio.mp3
AudioLeadIn: 0
PreviewTime: 52395
Countdown: 0
SampleSet: Soft
StackLeniency: 0.6
Mode: 0
LetterboxInBreaks: 0
WidescreenStoryboard: 1

[Editor]
Bookmarks: 4219,11313,13677,18394,20770,33775,46336,51509,52691,62149,66878,71607,76336
DistanceSpacing: 0.7
BeatDivisor: 4
GridSize: 16
TimelineZoom: 2.7

[Metadata]
Title:Seven Doors
TitleUnicode:Seven Doors
Artist:ZAQ
ArtistUnicode:ZAQ
Creator:Mir
Version:Extra
Source:トリニティセブン
Tags:trinity 7人の魔書使い op opening bor _83 borborygmos
BeatmapID:1394371
BeatmapSetID:657401

[Difficulty]
HPDrainRate:6
CircleSize:4
OverallDifficulty:8.7
ApproachRate:9.2
SliderMultiplier:2
SliderTickRate:1

[Events]
//Background and Video events
0,0,"nogoodbg.jpg",0,0
//Break Periods
//Storyboard Layer 0 (Background)
//Storyboard Layer 1 (Fail)
//Storyboard Layer 2 (Pass)
//Storyboard Layer 3 (Foreground)
//Storyboard Sound Samples

[TimingPoints]
1855,295.566502463054,4,2,1,60,1,0
11313,294.117647058824,4,2,1,60,1,0
17223,287.081339712919,4,2,1,60,1,0
17797,298.507462686567,4,2,1,60,1,0
18394,298.507462686567,4,2,1,60,1,0
19588,295.566502463054,4,2,1,60,1,0
23134,-200,4,2,1,30,0,0
32592,-200,4,2,1,50,0,0
33775,-125,4,2,1,60,0,0
52691,-83.3333333333333,4,2,1,60,0,1
66878,-100,4,2,1,60,0,0
72494,292.682926829268,4,2,1,70,1,0
73972,295.566502463054,4,2,1,70,1,0
75435,288.461538461538,4,2,1,60,1,0
76336,295.566502463054,4,2,1,90,1,0
86970,292.682926829268,4,2,1,100,1,0
88141,291.26213592233,4,2,1,100,1,0

[Colours]
Combo1 : 198,168,168
Combo2 : 255,159,159
Combo3 : 222,184,184
Combo4 : 235,160,192

[HitObjects]
256,192,1855,12,0,3923,0:2:0:0:
430,93,4219,6,0,P|380:90|306:149,1,100,4|0,3:2|0:2,0:0:0:0:
402,279,4515,2,0,L|396:168,1,100,10|2,0:2|0:2,0:0:0:0:
364,8,4810,1,2,3:2:0:0:
253,141,4958,2,0,P|203:143|129:85,1,100,2|8,0:2|0:2,0:0:0:0:
116,18,5254,6,0,L|129:239,1,200,2|0,3:2|0:2,0:0:0:0:
196,275,5697,1,10,0:2:0:0:
43,239,5845,1,2,0:2:0:0:
207,197,5992,1,2,3:2:0:0:
121,366,6140,2,0,L|261:363,1,100,2|8,0:2|0:2,0:0:0:0:
279,245,6436,1,2,0:2:0:0:
413,345,6584,5,2,3:2:0:0:
287,162,6731,1,2,0:2:0:0:
452,212,6879,1,10,0:2:0:0:
279,245,7027,1,2,0:2:0:0:
278,162,7322,5,2,3:2:0:0:
443,212,7470,1,10,0:2:0:0:
270,245,7618,1,2,3:2:0:0:
271,161,7914,5,2,3:2:0:0:
436,211,8062,1,10,0:2:0:0:
263,244,8210,1,2,3:2:0:0:
373,117,8357,1,2,0:2:0:0:
367,293,8505,2,0,P|330:341|283:357,1,100,2|8,3:2|0:2,0:0:0:0:
192,307,8800,1,0,0:2:0:0:
9,373,8948,6,0,L|128:367,1,100,4|0,3:2|0:2,0:0:0:0:
195,280,9244,2,0,L|76:274,1,100,10|0,0:2|0:2,0:0:0:0:
108,367,9539,1,2,3:2:0:0:
35,197,9687,2,0,P|0:254|5:306,1,100,2|8,0:2|0:2,0:0:0:0:
129,188,9983,6,0,B|148:141|148:141|140:76,1,100,2|0,3:2|0:0,0:0:0:0:
31,3,10278,2,0,B|24:51|24:51|43:98,1,100,2|8,0:2|0:2,0:0:0:0:
236,115,10574,1,2,0:2:0:0:
143,264,10721,1,2,3:2:0:0:
141,92,10869,1,2,0:2:0:0:
240,290,11017,2,0,L|382:284,1,100,14|0,0:2|0:2,0:0:0:0:
383,166,11313,5,12,0:2:0:0:
138,230,11460,1,0,3:2:0:0:
302,182,11607,1,0,3:2:0:0:
80,309,11754,5,12,0:2:0:0:
168,145,11901,1,0,3:2:0:0:
178,358,12048,1,0,3:2:0:0:
302,182,12195,5,12,0:2:0:0:
84,168,12342,1,0,3:2:0:0:
239,290,12489,1,0,3:2:0:0:
185,34,12636,5,12,0:2:0:0:
218,210,12783,1,0,3:2:0:0:
282,78,12930,1,0,3:2:0:0:
54,97,13077,5,12,3:2:0:0:
54,97,13151,1,0,3:2:0:0:
54,97,13224,1,0,3:2:0:0:
104,167,13371,2,0,L|100:335,1,150,4|0,3:2|0:2,0:0:0:0:
87,338,13665,6,0,P|146:312|210:321,1,100,4|0,3:2|0:0,0:0:0:0:
345,367,13960,2,0,L|230:366,1,100,10|0,0:2|0:2,0:0:0:0:
203,226,14254,1,2,3:2:0:0:
284,175,14401,2,0,P|300:228|281:287,1,100,2|8,0:2|0:2,0:0:0:0:
213,99,14695,6,0,P|274:77|390:169,1,200,2|0,3:2|0:2,0:0:0:0:
374,309,15136,1,10,0:2:0:0:
284,175,15283,1,2,0:2:0:0:
290,270,15430,1,2,3:2:0:0:
488,200,15577,2,0,L|481:312,1,100,2|8,0:2|0:2,0:0:0:0:
415,383,15871,1,2,0:2:0:0:
145,231,16018,5,0,3:2:0:0:
320,287,16165,1,0,0:2:0:0:
205,370,16313,1,8,0:2:0:0:
270,218,16460,1,0,0:2:0:0:
326,278,16754,5,2,3:2:0:0:
211,361,16902,1,10,0:2:0:0:
276,209,17049,1,2,3:2:0:0:
331,271,17366,5,2,3:2:0:0:
216,354,17510,1,10,0:2:0:0:
281,202,17653,1,2,3:2:0:0:
383,338,17797,1,2,3:2:0:0:
198,240,17946,2,0,P|192:178|236:123,1,100,2|8,0:2|0:2,0:0:0:0:
283,68,18244,1,0,0:2:0:0:
106,185,18394,6,0,L|-3:187,1,100,4|0,3:2|0:2,0:0:0:0:
106,363,18692,2,0,B|122:317|122:317|117:261,1,100,10|0,0:2|0:2,0:0:0:0:
54,101,18991,1,2,3:2:0:0:
208,145,19140,2,0,L|307:143,1,100,2|8,0:2|0:2,0:0:0:0:
412,236,19438,6,0,L|312:237,1,100,2|0,3:2|0:2,0:0:0:0:
411,145,19735,2,0,L|510:143,1,100,2|8,0:2|0:2,0:0:0:0:
510,236,20031,1,2,0:2:0:0:
434,61,20179,1,2,3:2:0:0:
412,236,20326,1,2,0:2:0:0:
429,44,20474,1,10,0:2:0:0:
411,145,20622,1,0,0:2:0:0:
123,30,20770,5,4,3:2:0:0:
104,91,22100,5,4,3:2:0:0:
441,196,22395,5,4,3:2:0:0:
146,336,22691,5,4,3:2:0:0:
153,244,22839,2,0,P|227:288|235:365,1,150,4|0,3:2|0:0,0:0:0:0:
237,358,23134,6,0,L|346:357,1,100,2|0,0:2|0:2,0:0:0:0:
387,289,23578,1,0,0:2:0:0:
431,362,23725,2,0,P|463:340|475:312,2,50,2|2|2,0:2|0:2|0:2,0:0:0:0:
310,248,24169,6,0,P|341:212|406:208,1,100,2|0,0:2|0:2,0:0:0:0:
470,238,24612,1,2,0:2:0:0:
470,238,24760,1,0,0:2:0:0:
458,149,24908,1,0,0:2:0:0:
364,29,25055,5,2,0:2:0:0:
376,118,25203,1,2,0:2:0:0:
364,29,25351,1,2,0:2:0:0:
289,85,25499,6,0,P|241:88|226:84,1,50,2|0,0:2|0:2,0:0:0:0:
170,27,25794,2,0,P|122:24|107:28,1,50,2|0,0:2|0:2,0:0:0:0:
64,104,26090,2,0,P|16:107|1:103,2,50,2|2|2,0:2|0:2|0:2,0:0:0:0:
156,157,26533,6,0,P|173:210|166:270,1,100,2|0,0:2|0:2,0:0:0:0:
125,342,26977,1,0,0:2:0:0:
174,277,27124,1,0,0:2:0:0:
241,331,27272,1,0,0:2:0:0:
251,337,27568,5,2,0:2:0:0:
323,237,27716,1,2,0:2:0:0:
253,143,27863,1,2,0:2:0:0:
253,143,28159,5,2,0:2:0:0:
375,156,28307,1,2,0:2:0:0:
422,48,28454,1,2,0:2:0:0:
431,25,28898,6,0,P|457:85|453:131,1,100,2|2,0:2|0:2,0:0:0:0:
375,156,29341,1,2,0:2:0:0:
176,70,29637,1,2,0:2:0:0:
240,225,29932,1,2,0:2:0:0:
320,13,30228,5,2,0:0:0:0:
256,192,30302,12,0,32445,0:2:0:0:
233,108,32592,5,6,3:2:0:0:
252,196,32740,1,2,0:2:0:0:
295,43,32888,1,6,3:2:0:0:
166,167,33036,1,2,0:2:0:0:
383,60,33184,5,6,3:2:0:0:
167,338,33479,1,6,3:2:0:0:
161,317,33775,6,0,P|233:297|326:322,1,160,6|10,3:2|0:2,0:0:0:0:
400,357,34218,2,0,L|409:278,1,80,2|0,3:2|0:2,0:0:0:0:
329,150,34514,2,0,L|338:229,1,80,2|0,3:2|0:2,0:0:0:0:
389,79,34809,6,0,P|328:60|240:111,1,160,10|0,3:2|0:2,0:0:0:0:
436,159,35253,2,0,P|474:124|478:80,1,80,10|0,0:2|0:2,0:0:0:0:
437,4,35548,1,0,3:0:0:0:
437,4,35696,1,0,3:0:0:0:
329,150,35844,1,10,3:2:0:0:
331,169,35917,1,0,3:2:0:0:
333,189,35991,1,0,3:2:0:0:
335,209,36065,1,0,3:2:0:0:
338,229,36139,6,0,P|266:258|194:217,1,160,2|10,3:2|0:2,0:0:0:0:
158,142,36583,1,0,3:2:0:0:
27,222,36730,2,0,P|92:221|119:206,1,80,2|0,0:2|3:2,0:0:0:0:
160,128,37026,1,10,0:2:0:0:
4,121,37174,6,0,L|180:113,1,160,10|0,3:2|3:2,0:0:0:0:
306,59,37617,2,0,L|193:53,1,80,8|0,0:2|0:0,0:0:0:0:
86,40,37913,1,2,3:2:0:0:
86,40,38060,1,0,3:2:0:0:
203,191,38208,2,0,L|282:187,1,80,10|0,0:2|0:2,0:0:0:0:
444,144,38504,6,0,P|466:205|445:301,1,160,2|10,3:2|0:2,0:0:0:0:
294,275,38947,2,0,P|346:271|378:286,1,80,2|2,3:2|0:2,0:0:0:0:
321,363,39243,2,0,P|281:369|244:356,1,80,2|2,3:2|0:2,0:0:0:0:
192,198,39538,6,0,P|210:246|121:328,1,160,10|0,3:2|0:2,0:0:0:0:
47,254,39982,2,0,L|140:249,1,80,10|0,0:2|0:2,0:0:0:0:
271,202,40277,2,0,L|191:197,1,80,0|0,0:0|0:0,0:0:0:0:
129,132,40573,1,10,0:2:0:0:
406,77,40868,6,0,B|452:50|452:50|428:182,1,160,6|8,3:2|0:2,0:0:0:0:
423,248,41312,1,0,0:2:0:0:
350,191,41459,1,2,3:2:0:0:
497,208,41607,2,0,P|509:249|487:308,1,80,2|10,3:2|0:2,0:0:0:0:
336,278,41903,1,2,0:2:0:0:
336,278,41977,1,0,0:0:0:0:
336,278,42051,6,0,L|230:279,1,80,6|0,3:2|0:0,0:0:0:0:
132,353,42346,2,0,L|238:354,1,80,8|0,0:2|0:2,0:0:0:0:
200,211,42642,1,0,3:2:0:0:
200,211,42789,1,0,3:2:0:0:
126,265,42937,2,0,L|46:264,1,80,10|0,0:2|3:2,0:0:0:0:
42,244,43159,1,0,3:2:0:0:
38,224,43233,6,0,P|54:142|127:108,1,160,6|10,3:2|0:2,0:0:0:0:
200,211,43676,2,0,L|280:211,1,80,2|0,0:2|3:2,0:0:0:0:
407,130,43972,2,0,L|327:130,1,80,2|8,0:2|0:2,0:0:0:0:
481,187,44267,6,0,P|491:243|478:272,2,80,2|0|0,0:2|3:2|0:2,0:0:0:0:
382,234,44711,2,0,L|381:333,1,80,8|0,0:2|0:2,0:0:0:0:
446,369,45006,1,2,3:2:0:0:
446,369,45154,1,0,3:2:0:0:
297,329,45302,2,0,P|235:328|206:338,1,80,10|0,0:2|0:0,0:0:0:0:
81,355,45597,6,0,B|74:303|74:303|89:264|89:264|77:177,1,160,2|10,3:2|0:2,0:0:0:0:
6,105,46041,2,0,P|63:123|111:113,1,80,2|0,0:2|3:2,0:0:0:0:
140,19,46336,2,0,P|100:20|63:35,1,80,2|8,0:2|0:2,0:0:0:0:
166,103,46632,6,0,L|248:94,2,80,2|0|0,0:2|3:2|0:2,0:0:0:0:
331,125,47075,2,0,P|331:65|313:37,1,80,10|0,0:2|0:2,0:0:0:0:
258,182,47371,1,2,3:2:0:0:
258,182,47519,1,0,0:2:0:0:
388,198,47666,2,0,L|467:206,1,80,10|0,0:2|0:0,0:0:0:0:
311,270,47962,6,0,L|121:285,1,160,6|8,3:2|0:2,0:0:0:0:
207,365,48405,1,0,0:2:0:0:
111,206,48553,1,0,3:2:0:0:
111,206,48701,1,0,0:2:0:0:
59,327,48849,1,8,0:2:0:0:
74,79,49144,6,0,B|130:61|130:61|224:78,1,120,2|0,3:2|0:2,0:0:0:0:
207,79,49440,1,10,0:2:0:0:
420,108,49587,2,0,B|364:126|364:126|270:109,1,120,2|0,3:2|0:2,0:0:0:0:
287,108,49883,1,10,0:2:0:0:
473,34,50031,5,6,3:2:0:0:
256,192,50105,12,0,51361,0:2:0:0:
147,26,51509,5,4,3:3:0:0:
298,217,51952,5,4,3:3:0:0:
121,344,52395,5,4,3:3:0:0:
42,281,52691,6,0,P|119:251|218:319,1,179.999994506836,6|0,3:2|0:2,0:0:0:0:
220,315,52987,2,0,L|357:304,1,119.999996337891,8|0,0:2|0:2,0:0:0:0:
482,224,53282,1,0,3:2:0:0:
482,224,53430,1,0,3:2:0:0:
431,368,53578,1,10,0:2:0:0:
348,219,53725,6,0,B|363:51|363:51|399:141,1,239.999992675781,2|0,3:2|3:2,0:0:0:0:
339,305,54169,1,10,0:2:0:0:
237,164,54317,2,0,L|100:164,1,119.999996337891,2|0,3:2|0:2,0:0:0:0:
186,85,54612,1,2,3:2:0:0:
184,248,54760,1,10,0:2:0:0:
62,107,54908,1,2,0:2:0:0:
62,107,54982,1,2,0:2:0:0:
62,107,55055,6,0,B|73:169|73:169|49:230,1,119.999996337891,2|0,3:2|0:0,0:0:0:0:
29,327,55351,2,0,P|125:328|164:352,1,119.999996337891,10|0,0:2|0:2,0:0:0:0:
341,359,55647,2,0,P|284:377|225:369,1,119.999996337891,2|0,3:2|3:2,0:0:0:0:
275,283,55942,1,10,0:2:0:0:
430,373,56090,6,0,L|444:240,1,119.999996337891,2|0,3:2|0:2,0:0:0:0:
337,122,56386,2,0,L|349:241,1,119.999996337891,2|8,3:2|0:2,0:0:0:0:
432,142,56681,1,2,0:2:0:0:
250,191,56829,1,2,3:2:0:0:
406,49,56977,2,0,P|469:54|521:103,1,119.999996337891,2|8,3:2|0:2,0:0:0:0:
357,249,57272,5,2,0:2:0:0:
357,249,57346,1,2,0:2:0:0:
357,249,57420,2,0,L|132:247,1,179.999994506836,6|0,3:2|0:2,0:0:0:0:
146,246,57716,2,0,P|136:320|160:370,1,119.999996337891,8|0,0:2|0:2,0:0:0:0:
281,323,58011,1,0,3:2:0:0:
281,323,58159,1,0,3:2:0:0:
54,307,58307,1,10,0:2:0:0:
152,131,58454,6,0,P|162:205|138:255,1,119.999996337891,2|0,3:2|0:2,0:0:0:0:
19,129,58750,2,0,P|0:72|12:14,1,119.999996337891,2|8,3:2|0:2,0:0:0:0:
216,76,59046,2,0,L|55:71,1,119.999996337891,2|0,3:2|0:2,0:0:0:0:
19,129,59341,1,2,3:2:0:0:
242,173,59489,2,0,P|300:125|313:54,1,119.999996337891,8|0,0:2|3:2,0:0:0:0:
84,212,59785,5,14,0:2:0:0:
211,351,59932,1,0,3:2:0:0:
243,204,60080,1,2,3:2:0:0:
16,353,60228,5,14,0:2:0:0:
79,233,60376,1,0,3:2:0:0:
121,376,60523,1,2,3:2:0:0:
153,110,60671,5,14,0:2:0:0:
0,149,60819,1,0,3:2:0:0:
77,251,60967,1,2,3:2:0:0:
274,27,61115,5,14,0:2:0:0:
314,123,61262,1,0,3:2:0:0:
424,37,61410,1,0,3:2:0:0:
317,149,61558,6,0,L|328:284,1,119.999996337891,14|0,0:2|0:2,0:0:0:0:
205,384,61854,2,0,L|214:264,1,119.999996337891,10|0,0:2|0:2,0:0:0:0:
406,136,62149,6,0,B|341:145|341:145|295:127|295:127|230:137,1,179.999994506836,6|0,3:2|0:2,0:0:0:0:
201,145,62445,2,0,L|191:25,1,119.999996337891,8|0,0:2|0:2,0:0:0:0:
362,61,62740,1,0,3:2:0:0:
362,61,62888,1,0,3:2:0:0:
288,220,63036,1,10,0:2:0:0:
474,248,63184,6,0,P|491:312|468:369,2,119.999996337891,2|0|0,3:2|3:2|0:2,0:0:0:0:
279,303,63627,2,0,L|407:306,1,119.999996337891,10|0,0:2|0:2,0:0:0:0:
288,220,63922,2,0,L|160:223,1,119.999996337891,2|0,3:2|3:2,0:0:0:0:
53,155,64218,1,8,0:2:0:0:
137,299,64366,1,2,0:2:0:0:
226,129,64514,6,0,B|285:110|285:110|341:122,1,119.999996337891,2|0,3:2|0:2,0:0:0:0:
512,203,64809,2,0,B|456:215|456:215|396:196,1,119.999996337891,10|0,0:2|3:2,0:0:0:0:
456,0,65105,2,0,L|457:131,1,119.999996337891,2|0,0:2|3:2,0:0:0:0:
455,299,65400,1,10,0:2:0:0:
324,251,65548,6,0,L|175:253,1,119.999996337891,2|0,3:2|0:2,0:0:0:0:
66,344,65844,2,0,L|215:346,1,119.999996337891,2|8,3:2|0:2,0:0:0:0:
234,156,66139,1,2,3:2:0:0:
234,156,66213,1,2,3:2:0:0:
234,156,66287,1,2,3:2:0:0:
204,252,66435,1,0,3:2:0:0:
317,73,66583,6,0,P|392:90|462:190,1,179.999994506836,8|0,0:2|0:2,0:0:0:0:
461,190,66878,6,0,B|473:228|473:228|395:190|395:190|309:194,1,200,6|2,3:2|0:2,0:0:0:0:
373,274,67321,1,0,0:2:0:0:
373,274,67469,2,0,B|420:297|420:297|252:299,1,200,14|2,0:2|0:2,0:0:0:0:
202,185,67913,6,0,P|232:248|123:321,1,200,2|2,0:2|0:2,0:0:0:0:
68,190,68356,2,0,P|123:214|147:255,1,100,2|0,0:2|0:2,0:0:0:0:
57,383,68652,2,0,L|64:275,1,100,14|0,0:2|0:2,0:0:0:0:
61,90,68947,2,0,L|67:189,1,100,2|0,0:2|0:2,0:0:0:0:
380,167,69243,6,0,B|419:145|419:145|349:123|349:123|277:161|277:161|159:158,1,300,6|0,3:2|0:2,0:0:0:0:
134,72,69834,2,0,B|249:76|249:76|345:28,1,200,14|0,0:2|0:2,0:0:0:0:
426,56,70277,1,0,0:2:0:0:
426,56,70425,6,0,B|504:100|504:100|486:233,1,200,6|0,3:2|0:2,0:0:0:0:
307,273,71016,2,0,B|518:256|518:256|409:291,1,300,14|0,0:2|0:0,0:0:0:0:
182,343,71607,5,14,3:2:0:0:
251,164,71755,1,14,3:2:0:0:
262,138,72051,1,2,3:2:0:0:
275,114,72346,1,2,3:2:0:0:
36,169,72494,5,14,0:2:0:0:
282,263,72640,1,14,0:2:0:0:
302,271,72933,1,2,3:2:0:0:
135,297,73079,1,8,0:2:0:0:
178,123,73225,1,2,3:2:0:0:
111,384,73372,5,14,0:2:0:0:
94,201,73518,1,2,3:2:0:0:
216,338,73664,1,14,0:2:0:0:
172,137,73811,1,10,0:2:0:0:
343,315,73972,6,0,B|386:352|386:352|355:141,1,250,6|0,3:2|0:2,0:0:0:0:
355,136,74415,2,0,P|283:117|248:125,1,100,6|0,3:2|0:2,0:0:0:0:
166,151,74710,1,2,3:2:0:0:
375,37,74858,1,6,3:2:0:0:
355,136,75006,1,0,3:2:0:0:
172,53,75435,5,10,3:2:0:0:
256,225,75579,1,8,3:2:0:0:
294,26,75723,1,10,3:2:0:0:
153,172,75867,1,8,3:2:0:0:
355,136,76011,2,0,P|416:152|476:238,1,150,10|0,3:2|0:2,0:0:0:0:
451,248,76336,6,0,L|343:254,1,100,6|2,3:2|3:2,0:0:0:0:
332,270,76557,1,0,3:2:0:0:
314,287,76631,1,8,3:2:0:0:
221,335,76779,1,0,3:2:0:0:
221,335,76853,1,0,3:2:0:0:
221,335,76927,1,10,3:2:0:0:
131,269,77074,2,0,L|129:194,2,50,2|0|10,3:2|3:2|3:2,0:0:0:0:
43,341,77370,1,0,3:2:0:0:
43,341,77444,1,0,3:2:0:0:
43,341,77518,6,0,L|42:278,3,50,8|0|2|0,3:2|0:0|3:2|3:2,0:0:0:0:
131,269,77813,1,10,3:2:0:0:
130,244,77886,1,0,3:2:0:0:
129,219,77960,1,2,3:2:0:0:
129,194,78034,1,0,3:2:0:0:
128,169,78108,5,8,3:2:0:0:
223,230,78257,1,10,3:2:0:0:
41,156,78404,1,8,3:2:0:0:
132,293,78552,1,10,3:2:0:0:
271,145,78700,6,0,L|459:144,1,150,4|0,3:2|0:2,0:0:0:0:
446,144,78996,2,0,P|457:71|436:31,1,100,10|0,0:2|0:2,0:0:0:0:
354,5,79291,1,2,3:2:0:0:
356,230,79439,2,0,L|356:346,1,100,2|10,0:2|0:2,0:0:0:0:
115,245,79735,6,0,P|168:230|249:341,1,200,2|0,0:2|0:2,0:0:0:0:
164,318,80178,1,10,0:2:0:0:
91,150,80326,1,2,0:2:0:0:
56,336,80473,1,2,3:2:0:0:
103,117,80621,2,0,L|227:106,1,100,2|8,0:2|0:2,0:0:0:0:
275,182,80917,1,2,0:2:0:0:
372,75,81065,5,0,3:2:0:0:
414,246,81212,1,0,0:2:0:0:
474,82,81360,1,8,0:2:0:0:
493,274,81508,1,0,0:2:0:0:
414,254,81803,5,2,3:2:0:0:
474,90,81951,1,10,0:2:0:0:
493,282,82099,1,2,3:2:0:0:
415,262,82395,5,2,3:2:0:0:
475,98,82543,1,10,0:2:0:0:
494,290,82691,1,2,3:2:0:0:
356,194,82838,1,2,3:2:0:0:
289,297,82986,2,0,P|229:308|168:296,1,100,2|8,0:2|0:2,0:0:0:0:
95,222,83281,1,0,0:2:0:0:
236,34,83429,6,0,B|254:84|254:84|242:150,1,100,4|0,3:2|0:2,0:0:0:0:
95,222,83725,2,0,L|221:216,1,100,10|0,0:2|0:2,0:0:0:0:
245,130,84020,1,2,3:2:0:0:
388,292,84168,2,0,L|288:296,1,100,2|8,0:2|0:2,0:0:0:0:
471,244,84464,6,0,P|484:293|468:354,1,100,2|0,3:2|0:0,0:0:0:0:
389,196,84759,2,0,P|379:147|392:99,1,100,2|8,0:2|0:2,0:0:0:0:
455,40,85055,1,2,0:2:0:0:
287,154,85202,1,2,3:2:0:0:
486,158,85350,1,2,0:2:0:0:
303,63,85498,1,10,0:2:0:0:
392,99,85646,1,0,0:0:0:0:
72,150,85794,5,4,3:2:0:0:
91,300,87116,5,0,3:2:0:0:
82,262,87409,1,0,3:2:0:0:
100,197,87701,1,0,3:2:0:0:
159,135,87994,1,0,3:2:0:0:
282,101,88286,1,0,3:2:0:0:
408,159,88577,1,0,3:2:0:0:
453,325,88869,1,0,3:2:0:0:
225,17,89160,5,4,3:2:0:0:
