osu file format v14

[General]
AudioFilename: audio.ogg
AudioLeadIn: 0
PreviewTime: 52305
Countdown: 0
SampleSet: Normal
StackLeniency: 0.7
Mode: 1
LetterboxInBreaks: 0
WidescreenStoryboard: 1

[Editor]
Bookmarks: 43030
DistanceSpacing: 1.1
BeatDivisor: 4
GridSize: 16
TimelineZoom: 2

[Metadata]
Title:Serendipity (TV Size)
TitleUnicode:Serendipity (TV Size)
Artist:ZAQ
ArtistUnicode:ZAQ
Creator:kanpakyin
Version:Oni
Source:フリップフラッパーズ
Tags:flip flappers furippu furappazu furappaazu opening op anime lacm-14546 japanese pop jpop j-pop rock jrock j-rock R・O・N kpy RON ロン
BeatmapID:4420713
BeatmapSetID:2106715

[Difficulty]
HPDrainRate:5.5
CircleSize:5
OverallDifficulty:5
ApproachRate:5
SliderMultiplier:1.4
SliderTickRate:1

[Events]
//Background and Video events
0,0,"BG.jpg",0,30
Video,-575,"video.mp4"
//Break Periods
//Storyboard Layer 0 (Background)
//Storyboard Layer 1 (Fail)
//Storyboard Layer 2 (Pass)
//Storyboard Layer 3 (Foreground)
//Storyboard Layer 4 (Overlay)
//Storyboard Sound Samples

[TimingPoints]
716,346.820809248555,4,1,0,35,1,0
716,-100,4,1,0,35,0,0
2450,-100,4,1,0,35,0,0
2623,-100,4,1,0,35,0,0
2796,-100,4,1,0,35,0,0
2970,-100,4,1,0,35,0,0
3143,-100,4,1,0,35,0,0
3317,-100,4,1,0,35,0,0
3490,-100,4,1,0,40,0,0
3663,-100,4,1,0,40,0,0
3837,-100,4,1,0,40,0,0
4010,-100,4,1,0,40,0,0
4184,-100,4,1,0,45,0,0
4357,-100,4,1,0,45,0,0
4531,-100,4,1,0,45,0,0
4704,-100,4,1,0,45,0,0
4877,-100,4,1,0,45,0,0
5051,-100,4,1,0,45,0,0
5224,-100,4,1,0,50,0,0
5398,-100,4,1,0,50,0,0
5571,-100,4,1,0,55,0,0
5658,-100,4,1,0,55,0,0
5744,-100,4,1,0,55,0,0
5831,-100,4,1,0,55,0,0
5918,-100,4,1,0,55,0,0
6005,-100,4,1,0,55,0,0
6091,-100,4,1,0,55,0,0
6265,-100,4,1,0,70,0,0
17016,-100,4,1,0,70,0,0
17103,-100,4,1,0,70,0,0
17189,-100,4,1,0,70,0,0
17247,-100,4,1,0,70,0,0
17305,-100,4,1,0,70,0,0
17363,-111.111111111111,4,1,0,55,0,0
27941,-111.111111111111,4,1,0,65,0,0
28114,-111.111111111111,4,1,0,65,0,0
28288,-100,4,1,0,65,0,0
28461,-100,4,1,0,65,0,0
39386,-100,4,1,0,65,0,0
39906,-100,4,1,0,65,0,0
40860,-100,4,1,0,65,0,0
41120,-100,4,1,0,65,0,0
42247,-100,4,1,0,65,0,0
42507,-100,4,1,0,65,0,0
43635,-100,4,1,0,65,0,0
43895,-100,4,1,0,65,0,0
44068,-100,4,1,0,65,0,0
44155,-100,4,1,0,65,0,0
44242,-100,4,1,0,65,0,0
44328,-100,4,1,0,65,0,0
44415,-100,4,1,0,65,0,0
44531,-100,4,1,0,65,0,0
44646,-100,4,1,0,65,0,0
44762,-100,4,1,0,65,0,0
44877,-100,4,1,0,65,0,0
44993,-100,4,1,0,65,0,0
45109,-100,4,1,0,65,0,0
45282,-111.111111111111,4,1,0,50,0,0
47883,-109.89010989011,4,1,0,50,0,0
48577,-108.695652173913,4,1,0,55,0,0
48750,-108.695652173913,4,1,0,55,0,0
48924,-106.382978723404,4,1,0,55,0,0
49270,-105.263157894737,4,1,0,55,0,0
49444,-105.263157894737,4,1,0,58,0,0
49617,-104.166666666667,4,1,0,60,0,0
49791,-103.092783505155,4,1,0,62,0,0
49964,-102.040816326531,4,1,0,66,0,0
50137,-101.010101010101,4,1,0,68,0,0
50224,-100,4,1,0,68,0,0
50311,-100,4,1,0,68,0,0
50398,-100,4,1,0,68,0,0
50484,-100,4,1,0,68,0,0
50658,-100,4,1,0,70,0,0
50744,-100,4,1,0,70,0,0
50831,-100,4,1,0,70,0,0
50918,-100,4,1,0,70,0,0
51005,-100,4,1,0,70,0,0
51091,-100,4,1,0,70,0,0
51178,-100,4,1,0,70,0,0
51265,-100,4,1,0,70,0,0
51351,-100,4,1,0,70,0,0
51438,-100,4,1,0,70,0,0
51525,-100,4,1,0,70,0,0
51611,-100,4,1,0,70,0,0
51698,-100,4,1,0,70,0,0
51785,-100,4,1,0,70,0,0
51872,-100,4,1,0,70,0,0
51958,-100,4,1,0,70,0,0
52045,-100,4,1,0,70,0,0
52305,-100,4,1,0,70,0,0
53432,-100,4,1,0,70,0,1
64791,-100,4,1,0,70,0,1
64964,-100,4,1,0,70,0,1
66178,-100,4,1,0,70,0,1
66351,-100,4,1,0,70,0,1
67565,-100,4,1,0,70,0,1
67738,-100,4,1,0,70,0,1
69559,-100,4,1,0,70,0,1
69646,-100,4,1,0,70,0,1
69733,-100,4,1,0,70,0,1
69906,-100,4,1,0,70,0,1
70080,-100,4,1,0,70,0,1
71294,-100,4,1,0,70,0,1
71380,-100,4,1,0,70,0,1
71467,-100,4,1,0,70,0,1
71640,-100,4,1,0,70,0,1
71814,-100,4,1,0,70,0,1
71987,-100,4,1,0,70,0,1
72161,-100,4,1,0,70,0,1
72334,-100,4,1,0,70,0,1
72421,-100,4,1,0,70,0,1
72507,-100,4,1,0,70,0,1
72681,-100,4,1,0,70,0,1
72854,-100,4,1,0,70,0,0
73028,-100,4,1,0,70,0,0
73201,-100,4,1,0,65,0,0
74588,-100,4,1,0,65,0,0
74675,-100,4,1,0,65,0,0
74762,-100,4,1,0,65,0,0
74848,-100,4,1,0,65,0,0
74935,-100,4,1,0,65,0,0
75022,-100,4,1,0,65,0,0
75109,-100,4,1,0,65,0,0
75195,-100,4,1,0,65,0,0
75282,-100,4,1,0,65,0,0
75369,-100,4,1,0,65,0,0
75455,-100,4,1,0,65,0,0
75542,-100,4,1,0,65,0,0
75629,-100,4,1,0,55,0,0
75976,-100,4,1,0,55,0,0
76929,-100,4,1,0,65,0,0
77103,-100,4,1,0,65,0,0
78317,-100,4,1,0,65,0,0
78490,-100,4,1,0,65,0,0
78837,-100,4,1,0,65,0,0
79010,-100,4,1,0,65,0,0
79531,-100,4,1,0,65,0,0
79704,-100,4,1,0,65,0,0
79877,-100,4,1,0,55,0,0
80571,-100,4,1,0,55,0,0
80744,-100,4,1,0,55,0,0
80918,-100,4,1,0,55,0,0
81091,-100,4,1,0,55,0,0
81265,-100,4,1,0,65,0,0
84733,-100,4,1,0,65,0,0
84906,-100,4,1,0,65,0,0
85080,-100,4,1,0,65,0,0
85340,-100,4,1,0,65,0,0
86727,-100,4,1,0,65,0,0
88114,-100,4,1,0,65,0,0

[HitObjects]
427,118,716,5,0,0:0:0:0:
427,118,1062,1,0,0:0:0:0:
427,118,1409,1,8,0:0:0:0:
414,120,1756,1,0,0:0:0:0:
411,117,2450,1,0,0:0:0:0:
428,126,2796,1,8,0:0:0:0:
430,126,3143,1,0,0:0:0:0:
430,127,3317,1,8,0:0:0:0:
428,126,3490,1,0,0:0:0:0:
432,135,3837,1,8,0:0:0:0:
432,135,4010,1,0,0:0:0:0:
432,135,4184,1,8,0:0:0:0:
432,135,4357,1,0,0:0:0:0:
433,135,4531,1,0,0:0:0:0:
437,139,4877,1,0,0:0:0:0:
437,139,5051,1,0,0:0:0:0:
439,141,5224,1,8,0:0:0:0:
440,144,5398,1,0,0:0:0:0:
440,144,5571,1,8,0:0:0:0:
458,168,5658,1,8,0:0:0:0:
440,144,5744,1,0,0:0:0:0:
440,144,5918,1,0,0:0:0:0:
446,151,6091,1,8,0:0:0:0:
446,151,6265,1,4,0:0:0:0:
435,163,6611,1,8,0:0:0:0:
437,163,6785,1,0,0:0:0:0:
427,172,7132,1,0,0:0:0:0:
425,165,7305,1,8,0:0:0:0:
425,165,7479,1,0,0:0:0:0:
426,157,7825,1,8,0:0:0:0:
426,157,7999,1,8,0:0:0:0:
426,157,8172,1,0,0:0:0:0:
421,159,8259,1,0,0:0:0:0:
426,157,8346,1,8,0:0:0:0:
425,165,8519,1,0,0:0:0:0:
420,163,8692,1,8,0:0:0:0:
426,157,8866,1,8,0:0:0:0:
420,163,9039,1,0,0:0:0:0:
426,157,9386,1,8,0:0:0:0:
428,154,9559,1,8,0:0:0:0:
428,154,9733,1,0,0:0:0:0:
426,157,9906,1,0,0:0:0:0:
426,157,10080,1,8,0:0:0:0:
426,157,10166,1,8,0:0:0:0:
426,157,10253,1,0,0:0:0:0:
428,154,10600,1,0,0:0:0:0:
427,163,10773,1,8,0:0:0:0:
420,160,11120,1,8,0:0:0:0:
420,160,11294,1,0,0:0:0:0:
420,160,11380,1,0,0:0:0:0:
420,160,11467,1,8,0:0:0:0:
418,160,11640,1,8,0:0:0:0:
418,161,11814,1,0,0:0:0:0:
436,169,11987,1,0,0:0:0:0:
439,168,12161,1,8,0:0:0:0:
439,168,12334,1,8,0:0:0:0:
440,168,12681,1,0,0:0:0:0:
440,168,12854,1,8,0:0:0:0:
436,169,13028,1,0,0:0:0:0:
439,168,13374,1,0,0:0:0:0:
440,168,13548,1,8,0:0:0:0:
434,154,13721,1,0,0:0:0:0:
420,155,13895,1,0,0:0:0:0:
421,156,14068,1,0,0:0:0:0:
420,155,14242,1,8,0:0:0:0:
420,155,14415,1,0,0:0:0:0:
420,155,14588,1,8,0:0:0:0:
421,156,14935,1,8,0:0:0:0:
421,156,15109,1,8,0:0:0:0:
420,155,15195,1,8,0:0:0:0:
420,155,15282,1,0,0:0:0:0:
420,155,15455,1,0,0:0:0:0:
420,155,15629,1,8,0:0:0:0:
420,155,15802,1,0,0:0:0:0:
421,156,16149,1,0,0:0:0:0:
420,155,16322,1,8,0:0:0:0:
342,158,16669,1,0,0:0:0:0:
316,158,17363,5,4,0:0:0:0:
328,172,17710,1,8,0:0:0:0:
340,170,18057,1,0,0:0:0:0:
340,170,18230,1,0,0:0:0:0:
348,168,18403,1,8,0:0:0:0:
348,168,18577,1,0,0:0:0:0:
348,168,18924,1,0,0:0:0:0:
348,168,19097,1,8,0:0:0:0:
348,168,19444,1,0,0:0:0:0:
348,168,19617,1,0,0:0:0:0:
348,168,19791,1,8,0:0:0:0:
348,168,20137,1,0,0:0:0:0:
345,156,20311,1,0,0:0:0:0:
345,156,20484,1,8,0:0:0:0:
345,156,20831,1,0,0:0:0:0:
341,136,21005,1,0,0:0:0:0:
341,136,21178,1,8,0:0:0:0:
320,120,21351,1,0,0:0:0:0:
320,120,21698,1,0,0:0:0:0:
320,120,21872,1,8,0:0:0:0:
320,120,22218,1,0,0:0:0:0:
320,120,22392,1,0,0:0:0:0:
320,120,22565,1,8,0:0:0:0:
320,120,22739,1,0,0:0:0:0:
323,119,22912,1,0,0:0:0:0:
320,120,23259,1,8,0:0:0:0:
320,120,23606,1,0,0:0:0:0:
323,119,23779,1,0,0:0:0:0:
323,119,23952,1,8,0:0:0:0:
320,120,24126,1,0,0:0:0:0:
339,156,24473,1,0,0:0:0:0:
339,156,24646,1,8,0:0:0:0:
339,156,24820,1,0,0:0:0:0:
339,156,25166,1,0,0:0:0:0:
339,156,25340,1,8,0:0:0:0:
339,156,25513,1,0,0:0:0:0:
339,156,25687,1,0,0:0:0:0:
336,150,26033,1,8,0:0:0:0:
336,150,26207,1,0,0:0:0:0:
357,151,26380,1,0,0:0:0:0:
336,151,26467,1,0,0:0:0:0:
357,151,26554,1,0,0:0:0:0:
357,151,26727,1,8,0:0:0:0:
357,151,26900,1,0,0:0:0:0:
357,151,27247,1,0,0:0:0:0:
357,151,27421,1,8,0:0:0:0:
357,151,27768,1,0,0:0:0:0:
357,151,27941,1,0,0:0:0:0:
357,151,28028,1,0,0:0:0:0:
357,151,28114,1,8,0:0:0:0:
357,151,28461,1,12,0:0:0:0:
357,151,28635,1,0,0:0:0:0:
357,151,28808,1,8,0:0:0:0:
357,151,28981,1,0,0:0:0:0:
357,151,29155,1,0,0:0:0:0:
357,151,29328,1,0,0:0:0:0:
357,151,29502,1,8,0:0:0:0:
357,151,29675,1,0,0:0:0:0:
357,151,29848,1,0,0:0:0:0:
357,151,30022,1,0,0:0:0:0:
357,151,30195,1,8,0:0:0:0:
357,151,30369,1,8,0:0:0:0:
357,151,30542,1,0,0:0:0:0:
373,148,30629,1,0,0:0:0:0:
357,151,30716,1,0,0:0:0:0:
357,151,30889,1,8,0:0:0:0:
357,151,31236,1,0,0:0:0:0:
357,151,31409,1,0,0:0:0:0:
357,151,31583,1,8,0:0:0:0:
366,169,31756,1,8,0:0:0:0:
366,168,31929,1,0,0:0:0:0:
366,168,32103,1,8,0:0:0:0:
366,168,32189,1,0,0:0:0:0:
366,168,32276,1,8,0:0:0:0:
366,168,32450,1,8,0:0:0:0:
357,151,32623,1,0,0:0:0:0:
377,158,32796,1,8,0:0:0:0:
377,158,32970,1,8,0:0:0:0:
377,158,33317,1,0,0:0:0:0:
360,165,33490,1,8,0:0:0:0:
366,169,33663,1,8,0:0:0:0:
360,172,33837,1,0,0:0:0:0:
361,176,34010,1,0,0:0:0:0:
375,170,34184,1,0,0:0:0:0:
375,170,34357,1,8,0:0:0:0:
387,177,34704,1,0,0:0:0:0:
387,177,34877,1,0,0:0:0:0:
387,177,35051,1,8,0:0:0:0:
387,177,35224,1,8,0:0:0:0:
387,177,35398,1,0,0:0:0:0:
387,177,35571,1,8,0:0:0:0:
380,172,35744,1,8,0:0:0:0:
377,169,35918,1,8,0:0:0:0:
377,169,36091,1,0,0:0:0:0:
377,169,36265,1,0,0:0:0:0:
377,169,36438,1,8,0:0:0:0:
378,171,36611,1,0,0:0:0:0:
380,172,36785,1,8,0:0:0:0:
377,169,36958,1,8,0:0:0:0:
377,169,37132,1,8,0:0:0:0:
366,161,37305,1,0,0:0:0:0:
365,159,37479,1,8,0:0:0:0:
378,171,37652,1,0,0:0:0:0:
380,177,37825,1,8,0:0:0:0:
367,169,37999,1,0,0:0:0:0:
367,169,38172,1,0,0:0:0:0:
367,169,38346,1,0,0:0:0:0:
367,169,38519,1,8,0:0:0:0:
367,169,38866,1,8,0:0:0:0:
365,156,39559,1,4,0:0:0:0:
365,156,40080,1,0,0:0:0:0:
378,152,40253,1,8,0:0:0:0:
365,156,40600,1,0,0:0:0:0:
365,156,40947,1,4,0:0:0:0:
341,139,41467,1,0,0:0:0:0:
342,139,41640,1,8,0:0:0:0:
341,139,41987,1,0,0:0:0:0:
336,132,42161,1,0,0:0:0:0:
336,132,42334,1,4,0:0:0:0:
336,132,42854,1,0,0:0:0:0:
336,132,43028,1,8,0:0:0:0:
332,125,43374,1,0,0:0:0:0:
332,125,43721,1,4,0:0:0:0:
333,125,44068,1,0,0:0:0:0:
332,125,44242,1,0,0:0:0:0:
332,125,44415,1,8,0:0:0:0:
325,114,44531,1,0,0:0:0:0:
310,116,44646,1,0,0:0:0:0:
325,114,44762,1,8,0:0:0:0:
325,101,44877,1,8,0:0:0:0:
327,104,44993,1,8,0:0:0:0:
327,105,45109,1,4,0:0:0:0:
341,111,45455,1,8,0:0:0:0:
341,111,45976,1,0,0:0:0:0:
341,111,46149,1,8,0:0:0:0:
341,111,46496,1,0,0:0:0:0:
341,111,46843,1,8,0:0:0:0:
341,111,47363,1,0,0:0:0:0:
341,111,47536,1,8,0:0:0:0:
341,111,47883,1,0,0:0:0:0:
341,111,48230,1,8,0:0:0:0:
341,111,48577,1,8,0:0:0:0:
341,111,48750,1,0,0:0:0:0:
341,111,48924,1,8,0:0:0:0:
341,111,49270,1,0,0:0:0:0:
341,111,49444,1,0,0:0:0:0:
341,111,49617,5,8,0:0:0:0:
326,111,49791,1,8,0:0:0:0:
326,111,49964,1,8,0:0:0:0:
326,111,50137,1,0,0:0:0:0:
326,111,50311,1,8,0:0:0:0:
327,111,50484,1,0,0:0:0:0:
432,153,50658,5,8,0:0:0:0:
415,149,50744,1,8,0:0:0:0:
432,153,50831,1,0,0:0:0:0:
413,157,50918,1,0,0:0:0:0:
432,153,51005,1,8,0:0:0:0:
432,153,51178,1,8,0:0:0:0:
427,140,51265,1,0,0:0:0:0:
432,153,51351,1,0,0:0:0:0:
432,153,51438,1,0,0:0:0:0:
432,153,51525,1,8,0:0:0:0:
432,153,51698,1,8,0:0:0:0:
432,153,51785,1,0,0:0:0:0:
432,153,51872,1,8,0:0:0:0:
432,153,52045,1,4,0:0:0:0:
432,158,52392,1,4,0:0:0:0:
423,158,53432,5,4,0:0:0:0:
406,168,53779,1,8,0:0:0:0:
402,164,54126,1,0,0:0:0:0:
402,164,54299,1,0,0:0:0:0:
402,164,54473,1,8,0:0:0:0:
389,167,54646,1,8,0:0:0:0:
384,158,54733,1,8,0:0:0:0:
390,167,54820,1,0,0:0:0:0:
390,167,54993,1,8,0:0:0:0:
392,160,55166,1,8,0:0:0:0:
390,167,55340,1,0,0:0:0:0:
390,167,55513,1,8,0:0:0:0:
389,167,55687,1,0,0:0:0:0:
390,167,55860,1,8,0:0:0:0:
390,167,56033,1,8,0:0:0:0:
390,167,56207,1,0,0:0:0:0:
390,167,56380,1,8,0:0:0:0:
389,167,56554,1,8,0:0:0:0:
370,146,56727,1,8,0:0:0:0:
370,146,56814,1,8,0:0:0:0:
370,146,56900,1,0,0:0:0:0:
370,146,57074,1,0,0:0:0:0:
370,146,57247,1,8,0:0:0:0:
370,146,57421,1,8,0:0:0:0:
370,146,57594,1,0,0:0:0:0:
375,135,57941,1,8,0:0:0:0:
375,135,58288,1,8,0:0:0:0:
375,135,58461,1,0,0:0:0:0:
375,135,58635,1,8,0:0:0:0:
375,135,58808,1,0,0:0:0:0:
375,135,58895,1,0,0:0:0:0:
375,135,58981,1,8,0:0:0:0:
368,136,59155,1,0,0:0:0:0:
368,136,59328,1,8,0:0:0:0:
354,138,59675,1,0,0:0:0:0:
354,138,59848,1,0,0:0:0:0:
354,138,60022,1,8,0:0:0:0:
355,138,60195,1,8,0:0:0:0:
362,144,60282,1,8,0:0:0:0:
357,144,60369,1,0,0:0:0:0:
363,144,60542,1,8,0:0:0:0:
364,144,60716,1,8,0:0:0:0:
364,144,61062,1,0,0:0:0:0:
364,144,61236,1,0,0:0:0:0:
364,125,61409,1,8,0:0:0:0:
364,125,61583,1,0,0:0:0:0:
364,125,61756,1,8,0:0:0:0:
367,130,61929,1,0,0:0:0:0:
367,130,62103,1,8,0:0:0:0:
367,130,62276,1,8,0:0:0:0:
368,128,62363,1,8,0:0:0:0:
367,130,62450,5,8,0:0:0:0:
368,128,62623,1,0,0:0:0:0:
368,128,62796,1,8,0:0:0:0:
367,130,62970,1,8,0:0:0:0:
367,130,63057,1,0,0:0:0:0:
367,130,63143,1,8,0:0:0:0:
367,130,63317,1,0,0:0:0:0:
352,138,63490,5,12,0:0:0:0:
330,127,63663,1,8,0:0:0:0:
330,127,63750,1,8,0:0:0:0:
330,127,63837,1,0,0:0:0:0:
330,127,63924,1,0,0:0:0:0:
330,127,64010,1,0,0:0:0:0:
318,142,64097,1,0,0:0:0:0:
330,127,64184,1,8,0:0:0:0:
335,126,64357,1,0,0:0:0:0:
303,141,64444,1,0,0:0:0:0:
335,126,64531,1,8,0:0:0:0:
310,130,64877,1,12,0:0:0:0:
352,134,65051,1,0,0:0:0:0:
308,129,65224,1,8,0:0:0:0:
310,130,65398,1,0,0:0:0:0:
310,130,65571,1,8,0:0:0:0:
310,130,65744,1,8,0:0:0:0:
305,126,65831,1,0,0:0:0:0:
308,129,65918,1,0,0:0:0:0:
308,129,66091,1,0,0:0:0:0:
311,129,66265,1,12,0:0:0:0:
340,131,66438,1,0,0:0:0:0:
310,130,66611,1,8,0:0:0:0:
305,126,66785,1,8,0:0:0:0:
308,129,66958,1,0,0:0:0:0:
311,129,67132,1,8,0:0:0:0:
310,130,67218,1,8,0:0:0:0:
311,129,67305,1,0,0:0:0:0:
310,130,67479,1,0,0:0:0:0:
299,149,67652,1,12,0:0:0:0:
308,129,67999,1,0,0:0:0:0:
311,129,68172,1,0,0:0:0:0:
311,129,68346,1,8,0:0:0:0:
310,130,68519,1,8,0:0:0:0:
310,128,68606,1,0,0:0:0:0:
310,128,68692,1,8,0:0:0:0:
308,129,68866,1,0,0:0:0:0:
308,129,69039,1,8,0:0:0:0:
311,129,69386,1,0,0:0:0:0:
310,130,69559,1,8,0:0:0:0:
310,128,69733,1,8,0:0:0:0:
308,129,69906,1,0,0:0:0:0:
308,129,70080,1,0,0:0:0:0:
305,130,70253,1,8,0:0:0:0:
305,130,70426,1,8,0:0:0:0:
305,130,70600,1,0,0:0:0:0:
305,130,70687,1,8,0:0:0:0:
305,130,70773,1,0,0:0:0:0:
305,130,71120,1,8,0:0:0:0:
305,130,71294,1,8,0:0:0:0:
305,130,71467,1,0,0:0:0:0:
305,130,71814,1,8,0:0:0:0:
305,130,71987,1,0,0:0:0:0:
305,130,72334,1,0,0:0:0:0:
305,130,72421,1,0,0:0:0:0:
305,130,72507,1,8,0:0:0:0:
305,130,72681,1,8,0:0:0:0:
305,130,72854,1,0,0:0:0:0:
305,130,73374,1,0,0:0:0:0:
305,130,73461,1,0,0:0:0:0:
305,130,73548,1,8,0:0:0:0:
305,130,73721,1,0,0:0:0:0:
305,130,74068,1,8,0:0:0:0:
305,130,74242,1,0,0:0:0:0:
305,130,74415,1,0,0:0:0:0:
305,130,74588,1,0,0:0:0:0:
310,130,74675,1,0,0:0:0:0:
310,130,74762,1,0,0:0:0:0:
310,130,74848,1,0,0:0:0:0:
310,130,74935,1,8,0:0:0:0:
312,125,75109,1,0,0:0:0:0:
312,125,75195,1,8,0:0:0:0:
312,125,75282,1,8,0:0:0:0:
312,125,75369,1,8,0:0:0:0:
312,120,75455,1,0,0:0:0:0:
312,125,75629,1,0,0:0:0:0:
298,126,76149,1,8,0:0:0:0:
298,126,76496,1,8,0:0:0:0:
280,118,77016,1,12,0:0:0:0:
288,108,77189,1,0,0:0:0:0:
288,108,77276,1,0,0:0:0:0:
288,108,77363,1,8,0:0:0:0:
288,108,77536,1,0,0:0:0:0:
293,108,77883,1,0,0:0:0:0:
288,108,78057,1,8,0:0:0:0:
288,108,78230,1,0,0:0:0:0:
308,104,78403,1,4,0:0:0:0:
301,104,78577,1,0,0:0:0:0:
298,102,78750,1,8,0:0:0:0:
312,96,78924,1,4,0:0:0:0:
307,97,79270,1,0,0:0:0:0:
322,88,79357,1,0,0:0:0:0:
322,88,79444,1,8,0:0:0:0:
307,97,79617,1,4,0:0:0:0:
324,90,79964,1,8,0:0:0:0:
324,90,80311,1,8,0:0:0:0:
324,90,80658,1,0,0:0:0:0:
324,90,80831,1,8,0:0:0:0:
328,92,81005,1,0,0:0:0:0:
329,92,81178,1,4,0:0:0:0:
326,107,81525,1,8,0:0:0:0:
333,107,81698,1,8,0:0:0:0:
334,107,81872,1,8,0:0:0:0:
334,107,82045,1,0,0:0:0:0:
342,102,82218,1,8,0:0:0:0:
342,102,82392,1,0,0:0:0:0:
344,104,82739,1,0,0:0:0:0:
344,104,82912,1,8,0:0:0:0:
339,106,83085,1,8,0:0:0:0:
342,102,83432,1,0,0:0:0:0:
343,104,83606,1,8,0:0:0:0:
346,98,83779,1,0,0:0:0:0:
349,97,83952,1,0,0:0:0:0:
350,94,84126,1,0,0:0:0:0:
350,94,84213,1,0,0:0:0:0:
350,94,84299,1,8,0:0:0:0:
350,94,84473,1,8,0:0:0:0:
339,95,84559,1,8,0:0:0:0:
339,95,84646,1,8,0:0:0:0:
328,99,84820,1,0,0:0:0:0:
328,99,84993,1,0,0:0:0:0:
328,99,85166,1,12,0:0:0:0:
256,192,85340,12,0,88114,0:0:0:0:
