osu file format v14

[General]
AudioFilename: audio.mp3
AudioLeadIn: 0
PreviewTime: 52394
Countdown: 0
SampleSet: Soft
StackLeniency: 0.7
Mode: 3
LetterboxInBreaks: 0
SpecialStyle: 0
WidescreenStoryboard: 1

[Editor]
Bookmarks: 43030
DistanceSpacing: 1.1
BeatDivisor: 12
GridSize: 16
TimelineZoom: 1.8

[Metadata]
Title:Serendipity (TV Size)
TitleUnicode:Serendipity (TV Size)
Artist:ZAQ
ArtistUnicode:ZAQ
Creator:diamant66
Version:6K Hard
Source:フリップフラッパーズ
Tags:thenewbungping [Ping] Phukiir Sillyp DarkistDeci [_Decku_] [ Decku ] Angki Syadow- flip flappers opening anime lacm-14546 japanese jpop j-pop jrock j-rock
BeatmapID:3194526
BeatmapSetID:1475830

[Difficulty]
HPDrainRate:7.4
CircleSize:6
OverallDifficulty:7
ApproachRate:5
SliderMultiplier:1.4
SliderTickRate:1

[Events]
//Background and Video events
0,0,"bg.jpg",0,0
//Break Periods
//Storyboard Layer 0 (Background)
//Storyboard Layer 1 (Fail)
//Storyboard Layer 2 (Pass)
//Storyboard Layer 3 (Foreground)
//Storyboard Layer 4 (Overlay)
//Storyboard Sound Samples
Sample,64879,0,"LR_Snare Clap Low.wav",80
Sample,66267,0,"LR_Snare Clap Low.wav",80
Sample,67654,0,"LR_Snare Clap Low.wav",70
Sample,75631,0,"BassFX.wav",55
Sample,84648,0,"LR_CymbalSSF.wav",40

[TimingPoints]
718,346.820809248555,4,2,1,60,1,0
38868,-11.7647,4,2,1,60,0,0
38911,-1000,4,2,1,60,0,0
39072,-844.122,4,2,1,60,0,0
39112,-623.725,4,2,1,60,0,0
39152,-445.96,4,2,1,60,0,0
39193,-320.513,4,2,1,60,0,0
39233,-235.718,4,2,1,60,0,0
39273,-178.467,4,2,1,60,0,0
39313,-139.185,4,2,1,60,0,0
39354,-111.64,4,2,1,60,0,0
39394,-91.8894,4,2,1,60,0,0
39434,-77.4348,4,2,1,60,0,0
39475,-100,4,2,1,60,0,0
45111,-125,4,2,1,30,0,0
46498,-125,4,2,1,40,0,0
47885,-125,4,2,1,50,0,0
47971,-123.457,4,2,1,50,0,0
48058,-121.951,4,2,1,50,0,0
48145,-120.482,4,2,1,50,0,0
48231,-119.048,4,2,1,50,0,0
48318,-117.647,4,2,1,50,0,0
48405,-116.279,4,2,1,50,0,0
48491,-114.943,4,2,1,50,0,0
48578,-113.636,4,2,1,50,0,0
48665,-112.36,4,2,1,50,0,0
48752,-111.111,4,2,1,50,0,0
48838,-109.89,4,2,1,50,0,0
48925,-108.696,4,2,1,50,0,0
49012,-107.527,4,2,1,50,0,0
49098,-106.383,4,2,1,50,0,0
49185,-105.263,4,2,1,50,0,0
49272,-104.167,4,2,1,60,0,0
49358,-103.093,4,2,1,60,0,0
49445,-102.041,4,2,1,60,0,0
49532,-101.01,4,2,1,60,0,0
49619,-100,4,2,1,60,0,0
53434,-100,4,2,1,65,0,1
75631,-125,4,2,1,40,0,0
77018,-100,4,2,1,40,0,0
81180,-100,4,2,1,60,0,0
85183,-101.3482546,4,2,1,60,0,0
85214,-102.03051,4,2,1,60,0,0
85261,-103.0716745,4,2,1,60,0,0
85277,-103.4233491,4,2,1,60,0,0
85324,-104.4931052,4,2,1,60,0,0
85355,-105.218869,4,2,1,60,0,0
85370,-105.585554,4,2,1,60,0,0
85417,-106.7010321,4,2,1,60,0,0
85433,-107.0780879,4,2,1,60,0,0
85480,-108.2250387,4,2,1,60,0,0
85495,-108.6131094,4,2,1,60,0,0
85542,-109.793364,4,2,1,60,0,0
85558,-110.1930128,4,2,1,60,0,0
85589,-111.0001497,4,2,1,60,0,0
85636,-112.2334102,4,2,1,60,0,0
85667,-113.0712354,4,2,1,60,0,0
85698,-113.9212092,4,2,1,60,0,0
85730,-114.7840773,4,2,1,60,0,0
85761,-115.6605426,4,2,1,60,0,0
85776,-116.1037936,4,2,1,60,0,0
85823,-117.4534476,4,2,1,60,0,0
85839,-117.9108867,4,2,1,60,0,0
85886,-119.3031966,4,2,1,60,0,0
85901,-119.7748487,4,2,1,60,0,0
85948,-121.2119394,4,2,1,60,0,0
85979,-122.1895654,4,2,1,60,0,0
86010,-123.1828892,4,2,1,60,0,0
86042,-124.1928058,4,2,1,60,0,0
86073,-125.2190967,4,2,1,60,0,0
86089,-125.7387297,4,2,1,60,0,0
86120,-126.7909771,4,2,1,60,0,0
86167,-128.4027596,4,2,1,60,0,0
86198,-129.500263,4,2,1,60,0,0
86213,-130.0559537,4,2,1,60,0,0
86245,-131.1820684,4,2,1,60,0,0
86276,-132.3277588,4,2,1,60,0,0
86323,-134.0841301,4,2,1,60,0,0
86354,-135.2812355,4,2,1,60,0,0
86370,-135.8882007,4,2,1,60,0,0
86416,-137.7411971,4,2,1,60,0,0
86448,-139.0049368,4,2,1,60,0,0
86479,-140.2918974,4,2,1,60,0,0
86510,-141.6031188,4,2,1,60,0,0
86541,-142.938641,4,2,1,60,0,0
86572,-144.3000687,4,2,1,60,0,0
86604,-145.68757,4,2,1,60,0,0
86619,-146.3914961,4,2,1,60,0,0
86666,-148.5443874,4,2,1,60,0,0
86682,-149.276106,4,2,1,60,0,0
86713,-150.7614205,4,2,1,60,0,0
86742,-158.3899094,4,2,1,60,0,0
86756,-141.637509,4,2,1,60,0,0
86770,-173.3514494,4,2,1,60,0,0
86784,-133.9540461,4,2,1,60,0,0
86798,-188.5072445,4,2,1,60,0,0
86812,-128.7743086,4,2,1,60,0,0
86826,-201.3506415,4,2,1,60,0,0
86840,-126.2140755,4,2,1,60,0,0
86853,-209.0166947,4,2,1,60,0,0
86867,-126.3403698,4,2,1,60,0,0
86881,-209.541818,4,2,1,60,0,0
86895,-129.2504807,4,2,1,60,0,0
86909,-203.0006592,4,2,1,60,0,0
86923,-135.0990299,4,2,1,60,0,0
86937,-191.4477556,4,2,1,60,0,0
86950,-144.0777621,4,2,1,60,0,0
86964,-177.7348014,4,2,1,60,0,0
86978,-156.3199167,4,2,1,60,0,0
86992,-164.3125571,4,2,1,60,0,0
87006,-171.6971215,4,2,1,60,0,0
87020,-152.7441168,4,2,1,60,0,0
87034,-189.4658398,4,2,1,60,0,0
87048,-143.8067408,4,2,1,60,0,0
87061,-207.8262229,4,2,1,60,0,0
87075,-137.7970759,4,2,1,60,0,0
87089,-223.7168058,4,2,1,60,0,0
87103,-134.8021001,4,2,1,60,0,0
87117,-233.4359988,4,2,1,60,0,0
87131,-134.8716487,4,2,1,60,0,0
87145,-234.3146241,4,2,1,60,0,0
87159,-138.1171986,4,2,1,60,0,0
87172,-226.357833,4,2,1,60,0,0
87186,-144.7448886,4,2,1,60,0,0
87200,-212.2234153,4,2,1,60,0,0
87214,-155.0391898,4,2,1,60,0,0
87228,-195.5784642,4,2,1,60,0,0
87242,-169.2683697,4,2,1,60,0,0
87256,-179.4713021,4,2,1,60,0,0
87269,-187.4448802,4,2,1,60,0,0
87283,-165.7416845,4,2,1,60,0,0
87297,-208.8808711,4,2,1,60,0,0
87311,-155.225063,4,2,1,60,0,0
87325,-231.553053,4,2,1,60,0,0
87339,-148.1812514,4,2,1,60,0,0
87353,-251.6672324,4,2,1,60,0,0
87367,-144.6451976,4,2,1,60,0,0
87380,-252.5252526,4,2,1,60,0,0
87394,-144.6410583,4,2,1,60,0,0
87408,-252.5252526,4,2,1,60,0,0
87422,-148.2927418,4,2,1,60,0,0
87436,-252.5252526,4,2,1,60,0,0
87450,-155.8753527,4,2,1,60,0,0
87464,-238.0534441,4,2,1,60,0,0
87478,-167.8074741,4,2,1,60,0,0
87491,-217.4031247,4,2,1,60,0,0
87505,-184.5558886,4,2,1,60,0,0
87519,-197.7112485,4,2,1,60,0,0
87533,-206.3722317,4,2,1,60,0,0
87547,-181.1581221,4,2,1,60,0,0
87561,-232.7270309,4,2,1,60,0,0
87575,-168.6145194,4,2,1,60,0,0
87588,-252.5252526,4,2,1,60,0,0
87602,-160.2598423,4,2,1,60,0,0
87616,-252.5252526,4,2,1,60,0,0
87630,-156.042023,4,2,1,60,0,0
87644,-252.5252526,4,2,1,60,0,0
87658,-155.9378538,4,2,1,60,0,0
87672,-252.5252526,4,2,1,60,0,0
87686,-160.0884467,4,2,1,60,0,0
87699,-252.5252526,4,2,1,60,0,0
87713,-168.8626886,4,2,1,60,0,0
87727,-252.5252526,4,2,1,60,0,0
87741,-182.8691117,4,2,1,60,0,0
87755,-244.7084189,4,2,1,60,0,0
87769,-202.8799924,4,2,1,60,0,0
87783,-220.0779594,4,2,1,60,0,0
87797,-229.5506873,4,2,1,60,0,0
87810,-199.7379576,4,2,1,60,0,0
87824,-252.5252526,4,2,1,60,0,0
87838,-184.5341144,4,2,1,60,0,0
87852,-252.5252526,4,2,1,60,0,0
87866,-174.4851977,4,2,1,60,0,0
87880,-252.5252526,4,2,1,60,0,0
87894,-169.3907748,4,2,1,60,0,0
87907,-252.5252526,4,2,1,60,0,0
87921,-169.1519509,4,2,1,60,0,0
87935,-252.5252526,4,2,1,60,0,0
87949,-173.926038,4,2,1,60,0,0
87963,-252.5252526,4,2,1,60,0,0
87977,-184.213528,4,2,1,60,0,0
87991,-252.5252526,4,2,1,60,0,0
88005,-200.9032727,4,2,1,60,0,0
88018,-252.5252526,4,2,1,60,0,0
88032,-225.2447609,4,2,1,60,0,0
88046,-248.1505098,4,2,1,60,0,0
88060,-252.5252526,4,2,1,60,0,0
88074,-222.5657523,4,2,1,60,0,0
88088,-252.5252526,4,2,1,60,0,0
88102,-203.7756853,4,2,1,60,0,0
88116,-252.5252526,4,2,1,60,0,0

[HitObjects]
42,192,718,128,0,1758:0:0:0:0:
469,192,718,1,0,0:0:0:0:
213,192,891,1,0,0:0:0:0:
384,192,1064,1,0,0:0:0:0:
298,192,1238,1,0,0:0:0:0:
469,192,1411,1,0,0:0:0:0:
213,192,1585,1,0,0:0:0:0:
298,192,1758,128,0,3492:0:0:0:0:
128,192,1931,1,0,0:0:0:0:
384,192,2105,1,0,0:0:0:0:
42,192,2278,1,0,0:0:0:0:
213,192,2452,1,0,0:0:0:0:
128,192,2625,1,0,0:0:0:0:
469,192,2798,1,0,0:0:0:0:
42,192,2972,1,0,0:0:0:0:
128,192,3145,1,0,0:0:0:0:
213,192,3319,1,0,0:0:0:0:
469,192,3492,128,0,5226:0:0:0:0:
128,192,3665,1,0,0:0:0:0:
298,192,3839,1,0,0:0:0:0:
42,192,4012,1,0,0:0:0:0:
384,192,4186,1,0,0:0:0:0:
298,192,4359,1,0,0:0:0:0:
128,192,4533,1,0,0:0:0:0:
213,192,4706,1,0,0:0:0:0:
384,192,4879,1,0,0:0:0:0:
42,192,5053,1,0,0:0:0:0:
128,192,5226,128,0,5573:0:0:0:0:
213,192,5400,1,0,0:0:0:0:
298,192,5573,128,0,5746:0:0:0:0:
213,192,5746,128,0,6093:0:0:0:0:
42,192,5920,1,0,0:0:0:0:
128,192,6007,1,0,0:0:0:0:
298,192,6093,128,0,6440:0:0:0:0:
384,192,6180,1,0,0:0:0:0:
42,192,6267,1,2,0:0:0:0:
128,192,6267,1,4,0:0:0:0:
469,192,6267,1,0,0:0:0:0:
213,192,6440,1,0,0:0:0:0:
298,192,6613,1,8,0:0:0:0:
384,192,6613,1,0,0:0:0:0:
469,192,6613,1,0,0:0:0:0:
128,192,6787,1,0,0:0:0:0:
298,192,6874,1,0,0:0:0:0:
128,192,6960,1,0,0:0:0:0:
298,192,7047,1,0,0:0:0:0:
42,192,7134,1,2,0:0:0:0:
469,192,7134,1,0,0:0:0:0:
128,192,7307,1,8,0:0:0:0:
213,192,7307,1,0,0:0:0:0:
384,192,7307,1,0,0:0:0:0:
298,192,7481,1,2,0:0:0:0:
469,192,7481,1,0,0:0:0:0:
213,192,7567,1,0,0:0:0:0:
128,192,7654,1,0,0:0:0:0:
298,192,7827,1,0,0:0:0:0:
42,192,8001,1,8,0:0:0:0:
128,192,8001,1,0,0:0:0:0:
384,192,8001,1,0,0:0:0:0:
213,192,8174,1,0,0:0:0:0:
469,192,8261,1,0,0:0:0:0:
213,192,8348,1,0,0:0:0:0:
469,192,8434,1,0,0:0:0:0:
42,192,8521,1,2,0:0:0:0:
128,192,8521,1,0,0:0:0:0:
298,192,8521,1,0,0:0:0:0:
128,192,8694,1,8,0:0:0:0:
384,192,8694,1,0,0:0:0:0:
469,192,8868,1,0,0:0:0:0:
384,192,8954,1,0,0:0:0:0:
42,192,9041,1,2,0:0:0:0:
298,192,9041,1,0,0:0:0:0:
128,192,9215,1,0,0:0:0:0:
213,192,9388,1,8,0:0:0:0:
384,192,9388,1,0,0:0:0:0:
469,192,9388,1,0,0:0:0:0:
42,192,9561,1,0,0:0:0:0:
298,192,9648,1,0,0:0:0:0:
42,192,9735,1,0,0:0:0:0:
298,192,9822,1,0,0:0:0:0:
128,192,9908,1,2,0:0:0:0:
469,192,9908,1,0,0:0:0:0:
213,192,10082,1,8,0:0:0:0:
298,192,10082,1,0,0:0:0:0:
384,192,10082,1,0,0:0:0:0:
42,192,10255,1,2,0:0:0:0:
128,192,10255,1,0,0:0:0:0:
213,192,10342,1,0,0:0:0:0:
298,192,10428,1,0,0:0:0:0:
128,192,10602,1,0,0:0:0:0:
213,192,10775,128,8,11122:0:0:0:0:
384,192,10775,1,0,0:0:0:0:
469,192,10775,1,0,0:0:0:0:
42,192,10949,1,0,0:0:0:0:
469,192,11122,128,0,11296:0:0:0:0:
128,192,11296,1,2,0:0:0:0:
384,192,11296,128,0,11469:0:0:0:0:
213,192,11382,1,2,0:0:0:0:
298,192,11382,1,0,0:0:0:0:
42,192,11469,1,8,0:0:0:0:
128,192,11469,1,0,0:0:0:0:
469,192,11469,1,0,0:0:0:0:
469,192,11642,128,0,12163:0:0:0:0:
298,192,11729,1,0,0:0:0:0:
42,192,11816,1,2,0:0:0:0:
213,192,11816,1,0,0:0:0:0:
128,192,11989,1,0,0:0:0:0:
213,192,12163,1,8,0:0:0:0:
298,192,12163,1,0,0:0:0:0:
384,192,12163,1,0,0:0:0:0:
128,192,12336,1,0,0:0:0:0:
384,192,12423,1,0,0:0:0:0:
128,192,12509,1,0,0:0:0:0:
384,192,12596,1,0,0:0:0:0:
213,192,12683,1,2,0:0:0:0:
298,192,12683,1,0,0:0:0:0:
42,192,12856,1,8,0:0:0:0:
128,192,12856,1,0,0:0:0:0:
469,192,12856,1,0,0:0:0:0:
213,192,13030,1,2,0:0:0:0:
384,192,13030,1,0,0:0:0:0:
298,192,13116,1,0,0:0:0:0:
469,192,13203,1,0,0:0:0:0:
128,192,13376,1,0,0:0:0:0:
42,192,13550,1,8,0:0:0:0:
298,192,13550,1,0,0:0:0:0:
384,192,13550,1,0,0:0:0:0:
213,192,13723,1,0,0:0:0:0:
384,192,13810,1,0,0:0:0:0:
213,192,13897,1,0,0:0:0:0:
384,192,13983,1,0,0:0:0:0:
42,192,14070,1,2,0:0:0:0:
128,192,14070,1,0,0:0:0:0:
213,192,14244,1,8,0:0:0:0:
384,192,14244,1,0,0:0:0:0:
469,192,14244,1,0,0:0:0:0:
298,192,14417,1,0,0:0:0:0:
213,192,14504,1,0,0:0:0:0:
42,192,14590,1,2,0:0:0:0:
384,192,14590,1,0,0:0:0:0:
128,192,14764,1,0,0:0:0:0:
298,192,14937,1,8,0:0:0:0:
384,192,14937,1,0,0:0:0:0:
469,192,14937,1,0,0:0:0:0:
42,192,15111,1,0,0:0:0:0:
298,192,15197,1,0,0:0:0:0:
42,192,15284,1,0,0:0:0:0:
298,192,15371,1,0,0:0:0:0:
213,192,15457,1,2,0:0:0:0:
469,192,15457,1,0,0:0:0:0:
128,192,15631,1,8,0:0:0:0:
298,192,15631,1,0,0:0:0:0:
384,192,15631,1,0,0:0:0:0:
42,192,15804,1,2,0:0:0:0:
128,192,15804,1,0,0:0:0:0:
213,192,15891,1,0,0:0:0:0:
298,192,15978,1,0,0:0:0:0:
384,192,16151,1,0,0:0:0:0:
213,192,16324,1,8,0:0:0:0:
298,192,16324,1,0,0:0:0:0:
469,192,16324,1,0,0:0:0:0:
42,192,16498,1,0,0:0:0:0:
128,192,16585,1,0,0:0:0:0:
469,192,16671,1,0,0:0:0:0:
384,192,16797,1,0,0:0:0:0:
298,192,16860,1,0,0:0:0:0:
213,192,16923,1,0,0:0:0:0:
128,192,16986,1,0,0:0:0:0:
42,192,17049,1,0,0:0:0:0:
469,192,17112,1,0,0:0:0:0:
384,192,17175,1,0,0:0:0:0:
298,192,17238,1,0,0:0:0:0:
213,192,17301,1,0,0:0:0:0:
42,192,17365,1,4,0:0:0:0:
128,192,17365,1,2,0:0:0:0:
384,192,17365,1,0,0:0:0:0:
469,192,17365,1,0,0:0:0:0:
213,192,17712,1,8,0:0:0:0:
298,192,17712,1,0,0:0:0:0:
469,192,17712,128,0,18059:0:0:0:0:
128,192,17885,1,0,0:0:0:0:
384,192,18059,128,0,18232:0:0:0:0:
42,192,18232,1,2,0:0:0:0:
213,192,18232,128,0,18405:0:0:0:0:
298,192,18405,1,8,0:0:0:0:
384,192,18405,1,0,0:0:0:0:
469,192,18405,1,0,0:0:0:0:
42,192,18579,1,2,0:0:0:0:
213,192,18579,128,0,19272:0:0:0:0:
384,192,18752,1,0,0:0:0:0:
128,192,18926,1,0,0:0:0:0:
42,192,19099,1,8,0:0:0:0:
384,192,19099,1,0,0:0:0:0:
469,192,19099,1,0,0:0:0:0:
298,192,19272,1,0,0:0:0:0:
384,192,19446,1,0,0:0:0:0:
42,192,19619,128,2,19793:0:0:0:0:
469,192,19619,1,0,0:0:0:0:
128,192,19793,128,8,19966:0:0:0:0:
213,192,19793,1,0,0:0:0:0:
298,192,19793,1,0,0:0:0:0:
384,192,19966,128,0,20313:0:0:0:0:
42,192,20139,1,2,0:0:0:0:
213,192,20139,1,0,0:0:0:0:
128,192,20313,1,0,0:0:0:0:
298,192,20486,1,8,0:0:0:0:
384,192,20486,128,0,20660:0:0:0:0:
469,192,20486,1,0,0:0:0:0:
213,192,20660,1,0,0:0:0:0:
384,192,20833,128,0,21007:0:0:0:0:
42,192,21007,1,2,0:0:0:0:
298,192,21007,128,0,21353:0:0:0:0:
128,192,21180,1,8,0:0:0:0:
213,192,21180,1,0,0:0:0:0:
469,192,21180,1,0,0:0:0:0:
42,192,21353,128,2,22047:0:0:0:0:
384,192,21353,1,0,0:0:0:0:
469,192,21527,1,0,0:0:0:0:
298,192,21700,1,0,0:0:0:0:
128,192,21874,1,8,0:0:0:0:
213,192,21874,1,0,0:0:0:0:
384,192,21874,1,0,0:0:0:0:
469,192,22047,1,0,0:0:0:0:
213,192,22220,1,0,0:0:0:0:
42,192,22394,128,2,22567:0:0:0:0:
298,192,22394,1,0,0:0:0:0:
128,192,22567,1,8,0:0:0:0:
384,192,22567,1,0,0:0:0:0:
469,192,22567,128,0,22741:0:0:0:0:
298,192,22741,128,0,23261:0:0:0:0:
42,192,22914,1,2,0:0:0:0:
213,192,22914,1,0,0:0:0:0:
128,192,23087,1,0,0:0:0:0:
42,192,23261,1,8,0:0:0:0:
384,192,23261,128,0,23434:0:0:0:0:
469,192,23261,1,0,0:0:0:0:
213,192,23434,128,0,23954:0:0:0:0:
384,192,23608,1,0,0:0:0:0:
298,192,23781,1,2,0:0:0:0:
469,192,23781,1,0,0:0:0:0:
42,192,23954,1,8,0:0:0:0:
128,192,23954,1,0,0:0:0:0:
384,192,23954,128,0,24128:0:0:0:0:
128,192,24128,128,2,24648:0:0:0:0:
298,192,24128,1,0,0:0:0:0:
384,192,24301,1,0,0:0:0:0:
469,192,24475,1,0,0:0:0:0:
213,192,24648,1,8,0:0:0:0:
298,192,24648,1,0,0:0:0:0:
384,192,24648,128,0,24822:0:0:0:0:
42,192,24822,128,0,25342:0:0:0:0:
213,192,24995,1,0,0:0:0:0:
298,192,25168,1,2,0:0:0:0:
469,192,25168,1,0,0:0:0:0:
128,192,25342,1,8,0:0:0:0:
213,192,25342,1,0,0:0:0:0:
384,192,25342,128,0,25515:0:0:0:0:
298,192,25515,128,0,26729:0:0:0:0:
42,192,25689,1,2,0:0:0:0:
213,192,25689,1,0,0:0:0:0:
128,192,25862,1,0,0:0:0:0:
213,192,26035,1,8,0:0:0:0:
384,192,26035,1,0,0:0:0:0:
469,192,26035,1,0,0:0:0:0:
128,192,26209,1,0,0:0:0:0:
42,192,26382,1,0,0:0:0:0:
384,192,26556,1,2,0:0:0:0:
469,192,26556,1,0,0:0:0:0:
42,192,26729,1,8,0:0:0:0:
128,192,26729,1,0,0:0:0:0:
213,192,26729,1,0,0:0:0:0:
298,192,26902,1,2,0:0:0:0:
469,192,26902,1,0,0:0:0:0:
384,192,27076,1,0,0:0:0:0:
128,192,27249,1,0,0:0:0:0:
42,192,27423,1,8,0:0:0:0:
213,192,27423,1,0,0:0:0:0:
298,192,27423,1,0,0:0:0:0:
469,192,27596,1,0,0:0:0:0:
384,192,27770,1,0,0:0:0:0:
42,192,27943,1,2,0:0:0:0:
128,192,27943,1,0,0:0:0:0:
384,192,28030,1,2,0:0:0:0:
469,192,28030,1,0,0:0:0:0:
42,192,28116,128,8,28463:0:0:0:0:
213,192,28116,1,0,0:0:0:0:
298,192,28116,1,0,0:0:0:0:
384,192,28290,1,0,0:0:0:0:
128,192,28463,1,4,0:0:0:0:
213,192,28463,1,2,0:0:0:0:
298,192,28463,1,0,0:0:0:0:
469,192,28463,128,0,29157:0:0:0:0:
128,192,28637,1,0,0:0:0:0:
42,192,28810,1,8,0:0:0:0:
298,192,28810,1,0,0:0:0:0:
384,192,28810,1,0,0:0:0:0:
298,192,28983,1,0,0:0:0:0:
128,192,29157,1,0,0:0:0:0:
213,192,29330,1,2,0:0:0:0:
384,192,29330,128,0,29374:0:0:0:0:
128,192,29504,128,8,29677:0:0:0:0:
384,192,29504,128,0,29569:0:0:0:0:
469,192,29504,1,0,0:0:0:0:
213,192,29677,128,2,30197:0:0:0:0:
384,192,29677,128,0,29764:0:0:0:0:
384,192,29850,128,0,29937:0:0:0:0:
384,192,30024,128,0,30111:0:0:0:0:
42,192,30197,1,8,0:0:0:0:
128,192,30197,1,0,0:0:0:0:
384,192,30197,128,0,30262:0:0:0:0:
384,192,30371,128,0,30414:0:0:0:0:
213,192,30544,128,0,30891:0:0:0:0:
128,192,30718,1,2,0:0:0:0:
469,192,30718,1,0,0:0:0:0:
42,192,30891,128,8,31238:0:0:0:0:
298,192,30891,128,0,31238:0:0:0:0:
384,192,30891,1,0,0:0:0:0:
128,192,31064,128,0,31238:0:0:0:0:
384,192,31238,128,2,31585:0:0:0:0:
469,192,31238,1,0,0:0:0:0:
213,192,31411,1,0,0:0:0:0:
42,192,31585,1,8,0:0:0:0:
128,192,31585,1,0,0:0:0:0:
298,192,31585,1,0,0:0:0:0:
469,192,31758,128,0,32105:0:0:0:0:
42,192,31931,128,0,32105:0:0:0:0:
213,192,32105,128,2,32278:0:0:0:0:
384,192,32105,1,0,0:0:0:0:
42,192,32278,1,8,0:0:0:0:
298,192,32278,128,0,32452:0:0:0:0:
469,192,32278,1,0,0:0:0:0:
128,192,32452,128,2,32517:0:0:0:0:
469,192,32452,128,0,32798:0:0:0:0:
128,192,32625,128,0,32712:0:0:0:0:
128,192,32798,128,0,32885:0:0:0:0:
128,192,32972,128,8,33037:0:0:0:0:
298,192,32972,1,0,0:0:0:0:
469,192,32972,1,0,0:0:0:0:
128,192,33145,128,0,33189:0:0:0:0:
42,192,33319,128,0,33492:0:0:0:0:
298,192,33492,128,2,33839:0:0:0:0:
384,192,33492,1,0,0:0:0:0:
42,192,33665,1,8,0:0:0:0:
213,192,33665,1,0,0:0:0:0:
469,192,33665,128,0,34012:0:0:0:0:
128,192,33839,128,0,34706:0:0:0:0:
298,192,34012,1,2,0:0:0:0:
384,192,34012,1,0,0:0:0:0:
384,192,34186,1,0,0:0:0:0:
42,192,34359,1,8,0:0:0:0:
213,192,34359,1,0,0:0:0:0:
469,192,34359,1,0,0:0:0:0:
213,192,34533,1,0,0:0:0:0:
298,192,34706,1,0,0:0:0:0:
42,192,34879,1,2,0:0:0:0:
298,192,34879,128,0,34923:0:0:0:0:
128,192,35053,128,8,35226:0:0:0:0:
213,192,35053,1,0,0:0:0:0:
298,192,35053,128,0,35118:0:0:0:0:
298,192,35226,128,2,35313:0:0:0:0:
469,192,35226,128,0,35573:0:0:0:0:
298,192,35400,128,0,35486:0:0:0:0:
298,192,35573,128,0,35660:0:0:0:0:
128,192,35746,1,8,0:0:0:0:
298,192,35746,128,0,35811:0:0:0:0:
469,192,35746,1,0,0:0:0:0:
298,192,35920,128,0,35963:0:0:0:0:
42,192,35920,128,0,36267:0:0:0:0:
384,192,36093,1,0,0:0:0:0:
213,192,36267,1,2,0:0:0:0:
298,192,36267,128,0,36440:0:0:0:0:
42,192,36440,1,8,0:0:0:0:
128,192,36440,1,0,0:0:0:0:
469,192,36440,128,0,36787:0:0:0:0:
298,192,36613,128,0,36787:0:0:0:0:
42,192,36787,1,2,0:0:0:0:
213,192,36787,128,0,38174:0:0:0:0:
42,192,36960,1,0,0:0:0:0:
298,192,37134,1,8,0:0:0:0:
384,192,37134,1,0,0:0:0:0:
469,192,37134,1,0,0:0:0:0:
469,192,37307,1,0,0:0:0:0:
128,192,37481,1,0,0:0:0:0:
42,192,37654,1,2,0:0:0:0:
128,192,37654,1,0,0:0:0:0:
298,192,37827,1,8,0:0:0:0:
384,192,37827,1,0,0:0:0:0:
469,192,37827,1,0,0:0:0:0:
42,192,38001,1,2,0:0:0:0:
384,192,38001,1,0,0:0:0:0:
298,192,38174,1,0,0:0:0:0:
298,192,38348,1,0,0:0:0:0:
42,192,38521,1,8,0:0:0:0:
128,192,38521,1,0,0:0:0:0:
213,192,38521,1,0,0:0:0:0:
298,192,38694,1,0,0:0:0:0:
42,192,38868,1,0,0:0:0:50:LR_J Hit Hollow.wav
298,192,39561,128,0,39822:0:0:0:70:LR4_KickPCHT.wav
384,192,39561,128,0,39822:0:0:0:50:LR_CymbalSSF.wav
469,192,39561,128,0,39822:0:0:0:50:LR_J Hit Hollow.wav
298,192,39908,128,0,40168:0:0:0:0:
384,192,39908,128,0,40168:0:0:0:0:
469,192,39908,128,0,40168:0:0:0:0:
298,192,40255,1,0,0:0:0:85:LR_Snare Clap Low.wav
384,192,40255,1,0,0:0:0:50:LR_CymbalSSF.wav
469,192,40255,1,0,0:0:0:0:
213,192,40342,1,0,0:0:0:0:
128,192,40515,1,0,0:0:0:0:
42,192,40559,1,0,0:0:0:0:
298,192,40689,1,0,0:0:0:0:
213,192,40732,1,0,0:0:0:0:
469,192,40862,1,0,0:0:0:0:
384,192,40905,1,0,0:0:0:0:
42,192,40949,128,0,41209:0:0:0:60:LR4_KickPCHT.wav
213,192,40949,128,0,41209:0:0:0:50:LR_CymbalSSF.wav
298,192,40949,128,0,41209:0:0:0:0:
42,192,41296,128,0,41556:0:0:0:0:
213,192,41296,128,0,41556:0:0:0:0:
298,192,41296,128,0,41556:0:0:0:0:
42,192,41642,1,0,0:0:0:85:LR_Snare Clap Low.wav
213,192,41642,1,0,0:0:0:50:LR_CymbalSSF.wav
298,192,41642,1,0,0:0:0:0:
469,192,41758,1,0,0:0:0:0:
384,192,41816,1,0,0:0:0:0:
42,192,41902,1,0,0:0:0:0:
128,192,41960,1,0,0:0:0:0:
298,192,42076,1,0,0:0:0:0:
213,192,42163,1,0,0:0:0:0:
128,192,42336,128,0,42943:0:0:0:60:LR4_KickPCHT.wav
213,192,42336,128,0,42943:0:0:0:50:LR_CymbalSSF.wav
384,192,42336,128,0,42943:0:0:0:0:
128,192,43030,1,0,0:0:0:85:LR_Snare Clap Low.wav
213,192,43030,1,0,0:0:0:50:LR_CymbalSSF.wav
384,192,43030,1,0,0:0:0:0:
469,192,43116,1,0,0:0:0:0:
42,192,43203,1,0,0:0:0:0:
128,192,43290,1,0,0:0:0:0:
384,192,43376,1,0,0:0:0:0:
298,192,43463,1,0,0:0:0:0:
213,192,43550,1,0,0:0:0:0:
128,192,43637,1,0,0:0:0:0:
42,192,43723,128,0,44070:0:0:0:60:LR4_KickPCHT.wav
213,192,43723,128,0,44070:0:0:0:50:LR_CymbalSSF.wav
384,192,43723,128,0,44330:0:0:0:0:
128,192,44070,128,0,44330:0:0:0:0:
298,192,44070,128,0,44330:0:0:0:0:
42,192,44417,1,0,0:0:0:85:LR_Snare Clap Low.wav
213,192,44417,1,0,0:0:0:35:LR_Tom 1.wav
384,192,44417,1,0,0:0:0:50:LR_CymbalSSF.wav
298,192,44533,1,0,0:0:0:45:LR_Tom 2.wav
469,192,44533,1,0,0:0:0:0:
42,192,44648,1,0,0:0:0:45:LR_Tom 3.wav
213,192,44648,1,0,0:0:0:0:
384,192,44764,1,0,0:0:0:35:LR_Tom 1.wav
469,192,44764,1,0,0:0:0:0:
42,192,44879,1,0,0:0:0:45:LR_Tom 2.wav
128,192,44879,1,0,0:0:0:0:
213,192,44995,1,0,0:0:0:45:LR_Tom 3.wav
298,192,44995,1,0,0:0:0:0:
384,192,45111,128,2,46151:0:0:0:0:
469,192,45111,128,0,46498:0:0:0:55:BassFX.wav
42,192,45457,1,0,0:0:0:50:Snare Dry.wav
213,192,45978,1,2,0:0:0:0:
42,192,46151,1,0,0:0:0:50:Snare Dry.wav
128,192,46498,128,2,47885:0:0:0:0:
384,192,46845,1,0,0:0:0:60:Snare Dry.wav
213,192,47365,1,2,0:0:0:0:
384,192,47538,1,0,0:0:0:60:Snare Dry.wav
298,192,47885,128,2,49272:0:0:0:0:
384,192,48232,1,0,0:0:0:70:Snare Dry.wav
469,192,48232,1,0,0:0:0:0:
213,192,48579,128,0,49272:0:0:0:0:
42,192,48752,1,2,0:0:0:0:
384,192,48926,1,0,0:0:0:70:Snare Dry.wav
469,192,48926,1,0,0:0:0:0:
42,192,49272,128,2,49966:0:0:0:0:
128,192,49446,128,0,49793:0:0:0:0:
213,192,49619,1,0,0:0:0:80:Snare Dry.wav
298,192,49619,128,0,49966:0:0:0:0:
384,192,49793,128,0,50139:0:0:0:0:
213,192,49966,128,0,50313:0:0:0:0:
469,192,49966,128,0,50660:0:0:0:0:
128,192,50139,128,2,50486:0:0:0:0:
384,192,50313,128,0,50660:0:0:0:0:
298,192,50313,1,0,0:0:0:80:Snare Dry.wav
42,192,50486,128,0,50660:0:0:0:55:LR_Tom 2.wav
128,192,50660,1,8,0:0:0:0:
213,192,50660,1,0,0:0:0:45:LR_Tom 1.wav
298,192,50746,1,0,0:0:0:55:LR_Tom 2.wav
384,192,50833,1,0,0:0:0:55:LR_Tom 3.wav
128,192,50920,1,0,0:0:0:55:LR_Tom 3.wav
469,192,51007,1,0,0:0:0:30:LR4_KickPCHT.wav
42,192,51093,1,0,0:0:0:30:LR4_KickPCHT.wav
298,192,51180,1,8,0:0:0:0:
384,192,51180,1,0,0:0:0:45:LR_Tom 1.wav
213,192,51267,1,0,0:0:0:55:LR_Tom 2.wav
384,192,51353,1,0,0:0:0:55:LR_Tom 3.wav
128,192,51440,1,0,0:0:0:55:LR_Tom 3.wav
469,192,51527,1,0,0:0:0:30:LR4_KickPCHT.wav
42,192,51613,1,0,0:0:0:30:LR4_KickPCHT.wav
213,192,51700,1,8,0:0:0:0:
298,192,51700,1,0,0:0:0:45:LR_Tom 1.wav
384,192,51787,1,0,0:0:0:55:LR_Tom 3.wav
213,192,51874,1,0,0:0:0:30:LR4_KickPCHT.wav
42,192,51960,1,0,0:0:0:30:LR4_KickPCHT.wav
128,192,52047,128,2,52307:0:0:0:0:
384,192,52047,128,0,52307:0:0:0:0:
469,192,52047,128,0,52307:0:0:0:0:
128,192,52394,128,2,52654:0:0:0:0:
298,192,52394,128,0,52654:0:0:0:0:
384,192,52394,128,0,52654:0:0:0:0:
42,192,52741,1,0,0:0:0:0:
128,192,52798,1,0,0:0:0:0:
213,192,52856,1,0,0:0:0:0:
298,192,52914,1,0,0:0:0:0:
384,192,52972,1,0,0:0:0:0:
469,192,53030,1,0,0:0:0:0:
298,192,53087,1,0,0:0:0:0:
213,192,53145,1,0,0:0:0:0:
128,192,53203,1,0,0:0:0:0:
42,192,53261,1,0,0:0:0:0:
213,192,53319,1,0,0:0:0:0:
298,192,53376,1,0,0:0:0:0:
384,192,53434,1,2,0:0:0:0:
469,192,53434,128,4,54995:0:0:0:0:
298,192,53608,1,0,0:0:0:0:
128,192,53781,128,8,53954:0:0:0:0:
213,192,53781,1,0,0:0:0:0:
384,192,53781,1,0,0:0:0:0:
42,192,53954,128,0,54128:0:0:0:0:
213,192,54128,128,2,54301:0:0:0:0:
298,192,54128,1,0,0:0:0:0:
42,192,54301,1,0,0:0:0:0:
128,192,54475,1,8,0:0:0:0:
298,192,54475,128,0,54648:0:0:0:0:
384,192,54475,1,0,0:0:0:0:
213,192,54648,1,0,0:0:0:0:
42,192,54822,1,2,0:0:0:0:
384,192,54822,128,0,54995:0:0:0:0:
298,192,54995,1,0,0:0:0:0:
42,192,55168,1,8,0:0:0:0:
213,192,55168,1,0,0:0:0:0:
469,192,55168,1,0,0:0:0:0:
128,192,55342,128,0,55515:0:0:0:0:
213,192,55515,128,2,55689:0:0:0:0:
384,192,55515,1,0,0:0:0:0:
298,192,55689,128,0,55862:0:0:0:0:
42,192,55862,1,8,0:0:0:0:
128,192,55862,1,0,0:0:0:0:
469,192,55862,128,0,56209:0:0:0:0:
298,192,56035,128,0,56296:0:0:0:0:
128,192,56209,1,2,0:0:0:0:
213,192,56209,1,0,0:0:0:0:
384,192,56382,128,0,56642:0:0:0:0:
42,192,56556,1,8,0:0:0:0:
213,192,56556,1,0,0:0:0:0:
298,192,56556,1,0,0:0:0:0:
128,192,56729,128,0,56989:0:0:0:0:
213,192,56902,1,2,0:0:0:0:
298,192,56902,128,0,57163:0:0:0:0:
42,192,57076,128,0,57249:0:0:0:0:
213,192,57249,128,8,57423:0:0:0:0:
298,192,57249,1,0,0:0:0:0:
469,192,57249,1,0,0:0:0:0:
384,192,57423,128,0,57770:0:0:0:0:
128,192,57596,128,2,57856:0:0:0:0:
213,192,57596,1,0,0:0:0:0:
42,192,57943,128,8,58116:0:0:0:0:
298,192,57943,1,0,0:0:0:0:
469,192,57943,1,0,0:0:0:0:
128,192,58030,128,0,58203:0:0:0:0:
213,192,58116,128,0,58290:0:0:0:0:
42,192,58290,1,2,0:0:0:0:
469,192,58290,128,0,58463:0:0:0:0:
384,192,58376,128,0,58550:0:0:0:0:
298,192,58463,128,0,58637:0:0:0:0:
213,192,58637,128,8,58810:0:0:0:0:
384,192,58637,1,0,0:0:0:0:
469,192,58637,1,0,0:0:0:0:
128,192,58723,128,0,58897:0:0:0:0:
42,192,58810,128,0,58983:0:0:0:0:
298,192,58983,128,2,59330:0:0:0:0:
384,192,58983,128,0,60631:0:0:0:0:
213,192,59157,1,0,0:0:0:0:
42,192,59330,128,8,59504:0:0:0:0:
128,192,59330,1,0,0:0:0:0:
469,192,59330,1,0,0:0:0:0:
298,192,59504,1,0,0:0:0:0:
128,192,59677,1,2,0:0:0:0:
213,192,59677,128,0,59850:0:0:0:0:
469,192,59850,128,0,60024:0:0:0:0:
42,192,60024,128,8,60197:0:0:0:0:
128,192,60024,1,0,0:0:0:0:
298,192,60024,1,0,0:0:0:0:
213,192,60197,128,0,60544:0:0:0:0:
42,192,60371,1,2,0:0:0:0:
128,192,60371,1,0,0:0:0:0:
469,192,60544,1,0,0:0:0:0:
42,192,60718,1,8,0:0:0:0:
213,192,60718,1,0,0:0:0:0:
384,192,60718,1,0,0:0:0:0:
298,192,60891,1,0,0:0:0:0:
42,192,61064,128,2,61585:0:0:0:0:
469,192,61064,1,0,0:0:0:0:
298,192,61151,128,0,61324:0:0:0:0:
213,192,61238,128,0,61411:0:0:0:0:
128,192,61324,128,0,61498:0:0:0:0:
298,192,61411,1,8,0:0:0:0:
384,192,61411,1,0,0:0:0:0:
469,192,61411,128,0,61585:0:0:0:0:
298,192,61585,128,0,61931:0:0:0:0:
42,192,61758,1,2,0:0:0:0:
128,192,61758,1,0,0:0:0:0:
213,192,61931,128,0,62105:0:0:0:0:
298,192,62105,128,8,62278:0:0:0:0:
384,192,62105,1,0,0:0:0:0:
469,192,62105,1,0,0:0:0:0:
213,192,62278,128,0,62452:0:0:0:0:
128,192,62452,1,2,0:0:0:0:
298,192,62452,128,0,62625:0:0:0:0:
469,192,62625,128,0,62972:0:0:0:0:
128,192,62798,1,8,0:0:0:0:
213,192,62798,1,0,0:0:0:0:
384,192,62798,1,0,0:0:0:0:
42,192,62972,128,0,63405:0:0:0:0:
298,192,63145,1,2,0:0:0:0:
469,192,63145,128,0,63492:0:0:0:0:
213,192,63319,1,0,0:0:0:0:
298,192,63492,1,8,0:0:0:0:
384,192,63492,1,0,0:0:0:45:LR_Tom 1.wav
128,192,63579,1,0,0:0:0:55:LR_Tom 2.wav
213,192,63579,1,0,0:0:0:0:
469,192,63665,1,0,0:0:0:55:LR_Tom 3.wav
42,192,63752,1,0,0:0:0:55:LR_Tom 3.wav
128,192,63839,1,0,0:0:0:40:LR4_KickPCHT.wav
213,192,63839,1,0,0:0:0:0:
298,192,63926,1,0,0:0:0:40:LR4_KickPCHT.wav
384,192,63926,1,0,0:0:0:0:
42,192,64012,1,0,0:0:0:40:LR4_KickPCHT.wav
469,192,64099,1,0,0:0:0:40:LR4_KickPCHT.wav
213,192,64186,1,12,0:0:0:0:
298,192,64186,1,0,0:0:0:70:LR_Snare Clap Low.wav
384,192,64359,1,0,0:0:0:0:
298,192,64446,1,0,0:0:0:0:
42,192,64533,1,2,0:0:0:0:
213,192,64533,1,0,0:0:0:0:
128,192,64706,1,0,0:0:0:0:
213,192,64793,1,0,0:0:0:0:
298,192,64879,128,8,65053:0:0:0:0:
384,192,64937,128,0,65111:0:0:0:0:
469,192,64995,128,0,65168:0:0:0:0:
128,192,65053,128,0,65226:0:0:0:0:
42,192,65226,128,2,65400:0:0:0:0:
298,192,65226,1,0,0:0:0:0:
298,192,65400,128,0,65573:0:0:0:0:
213,192,65573,128,8,65746:0:0:0:0:
384,192,65573,1,0,0:0:0:0:
469,192,65573,1,0,0:0:0:0:
128,192,65746,128,0,66093:0:0:0:0:
42,192,65920,1,2,0:0:0:0:
298,192,65920,1,0,0:0:0:0:
469,192,66093,1,0,0:0:0:0:
298,192,66267,128,8,66440:0:0:0:0:
384,192,66324,128,0,66498:0:0:0:0:
469,192,66382,128,0,66556:0:0:0:0:
42,192,66440,128,0,66613:0:0:0:0:
128,192,66613,128,2,66787:0:0:0:0:
298,192,66613,1,0,0:0:0:0:
42,192,66787,128,0,66960:0:0:0:0:
213,192,66960,128,8,67134:0:0:0:0:
384,192,66960,1,0,0:0:0:0:
469,192,66960,1,0,0:0:0:0:
298,192,67134,128,0,67481:0:0:0:0:
42,192,67307,1,2,0:0:0:0:
128,192,67307,1,0,0:0:0:0:
384,192,67481,1,0,0:0:0:0:
213,192,67654,128,8,67827:0:0:0:0:
128,192,67712,128,0,67885:0:0:0:0:
42,192,67770,128,0,67943:0:0:0:0:
384,192,68001,128,2,68174:0:0:0:0:
469,192,68001,1,0,0:0:0:0:
298,192,68174,128,0,68348:0:0:0:0:
42,192,68348,1,8,0:0:0:0:
128,192,68348,1,0,0:0:0:0:
384,192,68348,128,0,68521:0:0:0:0:
469,192,68521,128,0,68868:0:0:0:0:
213,192,68694,128,2,68868:0:0:0:0:
128,192,68694,1,0,0:0:0:0:
384,192,68868,1,0,0:0:0:0:
42,192,69041,128,8,69301:0:0:0:0:
298,192,69041,1,0,0:0:0:0:
469,192,69041,1,0,0:0:0:0:
128,192,69128,128,0,69301:0:0:0:0:
213,192,69215,128,0,69388:0:0:0:0:
384,192,69388,128,2,69561:0:0:0:0:
469,192,69388,1,0,0:0:0:0:
298,192,69561,128,0,69822:0:0:0:0:
42,192,69735,1,8,0:0:0:0:
213,192,69735,1,0,0:0:0:0:
469,192,69735,128,0,69995:0:0:0:0:
384,192,69822,128,0,69995:0:0:0:0:
128,192,69908,128,0,70168:0:0:0:0:
298,192,70082,128,2,70428:0:0:0:0:
384,192,70082,1,0,0:0:0:0:
42,192,70255,128,0,70428:0:0:0:0:
128,192,70428,1,8,0:0:0:0:
213,192,70428,128,0,70602:0:0:0:0:
469,192,70428,1,0,0:0:0:0:
384,192,70602,128,0,70775:0:0:0:0:
42,192,70775,1,2,0:0:0:0:
128,192,70775,1,0,0:0:0:0:
213,192,70949,1,0,0:0:0:0:
42,192,71122,1,8,0:0:0:0:
298,192,71122,1,0,0:0:0:0:
469,192,71122,1,0,0:0:0:0:
384,192,71296,128,0,71469:0:0:0:0:
128,192,71469,1,2,0:0:0:0:
213,192,71469,128,0,71816:0:0:0:0:
384,192,71642,1,0,0:0:0:0:
42,192,71816,1,8,0:0:0:0:
128,192,71816,1,0,0:0:0:0:
298,192,71816,1,0,0:0:0:0:
469,192,71989,128,0,72163:0:0:0:0:
42,192,72163,128,2,72509:0:0:0:0:
298,192,72163,1,0,0:0:0:0:
213,192,72336,128,0,72509:0:0:0:0:
128,192,72509,128,8,72683:0:0:0:0:
384,192,72509,1,0,0:0:0:0:
469,192,72509,1,0,0:0:0:0:
42,192,72683,128,0,72856:0:0:0:0:
213,192,72856,128,2,73203:0:0:0:0:
298,192,72856,128,0,73897:0:0:0:0:
128,192,73030,128,0,73376:0:0:0:0:
384,192,73203,128,0,73550:0:0:0:0:
469,192,73376,128,0,73723:0:0:0:0:
42,192,73550,128,8,73897:0:0:0:0:
213,192,73550,1,0,0:0:0:0:
128,192,73723,128,0,74070:0:0:0:0:
384,192,73897,128,0,74244:0:0:0:0:
298,192,74070,128,0,74244:0:0:0:0:
42,192,74244,128,2,74417:0:0:0:0:
469,192,74244,1,0,0:0:0:0:
128,192,74330,128,0,74504:0:0:0:0:
213,192,74417,128,0,74590:0:0:0:0:
298,192,74504,128,0,74590:0:0:0:0:
384,192,74590,1,0,0:0:0:40:LR4_KickPCHT.wav
469,192,74590,1,0,0:0:0:0:
213,192,74677,1,0,0:0:0:40:LR4_KickPCHT.wav
298,192,74677,1,0,0:0:0:0:
42,192,74764,1,0,0:0:0:40:LR4_KickPCHT.wav
128,192,74764,1,0,0:0:0:0:
384,192,74850,1,0,0:0:0:40:LR4_KickPCHT.wav
469,192,74850,1,0,0:0:0:0:
213,192,74937,1,8,0:0:0:0:
298,192,74937,1,0,0:0:0:70:LR_Snare Clap Low.wav
213,192,75111,1,0,0:0:0:45:LR_Tom 1.wav
298,192,75111,1,0,0:0:0:0:
384,192,75197,1,0,0:0:0:55:LR_Tom 2.wav
128,192,75284,1,0,0:0:0:55:LR_Tom 2.wav
469,192,75371,1,0,0:0:0:55:LR_Tom 3.wav
42,192,75457,1,0,0:0:0:55:LR_Tom 3.wav
298,192,75544,1,0,0:0:0:40:LR4_KickPCHT.wav
213,192,75631,1,2,0:0:0:0:
384,192,75804,1,0,0:0:0:0:
469,192,75978,1,0,0:0:0:0:
128,192,76151,1,0,0:0:0:0:
469,192,76498,1,0,0:0:0:0:
42,192,76845,1,0,0:0:0:0:
298,192,77018,1,4,0:0:0:0:
384,192,77018,1,0,0:0:0:75:LR_Snare Drum 2.wav
213,192,77191,1,0,0:0:0:0:
128,192,77278,1,0,0:0:0:0:
42,192,77365,1,0,0:0:0:0:
128,192,77538,1,0,0:0:0:75:LR_Snare Drum 2.wav
213,192,77538,1,0,0:0:0:0:
298,192,77712,1,0,0:0:0:0:
384,192,77798,1,0,0:0:0:0:
469,192,77885,1,0,0:0:0:0:
213,192,78059,128,0,78232:0:0:0:75:LR_Snare Drum 2.wav
298,192,78059,1,0,0:0:0:0:
128,192,78232,128,0,78405:0:0:0:0:
42,192,78405,128,2,78665:0:0:0:0:
298,192,78405,128,0,78665:0:0:0:0:
384,192,78579,128,0,78752:0:0:0:0:
42,192,78752,1,8,0:0:0:0:
298,192,78752,1,0,0:0:0:0:
469,192,78752,128,0,78926:0:0:0:0:
128,192,78926,128,2,79186:0:0:0:0:
213,192,78926,128,0,79186:0:0:0:0:
298,192,79099,1,0,0:0:0:0:
384,192,79272,128,0,79446:0:0:0:75:LR_Snare Drum 2.wav
469,192,79272,1,0,0:0:0:0:
128,192,79446,1,8,0:0:0:0:
213,192,79446,1,0,0:0:0:0:
42,192,79619,128,2,79966:0:0:0:0:
298,192,79619,1,0,0:0:0:0:
469,192,79619,128,0,79966:0:0:0:0:
213,192,79966,128,0,80226:0:0:0:0:
128,192,80139,1,0,0:0:0:0:
42,192,80226,1,0,0:0:0:0:
384,192,80313,128,0,80573:0:0:0:0:
298,192,80400,1,0,0:0:0:0:
128,192,80486,1,0,0:0:0:0:
213,192,80573,1,0,0:0:0:0:
469,192,80660,128,0,80833:0:0:0:0:
384,192,80746,1,0,0:0:0:0:
298,192,80833,128,0,81007:0:0:0:0:
42,192,80920,1,0,0:0:0:0:
213,192,81007,128,0,81180:0:0:0:0:
469,192,81093,1,0,0:0:0:0:
42,192,81180,1,2,0:0:0:0:
128,192,81180,1,4,0:0:0:0:
213,192,81353,1,0,0:0:0:0:
298,192,81527,1,8,0:0:0:0:
384,192,81527,1,0,0:0:0:0:
469,192,81527,1,0,0:0:0:0:
42,192,81700,1,0,0:0:0:0:
384,192,81787,1,0,0:0:0:0:
42,192,81874,1,0,0:0:0:0:
384,192,81960,1,0,0:0:0:0:
128,192,82047,1,2,0:0:0:0:
213,192,82047,1,0,0:0:0:0:
298,192,82220,1,8,0:0:0:0:
384,192,82220,1,0,0:0:0:0:
469,192,82220,1,0,0:0:0:0:
213,192,82394,1,2,0:0:0:0:
469,192,82394,1,0,0:0:0:0:
128,192,82481,1,0,0:0:0:0:
42,192,82567,1,0,0:0:0:0:
298,192,82741,1,0,0:0:0:0:
128,192,82914,1,8,0:0:0:0:
213,192,82914,1,0,0:0:0:0:
469,192,82914,1,0,0:0:0:0:
384,192,83087,1,0,0:0:0:0:
213,192,83174,1,0,0:0:0:0:
384,192,83261,1,0,0:0:0:0:
213,192,83348,1,0,0:0:0:0:
42,192,83434,1,2,0:0:0:0:
298,192,83434,1,0,0:0:0:0:
128,192,83608,1,8,0:0:0:0:
384,192,83608,1,0,0:0:0:0:
469,192,83608,1,0,0:0:0:0:
298,192,83781,1,0,0:0:0:0:
213,192,83868,1,0,0:0:0:0:
42,192,83954,1,2,0:0:0:0:
128,192,83954,1,0,0:0:0:0:
298,192,84128,1,0,0:0:0:0:
128,192,84301,1,8,0:0:0:0:
213,192,84301,1,0,0:0:0:0:
469,192,84301,1,0,0:0:0:0:
384,192,84475,1,0,0:0:0:35:LR_Tom 1.wav
469,192,84475,1,0,0:0:0:0:
213,192,84561,1,0,0:0:0:45:LR_Tom 2.wav
298,192,84561,1,0,0:0:0:0:
42,192,84648,1,0,0:0:0:40:LR4_KickPCHT.wav
128,192,84648,1,0,0:0:0:45:LR_Tom 3.wav
128,192,84822,1,2,0:0:0:0:
213,192,84822,1,0,0:0:0:0:
213,192,84995,1,8,0:0:0:0:
298,192,84995,1,0,0:0:0:0:
42,192,85168,1,2,0:0:0:0:
128,192,85168,1,0,0:0:0:50:LR_CymbalWSD.wav
384,192,85168,128,0,88116:0:0:0:0:
469,192,85168,128,0,88116:0:0:0:0:
