osu file format v14

[General]
AudioFilename: audio.mp3
AudioLeadIn: 0
PreviewTime: 52220
Countdown: 0
SampleSet: None
StackLeniency: 0.7
Mode: 3
LetterboxInBreaks: 0
SpecialStyle: 0
WidescreenStoryboard: 0

[Editor]
DistanceSpacing: 0.7
BeatDivisor: 4
GridSize: 16
TimelineZoom: 1.7

[Metadata]
Title:Serendipity
TitleUnicode:Serendipity
Artist:ZAQ
ArtistUnicode:ZAQ
Creator:Remuring
Version:Hard
Source:フリップフラッパーズ
Tags:
BeatmapID:1894707
BeatmapSetID:907947

[Difficulty]
HPDrainRate:7.5
CircleSize:4
OverallDifficulty:7.5
ApproachRate:5
SliderMultiplier:1.4
SliderTickRate:1

[Events]
//Background and Video events
0,0,"rotated+2.png",0,0
Video,-632,"ZAQ - Serendipity.avi"
//Break Periods
//Storyboard Layer 0 (Background)
//Storyboard Layer 1 (Fail)
//Storyboard Layer 2 (Pass)
//Storyboard Layer 3 (Foreground)
//Storyboard Sound Samples

[TimingPoints]
718,346.820809248555,4,2,1,50,1,0
53434,-100,4,2,1,50,0,1
75631,-100,4,2,1,50,0,0

[HitObjects]
64,192,718,5,0,0:0:0:0:
320,192,891,1,0,0:0:0:0:
64,192,1064,1,0,0:0:0:0:
320,192,1238,1,0,0:0:0:0:
64,192,1411,1,0,0:0:0:0:
320,192,1585,1,0,0:0:0:0:
64,192,1758,1,0,0:0:0:0:
448,192,1931,1,0,0:0:0:0:
192,192,2105,1,0,0:0:0:0:
448,192,2278,1,0,0:0:0:0:
192,192,2452,1,0,0:0:0:0:
448,192,2625,1,0,0:0:0:0:
192,192,2798,1,0,0:0:0:0:
448,192,2972,1,0,0:0:0:0:
192,192,3145,1,0,0:0:0:0:
448,192,3319,1,0,0:0:0:0:
64,192,3492,1,0,0:0:0:0:
448,192,3665,1,0,0:0:0:0:
64,192,3839,1,0,0:0:0:0:
448,192,4012,1,0,0:0:0:0:
64,192,4186,1,0,0:0:0:0:
448,192,4359,1,0,0:0:0:0:
64,192,4533,1,0,0:0:0:0:
448,192,4706,1,0,0:0:0:0:
64,192,4879,128,0,6267:0:0:0:0:
448,192,6267,1,4,0:0:0:0:
320,192,6267,1,8,0:0:0:0:
192,192,6267,1,0,0:0:0:0:
64,192,6613,1,0,0:0:0:0:
320,192,6613,1,0,0:0:0:0:
320,192,7134,1,0,0:0:0:0:
192,192,7134,1,0,0:0:0:0:
448,192,7307,1,8,0:0:0:0:
64,192,7307,1,0,0:0:0:0:
192,192,7481,1,0,0:0:0:0:
320,192,7481,1,0,0:0:0:0:
64,192,8001,1,0,0:0:0:0:
192,192,8001,1,0,0:0:0:0:
192,192,8521,1,0,0:0:0:0:
64,192,8521,1,0,0:0:0:0:
320,192,8694,1,8,0:0:0:0:
448,192,8694,1,0,0:0:0:0:
64,192,8868,1,2,0:0:0:0:
192,192,9041,1,0,0:0:0:0:
320,192,9041,1,0,0:0:0:0:
64,192,9388,1,8,0:0:0:0:
448,192,9388,1,0,0:0:0:0:
320,192,9908,1,0,0:0:0:0:
192,192,9908,1,0,0:0:0:0:
64,192,10082,1,8,0:0:0:0:
448,192,10082,1,0,0:0:0:0:
192,192,10255,1,8,0:0:0:0:
320,192,10255,1,0,0:0:0:0:
448,192,10775,1,4,0:0:0:0:
64,192,10775,1,0,0:0:0:0:
64,192,11296,1,8,0:0:0:0:
192,192,11296,1,2,0:0:0:0:
448,192,11382,1,8,0:0:0:0:
320,192,11382,1,2,0:0:0:0:
192,192,11469,1,8,0:0:0:0:
64,192,11469,1,2,0:0:0:0:
192,192,11816,1,0,0:0:0:0:
320,192,11816,1,0,0:0:0:0:
64,192,12163,1,8,0:0:0:0:
448,192,12163,1,0,0:0:0:0:
192,192,12683,1,0,0:0:0:0:
320,192,12683,1,0,0:0:0:0:
64,192,12856,1,8,0:0:0:0:
448,192,12856,1,0,0:0:0:0:
192,192,13030,1,8,0:0:0:0:
320,192,13030,1,0,0:0:0:0:
64,192,13550,1,8,0:0:0:0:
448,192,13550,1,0,0:0:0:0:
64,192,14070,1,0,0:0:0:0:
192,192,14070,1,0,0:0:0:0:
320,192,14244,1,8,0:0:0:0:
448,192,14244,1,0,0:0:0:0:
64,192,14417,1,2,0:0:0:0:
320,192,14590,1,0,0:0:0:0:
192,192,14590,1,0,0:0:0:0:
64,192,14937,1,8,0:0:0:0:
448,192,14937,1,0,0:0:0:0:
320,192,15457,1,0,0:0:0:0:
192,192,15457,1,0,0:0:0:0:
64,192,15631,1,8,0:0:0:0:
448,192,15631,1,0,0:0:0:0:
192,192,15804,1,8,0:0:0:0:
320,192,15804,1,0,0:0:0:0:
64,192,16324,1,8,0:0:0:0:
448,192,16324,1,0,0:0:0:0:
64,192,16671,128,0,17365:0:0:0:50:LR3_BassDropSub.wav
448,192,17365,1,4,0:0:0:0:
192,192,17365,1,8,0:0:0:0:
320,192,17365,1,0,0:0:0:0:
320,192,17712,1,8,0:0:0:0:
64,192,17712,1,0,0:0:0:0:
64,192,18232,1,0,0:0:0:0:
192,192,18232,1,0,0:0:0:0:
320,192,18405,1,8,0:0:0:0:
448,192,18405,1,0,0:0:0:0:
64,192,18579,1,0,0:0:0:0:
192,192,18579,1,0,0:0:0:0:
320,192,19099,1,8,0:0:0:0:
448,192,19099,1,0,0:0:0:0:
192,192,19619,1,0,0:0:0:0:
320,192,19619,1,0,0:0:0:0:
64,192,19793,1,8,0:0:0:0:
448,192,19793,1,0,0:0:0:0:
192,192,20139,1,0,0:0:0:0:
320,192,20139,1,0,0:0:0:0:
64,192,20486,1,8,0:0:0:0:
320,192,20486,1,0,0:0:0:0:
192,192,21007,1,0,0:0:0:0:
320,192,21007,1,0,0:0:0:0:
64,192,21180,1,8,0:0:0:0:
448,192,21180,1,0,0:0:0:0:
192,192,21353,1,0,0:0:0:0:
320,192,21353,1,0,0:0:0:0:
64,192,21874,1,8,0:0:0:0:
320,192,21874,1,0,0:0:0:0:
64,192,22394,1,0,0:0:0:0:
192,192,22394,1,0,0:0:0:0:
320,192,22567,1,8,0:0:0:0:
448,192,22567,1,0,0:0:0:0:
192,192,22914,1,0,0:0:0:0:
320,192,22914,1,0,0:0:0:0:
64,192,23261,1,8,0:0:0:0:
448,192,23261,1,0,0:0:0:0:
320,192,23781,1,0,0:0:0:0:
192,192,23781,1,0,0:0:0:0:
64,192,23954,1,8,0:0:0:0:
448,192,23954,1,0,0:0:0:0:
320,192,24128,1,0,0:0:0:0:
192,192,24128,1,0,0:0:0:0:
64,192,24648,1,8,0:0:0:0:
448,192,24648,1,0,0:0:0:0:
192,192,25168,1,0,0:0:0:0:
320,192,25168,1,0,0:0:0:0:
64,192,25342,1,8,0:0:0:0:
448,192,25342,1,0,0:0:0:0:
320,192,25689,1,0,0:0:0:0:
192,192,25689,1,0,0:0:0:0:
448,192,26035,1,8,0:0:0:0:
64,192,26035,1,0,0:0:0:0:
320,192,26556,1,0,0:0:0:0:
192,192,26556,1,0,0:0:0:0:
64,192,26729,1,8,0:0:0:0:
448,192,26729,1,0,0:0:0:0:
192,192,26902,1,0,0:0:0:0:
320,192,26902,1,0,0:0:0:0:
64,192,27423,1,8,0:0:0:0:
448,192,27423,1,0,0:0:0:0:
192,192,27943,1,8,0:0:0:0:
64,192,27943,1,2,0:0:0:0:
320,192,28030,1,8,0:0:0:0:
448,192,28030,1,2,0:0:0:0:
64,192,28116,1,8,0:0:0:0:
192,192,28116,1,2,0:0:0:0:
64,192,28463,1,8,0:0:0:0:
192,192,28463,1,4,0:0:0:0:
320,192,28463,1,0,0:0:0:0:
64,192,28810,1,8,0:0:0:0:
448,192,28810,1,0,0:0:0:0:
192,192,29330,1,0,0:0:0:0:
320,192,29330,1,0,0:0:0:0:
64,192,29504,1,8,0:0:0:0:
448,192,29504,1,0,0:0:0:0:
192,192,29677,1,0,0:0:0:0:
320,192,29677,1,0,0:0:0:0:
64,192,30197,1,8,0:0:0:0:
448,192,30197,1,0,0:0:0:0:
320,192,30718,1,0,0:0:0:0:
192,192,30718,1,0,0:0:0:0:
448,192,30891,1,8,0:0:0:0:
64,192,30891,1,0,0:0:0:0:
64,192,31238,1,0,0:0:0:0:
192,192,31238,1,0,0:0:0:0:
64,192,31585,1,8,0:0:0:0:
448,192,31585,1,0,0:0:0:0:
320,192,32105,1,0,0:0:0:0:
192,192,32105,1,0,0:0:0:0:
64,192,32278,1,8,0:0:0:0:
448,192,32278,1,0,0:0:0:0:
320,192,32452,1,0,0:0:0:0:
192,192,32452,1,0,0:0:0:0:
64,192,32972,1,8,0:0:0:0:
448,192,32972,1,0,0:0:0:0:
64,192,33319,1,8,0:0:0:0:
192,192,33319,1,0,0:0:0:0:
320,192,33492,1,0,0:0:0:0:
448,192,33492,1,0,0:0:0:0:
64,192,33665,1,8,0:0:0:0:
448,192,33665,1,0,0:0:0:0:
192,192,34012,1,0,0:0:0:0:
320,192,34012,1,0,0:0:0:0:
64,192,34359,1,8,0:0:0:0:
448,192,34359,1,0,0:0:0:0:
192,192,34706,1,8,0:0:0:0:
320,192,34879,1,0,0:0:0:0:
448,192,34879,1,0,0:0:0:0:
64,192,35053,1,8,0:0:0:0:
448,192,35053,1,0,0:0:0:0:
192,192,35226,1,0,0:0:0:0:
320,192,35226,1,0,0:0:0:0:
64,192,35746,1,8,0:0:0:0:
448,192,35746,1,0,0:0:0:0:
192,192,36267,1,0,0:0:0:0:
320,192,36267,1,0,0:0:0:0:
64,192,36440,1,8,0:0:0:0:
448,192,36440,1,0,0:0:0:0:
64,192,36787,1,0,0:0:0:0:
192,192,36787,1,0,0:0:0:0:
192,192,37134,1,8,0:0:0:0:
448,192,37134,1,0,0:0:0:0:
320,192,37481,1,8,0:0:0:0:
64,192,37654,1,0,0:0:0:0:
192,192,37654,1,0,0:0:0:0:
448,192,37827,1,8,0:0:0:0:
64,192,37827,1,0,0:0:0:0:
192,192,38001,1,0,0:0:0:0:
320,192,38001,1,0,0:0:0:0:
64,192,38521,1,8,0:0:0:0:
448,192,38521,1,0,0:0:0:0:
192,192,38868,1,0,0:0:0:50:soft-hitwhistle2.wav
448,192,39561,1,4,0:0:0:0:
320,192,39561,128,8,40255:0:0:0:0:
192,192,40255,1,0,0:0:0:0:
448,192,40428,1,0,0:0:0:0:
64,192,40602,1,0,0:0:0:0:
320,192,40775,1,0,0:0:0:0:
448,192,40949,1,4,0:0:0:0:
192,192,40949,128,8,41642:0:0:0:0:
320,192,41642,1,0,0:0:0:0:
448,192,41816,1,0,0:0:0:0:
64,192,41989,1,0,0:0:0:0:
192,192,42163,1,0,0:0:0:0:
448,192,42336,1,4,0:0:0:0:
320,192,42336,128,8,43030:0:0:0:0:
192,192,43030,1,0,0:0:0:0:
448,192,43203,1,0,0:0:0:0:
64,192,43376,1,0,0:0:0:0:
320,192,43550,1,0,0:0:0:0:
448,192,43723,1,4,0:0:0:0:
192,192,43723,128,8,44417:0:0:0:0:
320,192,44070,128,0,44417:0:0:0:0:
64,192,44417,1,10,0:0:0:0:
192,192,44533,1,10,0:0:0:0:
448,192,44648,1,10,0:0:0:0:
320,192,44764,1,10,0:0:0:0:
64,192,44879,1,10,0:0:0:0:
192,192,44995,1,10,0:0:0:0:
320,192,45111,1,0,0:0:0:0:
448,192,45111,1,0,0:0:0:0:
320,192,45457,1,0,0:0:0:0:
192,192,45978,1,0,0:0:0:0:
320,192,46151,1,0,0:0:0:0:
64,192,46498,1,0,0:0:0:0:
192,192,46845,1,0,0:0:0:0:
320,192,47365,1,0,0:0:0:0:
448,192,47538,1,0,0:0:0:0:
64,192,47885,128,0,50660:0:0:0:0:
320,192,47885,1,0,0:0:0:0:
192,192,48232,1,0,0:0:0:0:
448,192,48232,1,0,0:0:0:0:
320,192,48752,1,0,0:0:0:0:
192,192,48926,1,8,0:0:0:0:
448,192,48926,1,0,0:0:0:0:
192,192,49272,1,0,0:0:0:0:
448,192,49619,1,8,0:0:0:0:
320,192,49619,1,0,0:0:0:0:
320,192,50139,1,0,0:0:0:0:
192,192,50313,1,8,0:0:0:0:
448,192,50313,1,0,0:0:0:0:
448,192,50660,1,10,0:0:0:0:
320,192,50746,1,10,0:0:0:0:
64,192,50833,1,10,0:0:0:0:
192,192,50920,1,10,0:0:0:0:
320,192,51007,1,10,0:0:0:0:
448,192,51093,1,10,0:0:0:0:
64,192,51180,1,10,0:0:0:0:
192,192,51267,1,10,0:0:0:0:
448,192,51353,1,10,0:0:0:0:
320,192,51440,1,10,0:0:0:0:
192,192,51527,1,10,0:0:0:0:
64,192,51613,1,10,0:0:0:0:
448,192,51700,1,10,0:0:0:0:
320,192,51787,1,10,0:0:0:0:
192,192,51874,1,10,0:0:0:0:
64,192,51960,1,10,0:0:0:0:
448,192,52047,1,8,0:0:0:0:
320,192,52047,1,4,0:0:0:0:
320,192,52394,1,8,0:0:0:0:
448,192,52394,1,4,0:0:0:0:
64,192,52741,128,0,53434:0:0:0:50:LR3_BassDropSub.wav
320,192,53434,1,8,0:0:0:0:
448,192,53434,1,4,0:0:0:0:
192,192,53608,1,0,0:0:0:0:
64,192,53781,1,8,0:0:0:0:
448,192,53781,1,0,0:0:0:0:
192,192,53954,1,8,0:0:0:0:
320,192,54041,1,8,0:0:0:0:
192,192,54128,1,0,0:0:0:0:
64,192,54128,1,0,0:0:0:0:
448,192,54301,1,0,0:0:0:0:
192,192,54475,1,8,0:0:0:0:
320,192,54475,1,0,0:0:0:0:
448,192,54648,1,8,0:0:0:0:
320,192,54735,1,8,0:0:0:0:
192,192,54822,1,0,0:0:0:0:
64,192,54822,1,0,0:0:0:0:
320,192,54995,1,0,0:0:0:0:
64,192,55168,1,8,0:0:0:0:
192,192,55168,1,0,0:0:0:0:
64,192,55342,1,8,0:0:0:0:
192,192,55428,1,8,0:0:0:0:
320,192,55515,1,0,0:0:0:0:
448,192,55515,1,0,0:0:0:0:
192,192,55689,1,0,0:0:0:0:
64,192,55862,1,8,0:0:0:0:
448,192,55862,1,0,0:0:0:0:
320,192,56035,1,8,0:0:0:0:
192,192,56122,1,8,0:0:0:0:
448,192,56209,1,0,0:0:0:0:
320,192,56209,1,0,0:0:0:0:
192,192,56382,1,0,0:0:0:0:
64,192,56556,1,8,0:0:0:0:
448,192,56556,1,0,0:0:0:0:
192,192,56729,1,8,0:0:0:0:
320,192,56816,1,8,0:0:0:0:
64,192,56902,1,8,0:0:0:0:
192,192,56902,1,0,0:0:0:0:
320,192,57076,1,0,0:0:0:0:
448,192,57249,1,8,0:0:0:0:
64,192,57249,1,0,0:0:0:0:
448,192,57423,1,8,0:0:0:0:
320,192,57509,1,8,0:0:0:0:
64,192,57596,1,0,0:0:0:0:
192,192,57596,1,0,0:0:0:0:
320,192,57770,1,0,0:0:0:0:
64,192,57943,1,8,0:0:0:0:
448,192,57943,1,0,0:0:0:0:
64,192,58116,1,8,0:0:0:0:
192,192,58203,1,8,0:0:0:0:
320,192,58290,1,8,0:0:0:0:
448,192,58290,1,0,0:0:0:0:
192,192,58463,1,0,0:0:0:0:
64,192,58637,1,8,0:0:0:0:
448,192,58637,1,0,0:0:0:0:
320,192,58810,1,8,0:0:0:0:
192,192,58897,1,8,0:0:0:0:
64,192,58983,1,0,0:0:0:0:
448,192,58983,1,0,0:0:0:0:
192,192,59157,1,2,0:0:0:0:
320,192,59330,1,8,0:0:0:0:
64,192,59330,1,0,0:0:0:0:
448,192,59504,1,8,0:0:0:0:
320,192,59590,1,8,0:0:0:0:
192,192,59677,1,0,0:0:0:0:
64,192,59677,1,0,0:0:0:0:
320,192,59850,1,2,0:0:0:0:
64,192,60024,1,8,0:0:0:0:
192,192,60024,1,0,0:0:0:0:
320,192,60197,1,8,0:0:0:0:
192,192,60284,1,8,0:0:0:0:
64,192,60371,1,0,0:0:0:0:
448,192,60371,1,0,0:0:0:0:
192,192,60544,1,2,0:0:0:0:
320,192,60718,1,8,0:0:0:0:
64,192,60718,1,0,0:0:0:0:
448,192,60891,1,8,0:0:0:0:
320,192,60978,1,8,0:0:0:0:
192,192,61064,1,0,0:0:0:0:
64,192,61064,1,0,0:0:0:0:
320,192,61238,1,2,0:0:0:0:
448,192,61411,1,8,0:0:0:0:
64,192,61411,1,0,0:0:0:0:
192,192,61585,1,8,0:0:0:0:
320,192,61671,1,8,0:0:0:0:
64,192,61758,1,0,0:0:0:0:
192,192,61758,1,0,0:0:0:0:
320,192,61931,1,2,0:0:0:0:
448,192,62105,1,8,0:0:0:0:
64,192,62105,1,0,0:0:0:0:
64,192,62278,1,8,0:0:0:0:
192,192,62365,1,8,0:0:0:0:
320,192,62452,1,0,0:0:0:0:
448,192,62452,1,0,0:0:0:0:
192,192,62625,1,2,0:0:0:0:
64,192,62798,1,8,0:0:0:0:
448,192,62798,1,0,0:0:0:0:
320,192,62972,1,8,0:0:0:0:
192,192,63059,1,8,0:0:0:0:
448,192,63145,1,0,0:0:0:0:
320,192,63145,1,0,0:0:0:0:
192,192,63319,1,2,0:0:0:0:
64,192,63492,1,8,0:0:0:0:
448,192,63492,1,4,0:0:0:0:
192,192,63579,1,8,0:0:0:0:
320,192,63665,1,8,0:0:0:0:
192,192,63752,1,8,0:0:0:0:
64,192,63839,1,8,0:0:0:0:
448,192,63839,1,2,0:0:0:0:
320,192,63926,1,8,0:0:0:0:
192,192,64012,1,8,0:0:0:0:
64,192,64099,1,8,0:0:0:0:
448,192,64186,1,4,0:0:0:0:
320,192,64186,1,8,0:0:0:0:
192,192,64186,1,0,0:0:0:0:
320,192,64359,1,2,0:0:0:0:
64,192,64533,1,0,0:0:0:0:
192,192,64533,1,0,0:0:0:0:
320,192,64706,1,2,0:0:0:0:
448,192,64879,1,8,0:0:0:0:
64,192,64879,128,0,65053:0:0:0:0:
320,192,65053,1,8,0:0:0:0:
192,192,65139,1,8,0:0:0:0:
320,192,65226,1,0,0:0:0:0:
448,192,65226,1,0,0:0:0:0:
192,192,65400,1,2,0:0:0:0:
64,192,65573,1,8,0:0:0:0:
448,192,65573,1,0,0:0:0:0:
448,192,65746,1,8,0:0:0:0:
320,192,65833,1,8,0:0:0:0:
64,192,65920,1,0,0:0:0:0:
192,192,65920,1,0,0:0:0:0:
320,192,66093,1,2,0:0:0:0:
448,192,66267,1,8,0:0:0:0:
64,192,66267,128,0,66440:0:0:0:0:
192,192,66440,1,8,0:0:0:0:
320,192,66527,1,8,0:0:0:0:
64,192,66613,1,0,0:0:0:0:
192,192,66613,1,0,0:0:0:0:
320,192,66787,1,2,0:0:0:0:
448,192,66960,1,8,0:0:0:0:
64,192,66960,1,0,0:0:0:0:
64,192,67134,1,8,0:0:0:0:
192,192,67220,1,8,0:0:0:0:
320,192,67307,1,0,0:0:0:0:
448,192,67307,1,0,0:0:0:0:
192,192,67481,1,2,0:0:0:0:
448,192,67654,1,8,0:0:0:0:
64,192,67654,128,0,67827:0:0:0:0:
320,192,67827,1,8,0:0:0:0:
192,192,67914,1,8,0:0:0:0:
320,192,68001,1,0,0:0:0:0:
448,192,68001,1,0,0:0:0:0:
192,192,68174,1,2,0:0:0:0:
64,192,68348,1,8,0:0:0:0:
448,192,68348,1,0,0:0:0:0:
448,192,68521,1,8,0:0:0:0:
320,192,68608,1,8,0:0:0:0:
64,192,68694,1,0,0:0:0:0:
192,192,68694,1,0,0:0:0:0:
320,192,68868,1,2,0:0:0:0:
448,192,69041,1,8,0:0:0:0:
64,192,69041,1,0,0:0:0:0:
192,192,69215,1,2,0:0:0:0:
320,192,69388,1,0,0:0:0:0:
448,192,69388,1,0,0:0:0:0:
192,192,69561,1,2,0:0:0:0:
64,192,69735,1,8,0:0:0:0:
448,192,69735,1,0,0:0:0:0:
320,192,69908,1,2,0:0:0:0:
64,192,70082,1,0,0:0:0:0:
192,192,70082,1,0,0:0:0:0:
448,192,70255,1,2,0:0:0:0:
64,192,70428,1,8,0:0:0:0:
320,192,70428,1,0,0:0:0:0:
192,192,70602,1,8,0:0:0:0:
320,192,70689,1,8,0:0:0:0:
64,192,70775,1,0,0:0:0:0:
192,192,70775,1,0,0:0:0:0:
448,192,70949,1,2,0:0:0:0:
64,192,71122,1,8,0:0:0:0:
448,192,71122,1,0,0:0:0:0:
320,192,71296,1,8,0:0:0:0:
448,192,71382,1,8,0:0:0:0:
64,192,71469,1,0,0:0:0:0:
192,192,71469,1,0,0:0:0:0:
320,192,71642,1,2,0:0:0:0:
448,192,71816,1,8,0:0:0:0:
64,192,71816,1,0,0:0:0:0:
192,192,71989,1,8,0:0:0:0:
448,192,72076,1,8,0:0:0:0:
320,192,72163,1,8,0:0:0:0:
64,192,72163,1,0,0:0:0:0:
448,192,72249,1,8,0:0:0:0:
192,192,72336,1,2,0:0:0:0:
64,192,72509,1,8,0:0:0:0:
448,192,72509,1,0,0:0:0:0:
320,192,72683,1,2,0:0:0:0:
64,192,72856,1,0,0:0:0:0:
192,192,72856,1,0,0:0:0:0:
320,192,73030,1,2,0:0:0:0:
448,192,73203,1,2,0:0:0:0:
64,192,73376,1,2,0:0:0:0:
192,192,73463,1,2,0:0:0:0:
320,192,73550,1,0,0:0:0:0:
448,192,73550,1,0,0:0:0:0:
64,192,73723,1,2,0:0:0:0:
320,192,73897,1,2,0:0:0:0:
64,192,74070,1,2,0:0:0:0:
192,192,74157,1,2,0:0:0:0:
448,192,74244,1,0,0:0:0:0:
320,192,74244,1,0,0:0:0:0:
192,192,74417,1,2,0:0:0:0:
64,192,74590,1,8,0:0:0:0:
448,192,74590,1,2,0:0:0:0:
192,192,74677,1,8,0:0:0:0:
320,192,74677,1,2,0:0:0:0:
448,192,74764,1,8,0:0:0:0:
64,192,74764,1,2,0:0:0:0:
192,192,74850,1,8,0:0:0:0:
320,192,74850,1,2,0:0:0:0:
64,192,74937,1,8,0:0:0:0:
448,192,74937,1,2,0:0:0:0:
192,192,75024,1,8,0:0:0:0:
320,192,75111,1,8,0:0:0:0:
448,192,75197,1,8,0:0:0:0:
64,192,75284,1,8,0:0:0:0:
192,192,75371,1,8,0:0:0:0:
448,192,75457,1,8,0:0:0:0:
320,192,75544,1,8,0:0:0:0:
192,192,75631,1,0,0:0:0:0:
64,192,75631,128,0,77018:0:0:0:0:
448,192,75804,1,0,0:0:0:0:
320,192,75978,1,0,0:0:0:0:
192,192,76151,1,0,0:0:0:0:
320,192,76498,1,0,0:0:0:0:
448,192,76845,1,0,0:0:0:0:
320,192,77018,1,4,0:0:0:0:
192,192,77018,1,8,0:0:0:0:
448,192,77105,1,2,0:0:0:0:
64,192,77191,1,2,0:0:0:0:
192,192,77278,1,2,0:0:0:0:
320,192,77365,1,2,0:0:0:0:
192,192,77452,1,2,0:0:0:0:
64,192,77538,1,2,0:0:0:0:
320,192,77625,1,2,0:0:0:0:
448,192,77712,1,2,0:0:0:0:
64,192,77798,1,2,0:0:0:0:
192,192,77885,1,2,0:0:0:0:
320,192,77972,1,2,0:0:0:0:
448,192,78059,1,0,0:0:0:0:
64,192,78059,1,0,0:0:0:0:
192,192,78232,1,2,0:0:0:0:
320,192,78405,1,8,0:0:0:0:
448,192,78405,1,0,0:0:0:0:
320,192,78579,1,2,0:0:0:0:
192,192,78752,1,8,0:0:0:0:
448,192,78752,1,0,0:0:0:0:
192,192,78926,1,0,0:0:0:0:
320,192,78926,1,0,0:0:0:0:
320,192,79099,1,2,0:0:0:0:
64,192,79272,1,2,0:0:0:0:
64,192,79446,1,8,0:0:0:0:
448,192,79446,1,0,0:0:0:0:
192,192,79619,1,0,0:0:0:0:
320,192,79619,1,0,0:0:0:0:
64,192,80139,128,2,81180:0:0:0:0:
448,192,81180,1,4,0:0:0:0:
320,192,81180,1,8,0:0:0:0:
192,192,81180,1,2,0:0:0:0:
64,192,81527,1,0,0:0:0:0:
320,192,81527,1,0,0:0:0:0:
192,192,82047,1,0,0:0:0:0:
320,192,82047,1,0,0:0:0:0:
64,192,82220,1,8,0:0:0:0:
448,192,82220,1,0,0:0:0:0:
320,192,82394,1,0,0:0:0:0:
192,192,82394,1,0,0:0:0:0:
64,192,82914,1,8,0:0:0:0:
448,192,82914,1,0,0:0:0:0:
192,192,83434,1,0,0:0:0:0:
320,192,83434,1,0,0:0:0:0:
64,192,83608,1,0,0:0:0:0:
448,192,83608,1,0,0:0:0:0:
192,192,83781,1,0,0:0:0:0:
320,192,83954,1,0,0:0:0:0:
448,192,83954,1,0,0:0:0:0:
64,192,84301,1,2,0:0:0:0:
448,192,84301,1,0,0:0:0:0:
64,192,84475,1,8,0:0:0:0:
192,192,84561,1,8,0:0:0:0:
320,192,84648,1,8,0:0:0:0:
64,192,84822,1,8,0:0:0:0:
192,192,84822,1,0,0:0:0:0:
320,192,84995,1,8,0:0:0:0:
448,192,84995,1,0,0:0:0:0:
448,192,85168,1,2,0:0:0:0:
64,192,85168,128,4,88116:0:0:0:0:
192,192,85168,128,8,88116:0:0:0:0:
