osu file format v14

[General]
AudioFilename: audio.mp3
AudioLeadIn: 1976
PreviewTime: 52307
Countdown: 0
SampleSet: Soft
StackLeniency: 0.4
Mode: 0
LetterboxInBreaks: 0
WidescreenStoryboard: 0

[Editor]
DistanceSpacing: 3.2
BeatDivisor: 4
GridSize: 32
TimelineZoom: 3.399999

[Metadata]
Title:Serendipity
TitleUnicode:Serendipity
Artist:ZAQ
ArtistUnicode:ZAQ
Creator:Pata-Mon
Version:Koiyuki's Insane
Source:フリップフラッパーズ
Tags:TT Mouse Koiyuki Minakami Yuki Fycho Flip Flappers Anime OP opening tv size
BeatmapID:1129016
BeatmapSetID:526839

[Difficulty]
HPDrainRate:6
CircleSize:4
OverallDifficulty:8
ApproachRate:9
SliderMultiplier:1.6
SliderTickRate:1

[Events]
//Background and Video events
0,0,"BG.jpg",0,0
Video,-600,"video.avi"
//Break Periods
//Storyboard Layer 0 (Background)
//Storyboard Layer 1 (Fail)
//Storyboard Layer 2 (Pass)
//Storyboard Layer 3 (Foreground)
//Storyboard Sound Samples

[TimingPoints]
718,346.820809248555,4,2,1,35,1,0
5226,-133.333333333333,4,2,1,35,0,0
6267,-100,4,2,1,60,0,0
16671,-133.333333333333,4,2,1,25,0,0
17018,-100,4,2,1,35,0,0
17365,-100,4,2,1,45,0,0
38868,-200,4,2,1,45,0,0
39561,-133.333333333333,4,2,1,50,0,0
40255,-83.3333333333333,4,2,1,45,0,0
40949,-133.333333333333,4,2,1,50,0,0
41642,-83.3333333333333,4,2,1,45,0,0
42336,-133.333333333333,4,2,1,50,0,0
43030,-83.3333333333333,4,2,1,45,0,0
43723,-133.333333333333,4,2,1,50,0,0
44070,-83.3333333333333,4,2,1,45,0,0
44417,-100,4,2,1,50,0,0
45111,-133.333333333333,4,2,1,35,0,0
47885,-100,4,2,1,50,0,0
50660,-100,4,2,1,60,0,0
53434,-100,4,2,1,65,0,1
64879,-66.6666666666667,4,2,1,75,0,1
65053,-100,4,2,1,65,0,1
66267,-66.6666666666667,4,2,1,75,0,1
66440,-100,4,2,1,65,0,1
67654,-66.6666666666667,4,2,1,75,0,1
67827,-100,4,2,1,65,0,1
75631,-100,4,2,0,45,0,0
77018,-133.333333333333,4,2,1,50,0,0
78405,-100,4,2,1,65,0,1
79619,-100,4,2,1,65,0,0
81180,-100,4,2,1,60,0,0

[Colours]
Combo1 : 95,95,255
Combo2 : 255,127,175
Combo3 : 127,175,255
Combo4 : 255,95,95

[HitObjects]
355,123,5226,6,0,P|382:134|411:140,1,60.0000022888184,0|0,0:0|0:0,0:0:0:0:
502,108,5573,1,0,0:0:0:0:
295,46,5746,2,0,L|175:60,1,120.000004577637,0|0,0:0|0:0,0:0:0:0:
152,52,6180,1,0,0:0:0:0:
128,44,6267,5,6,0:0:0:0:
181,252,6440,1,0,0:0:0:0:
237,102,6613,1,0,1:0:0:0:
55,167,6787,1,0,0:0:0:0:
55,167,6874,1,0,0:0:0:0:
55,167,6960,2,0,P|71:203|80:242,1,80,0|2,0:0|0:0,0:0:0:0:
202,346,7307,1,0,1:0:0:0:
9,334,7481,1,2,0:0:0:0:
9,334,7567,1,0,0:0:0:0:
9,334,7654,6,0,L|122:320,1,80,0|0,0:0|0:0,0:0:0:0:
301,365,8001,1,0,1:0:0:0:
181,252,8174,1,0,0:0:0:0:
417,204,8348,1,0,0:0:0:0:
291,348,8521,1,2,0:0:0:0:
229,167,8694,1,0,1:0:0:0:
505,225,8868,1,0,0:0:0:0:
505,225,8954,1,0,0:0:0:0:
505,225,9041,6,0,B|523:189|523:189|527:144|486:96,1,120,2|0,0:0|0:0,0:0:0:0:
425,53,9388,2,0,L|380:61,1,40,0|0,1:0|0:0,0:0:0:0:
290,74,9561,1,0,0:0:0:0:
290,74,9648,1,0,0:0:0:0:
290,74,9735,1,0,0:0:0:0:
500,114,9908,1,2,0:0:0:0:
385,60,10082,1,0,1:0:0:0:
229,167,10255,1,2,0:0:0:0:
229,167,10342,1,0,0:0:0:0:
228,167,10428,6,0,P|189:161|155:140,1,80,0|0,0:0|0:0,0:0:0:0:
391,244,10775,2,0,P|326:242|274:289,1,120,0|0,1:0|0:0,0:0:0:0:
267,318,11122,2,0,L|272:357,1,40,0|0,0:0|0:0,0:0:0:0:
170,253,11296,1,2,0:0:0:0:
170,253,11382,1,2,0:0:0:0:
170,253,11469,2,0,L|180:332,1,80,0|0,1:0|0:0,0:0:0:0:
228,167,11816,5,6,0:0:0:0:
79,227,11989,1,0,0:0:0:0:
283,273,12163,1,0,1:0:0:0:
238,88,12336,1,0,0:0:0:0:
238,88,12423,1,0,0:0:0:0:
238,88,12509,2,0,L|228:167,1,80,0|2,0:0|0:0,0:0:0:0:
180,332,12856,1,0,1:0:0:0:
26,284,13030,1,2,0:0:0:0:
26,284,13116,1,0,0:0:0:0:
26,284,13203,6,0,P|46:249|78:227,1,80,0|0,0:0|0:0,0:0:0:0:
241,183,13550,1,0,1:0:0:0:
170,253,13723,1,0,0:0:0:0:
136,63,13897,1,0,0:0:0:0:
316,128,14070,1,2,0:0:0:0:
128,81,14244,1,0,1:0:0:0:
381,48,14417,1,0,0:0:0:0:
381,48,14504,1,0,0:0:0:0:
381,48,14590,6,0,B|406:94|406:94|395:194,1,120,2|0,0:0|0:0,0:0:0:0:
335,233,14937,2,0,L|345:289,1,40,0|0,1:0|0:0,0:0:0:0:
361,367,15111,1,0,0:0:0:0:
361,367,15197,1,0,0:0:0:0:
361,367,15284,1,0,0:0:0:0:
398,161,15457,1,2,0:0:0:0:
342,272,15631,1,0,1:0:0:0:
495,157,15804,1,2,0:0:0:0:
490,133,15891,1,0,0:0:0:0:
485,109,15978,5,0,0:0:0:0:
251,211,16151,1,0,0:0:0:0:
456,361,16324,2,0,P|421:344|382:345,1,80,0|0,1:0|0:0,0:0:0:0:
478,351,16671,6,0,P|421:324|359:329,1,120.000004577637,0|0,0:0|0:0,0:0:0:0:
348,342,17105,1,0,0:0:0:0:
327,354,17191,1,0,0:0:0:0:
304,360,17278,1,0,0:0:0:0:
280,361,17365,6,0,B|259:313|259:313|278:194,1,160,6|0,0:0|1:0,0:0:0:0:
295,194,18059,1,0,0:0:0:0:
200,206,18232,1,2,0:0:0:0:
127,143,18405,1,0,1:0:0:0:
185,219,18578,1,2,0:0:0:0:
42,188,18752,6,0,P|32:150|37:111,1,80,0|0,0:0|0:0,0:0:0:0:
220,50,19099,1,0,1:0:0:0:
126,29,19272,1,0,0:0:0:0:
126,29,19359,1,0,0:0:0:0:
126,29,19446,1,0,0:0:0:0:
200,206,19619,1,2,0:0:0:0:
294,185,19793,1,0,1:0:0:0:
127,143,19966,1,0,0:0:0:0:
294,185,20139,6,0,L|388:171,1,80,2|0,0:0|0:0,0:0:0:0:
487,60,20486,2,0,P|434:88|367:71,1,120,0|0,1:0|0:0,0:0:0:0:
357,63,20833,1,0,0:0:0:0:
450,231,21007,1,2,0:0:0:0:
373,173,21180,1,0,1:0:0:0:
346,331,21353,1,2,0:0:0:0:
465,250,21527,6,0,L|457:169,2,80,0|0|0,0:0|0:0|1:0,0:0:0:0:
361,350,22047,1,0,0:0:0:0:
329,344,22134,1,0,0:0:0:0:
297,339,22220,1,0,0:0:0:0:
265,333,22307,1,0,0:0:0:0:
233,328,22394,2,0,L|184:339,1,40,2|0,0:0|0:0,0:0:0:0:
99,357,22567,1,0,1:0:0:0:
164,211,22741,1,0,0:0:0:0:
141,219,22827,1,0,0:0:0:0:
117,228,22914,6,0,P|79:220|49:194,1,80,2|0,0:0|0:0,0:0:0:0:
224,29,23261,2,0,L|217:109,1,80,0|0,1:0|0:0,0:0:0:0:
217,109,23521,1,0,0:0:0:0:
217,109,23608,1,0,0:0:0:0:
125,134,23781,1,2,0:0:0:0:
276,185,23954,1,0,1:0:0:0:
125,134,24128,1,2,0:0:0:0:
313,169,24301,5,0,0:0:0:0:
190,208,24475,1,0,0:0:0:0:
337,50,24648,1,0,1:0:0:0:
432,64,24822,1,0,0:0:0:0:
432,64,24908,1,0,0:0:0:0:
432,64,24995,2,0,P|481:54|509:29,1,80,0|2,0:0|0:0,0:0:0:0:
267,135,25342,2,0,P|337:148|367:216,1,120,0|0,1:0|0:0,0:0:0:0:
346,230,25689,6,0,L|438:221,1,80,2|0,0:0|0:0,0:0:0:0:
504,323,26035,1,0,1:0:0:0:
409,304,26209,1,0,0:0:0:0:
409,304,26296,1,0,0:0:0:0:
409,304,26382,2,0,L|329:311,1,80,0|2,0:0|0:0,0:0:0:0:
177,364,26729,1,0,1:0:0:0:
207,207,26902,1,2,0:0:0:0:
243,296,27075,5,0,0:0:0:0:
139,275,27249,1,0,0:0:0:0:
291,223,27423,1,0,1:0:0:0:
139,275,27596,1,0,0:0:0:0:
329,311,27770,1,0,0:0:0:0:
244,113,27943,1,2,0:0:0:0:
244,113,28030,1,2,0:0:0:0:
244,113,28116,1,0,1:0:0:0:
258,132,28463,6,0,P|219:126|187:103,1,80,6|0,0:0|0:0,0:0:0:0:
46,63,28810,2,0,P|78:40|118:34,1,80,0|0,1:0|0:0,0:0:0:0:
51,180,29157,1,0,0:0:0:0:
37,85,29330,1,2,0:0:0:0:
284,16,29504,1,0,1:0:0:0:
270,111,29677,1,0,1:0:0:0:
130,185,29850,6,0,L|51:180,1,80,2|0,0:0|0:0,0:0:0:0:
214,281,30197,2,0,P|248:262|288:256,1,80,0|0,1:0|0:0,0:0:0:0:
164,364,30544,1,0,0:0:0:0:
164,364,30631,1,0,0:0:0:0:
164,364,30718,1,2,0:0:0:0:
124,209,30891,1,0,1:0:0:0:
214,281,31064,1,0,0:0:0:0:
256,93,31238,6,0,P|256:54|239:18,1,80,2|0,0:0|0:0,0:0:0:0:
164,79,31585,1,0,1:0:0:0:
286,185,31758,2,0,B|327:169|343:132|343:132|378:102|432:128,1,160,0|2,0:0|0:0,0:0:0:0:
256,93,32278,1,0,1:0:0:0:
437,28,32452,1,0,1:0:0:0:
342,136,32625,5,0,0:0:0:0:
484,163,32798,1,0,0:0:0:0:
336,40,32972,1,0,1:0:0:0:
405,218,33145,1,0,0:0:0:0:
484,163,33319,1,2,0:0:0:0:
484,163,33405,1,0,0:0:0:0:
484,163,33492,1,2,0:0:0:0:
342,136,33665,1,0,1:0:0:0:
497,201,33839,1,0,0:0:0:0:
329,98,34012,6,0,L|341:12,2,80,2|2|0,0:0|0:0|1:0,0:0:0:0:
295,255,34533,1,0,0:0:0:0:
377,305,34706,1,2,0:0:0:0:
389,275,34792,1,0,0:0:0:0:
390,244,34879,1,2,0:0:0:0:
382,213,34966,1,0,0:0:0:0:
363,188,35052,1,0,1:0:0:0:
210,228,35226,1,0,1:0:0:0:
278,160,35400,5,0,0:0:0:0:
295,255,35574,1,2,0:0:0:0:
154,126,35746,1,0,1:0:0:0:
171,221,35920,1,0,0:0:0:0:
312,350,36093,1,0,0:0:0:0:
312,350,36180,1,0,0:0:0:0:
312,350,36267,1,2,0:0:0:0:
278,160,36440,1,0,1:0:0:0:
154,126,36613,1,0,0:0:0:0:
295,255,36787,6,0,L|385:237,1,80,2|0,0:0|0:0,0:0:0:0:
208,337,37134,2,0,P|170:324|130:325,1,80,0|0,1:0|0:0,0:0:0:0:
7,361,37481,1,2,0:0:0:0:
7,361,37567,1,0,0:0:0:0:
7,361,37654,1,2,0:0:0:0:
171,221,37827,1,0,1:0:0:0:
130,325,38001,1,0,1:0:0:0:
34,159,38174,6,0,L|46:79,1,80,2|2,0:0|0:0,0:0:0:0:
265,181,38521,2,0,L|252:260,1,80,0|0,1:0|0:0,0:0:0:0:
50,176,38868,6,0,L|73:26,1,140,2|0,0:0|0:0,0:0:0:0:
45,79,39561,6,0,B|95:75|126:30|126:30|162:43|190:45|190:45|212:29|256:28,1,210.000008010865,6|0,0:0|0:0,0:0:0:0:
306,54,40255,6,0,B|285:100|236:106|236:106|208:147|203:186|203:186|269:223|255:341,1,335.999989746094,0|0,1:0|0:0,0:0:0:0:
183,336,40949,6,0,P|235:256|326:301,1,210.000008010865,6|0,0:0|0:0,0:0:0:0:
183,336,41642,6,0,P|144:363|96:363,1,95.9999970703126,0|0,1:0|0:0,0:0:0:0:
34,317,41902,2,0,P|29:269|53:227,1,95.9999970703126,0|0,0:0|0:0,0:0:0:0:
123,197,42163,2,0,P|146:203|165:216,1,47.9999985351563,0|0,0:0|0:0,0:0:0:0:
52,228,42336,6,0,B|106:201|166:217|166:217|110:193|107:138,1,210.000008010865,6|0,0:0|0:0,0:0:0:0:
103,72,43030,6,0,P|221:10|185:138,1,335.999989746094,0|0,1:0|0:0,0:0:0:0:
176,65,43723,6,0,P|212:40|256:35,1,90.0000034332277,6|0,0:0|0:0,0:0:0:0:
320,79,44070,6,0,P|383:114|458:104,1,143.999995605469,0|0,0:0|0:0,0:0:0:0:
510,51,44417,6,0,P|503:26|489:3,2,53.3333333333333,2|2|2,0:0|0:0|0:0,0:0:0:0:
394,162,44764,2,0,P|379:184|372:210,2,53.3333333333333,2|2|2,0:0|0:0|0:0,0:0:0:0:
452,106,45111,5,2,0:0:0:0:
452,106,45457,2,0,P|394:113|346:80,1,120.000004577637,8|0,0:0|0:0,0:0:0:0:
269,21,45978,2,0,P|210:13|162:46,1,120.000004577637,2|0,0:0|0:0,0:0:0:0:
138,139,46498,5,2,0:0:0:0:
142,256,46845,1,8,0:0:0:0:
142,256,47018,2,0,B|153:195|153:195|138:139,1,120.000004577637,0|2,0:0|0:0,0:0:0:0:
40,69,47538,2,0,L|46:130,1,60.0000022888184,8|0,0:0|0:0,0:0:0:0:
250,204,47885,5,2,0:0:0:0:
338,241,48059,1,0,0:0:0:0:
427,206,48232,1,8,0:0:0:0:
465,118,48405,1,0,0:0:0:0:
429,28,48579,5,0,0:0:0:0:
490,139,48752,1,2,0:0:0:0:
437,256,48926,1,8,0:0:0:0:
311,280,49099,1,0,0:0:0:0:
217,193,49272,5,2,0:0:0:0:
217,193,49359,1,0,0:0:0:0:
217,193,49446,1,0,0:0:0:0:
437,256,49619,1,8,0:0:0:0:
311,280,49793,1,0,0:0:0:0:
490,139,49966,5,0,0:0:0:0:
400,343,50139,1,2,0:0:0:0:
349,58,50313,1,8,0:0:0:0:
437,256,50486,1,0,0:0:0:0:
256,187,50660,5,8,0:0:0:0:
217,193,50746,1,8,0:0:0:0:
178,199,50833,1,8,0:0:0:0:
139,205,50920,1,8,0:0:0:0:
100,211,51007,2,0,L|60:202,1,40,2|0,0:0|0:0,0:0:0:0:
220,305,51180,5,8,0:0:0:0:
259,299,51266,1,8,0:0:0:0:
298,293,51353,1,8,0:0:0:0:
337,287,51440,1,8,0:0:0:0:
376,281,51527,2,0,L|416:290,1,40,2|0,0:0|0:0,0:0:0:0:
423,69,51700,6,0,L|383:60,1,40,8|8,0:0|0:0,0:0:0:0:
256,187,51874,2,0,L|295:195,1,40,8|8,0:0|0:0,0:0:0:0:
488,138,52047,5,4,0:0:0:0:
24,246,52394,1,4,0:0:0:0:
12,265,53434,6,0,P|51:268|85:288,1,80,6|0,0:0|0:0,0:0:0:0:
185,369,53781,2,0,P|224:366|258:346,1,80,0|0,1:0|0:0,0:0:0:0:
258,345,54041,1,0,0:0:0:0:
258,345,54128,1,2,0:0:0:0:
289,205,54301,1,0,0:0:0:0:
460,291,54475,1,0,1:0:0:0:
367,317,54648,1,0,0:0:0:0:
367,317,54735,1,0,0:0:0:0:
367,317,54822,5,2,0:0:0:0:
413,131,54995,1,0,0:0:0:0:
289,205,55168,1,0,1:0:0:0:
243,19,55342,1,0,0:0:0:0:
307,130,55515,2,0,P|307:169|289:204,1,80,2|0,0:0|0:0,0:0:0:0:
141,142,55862,2,0,P|141:103|160:68,1,80,0|0,1:0|0:0,0:0:0:0:
160,68,56122,1,0,0:0:0:0:
160,68,56209,5,2,0:0:0:0:
206,253,56382,1,0,0:0:0:0:
53,202,56556,1,0,1:0:0:0:
237,151,56729,1,0,0:0:0:0:
237,151,56816,1,0,0:0:0:0:
237,151,56902,2,0,P|298:169|377:168,1,120,2|0,0:0|0:0,0:0:0:0:
389,138,57249,2,0,P|423:118|463:117,1,80,0|0,1:0|0:0,0:0:0:0:
509,132,57509,1,0,0:0:0:0:
509,132,57596,5,2,0:0:0:0:
394,43,57770,1,0,0:0:0:0:
365,256,57943,2,0,L|376:375,1,120,0|0,1:0|0:0,0:0:0:0:
323,232,58290,2,0,L|330:311,1,80,2|0,0:0|0:0,0:0:0:0:
468,351,58637,1,0,1:0:0:0:
351,141,58810,1,0,0:0:0:0:
351,141,58897,1,0,0:0:0:0:
351,141,58983,6,0,B|304:126|304:126|234:139,1,120,2|0,0:0|0:0,0:0:0:0:
188,126,59330,2,0,P|172:89|176:50,1,80,0|0,1:0|0:0,0:0:0:0:
202,9,59590,1,0,0:0:0:0:
202,9,59677,1,2,0:0:0:0:
49,55,59850,1,0,0:0:0:0:
79,244,60024,1,0,1:0:0:0:
64,150,60197,1,0,0:0:0:0:
64,150,60284,1,0,0:0:0:0:
64,149,60371,6,0,P|103:151|139:168,1,80,2|0,0:0|0:0,0:0:0:0:
193,327,60718,2,0,P|233:326|269:310,1,80,0|0,1:0|0:0,0:0:0:0:
79,244,61064,1,2,0:0:0:0:
167,358,61238,1,0,0:0:0:0:
139,168,61411,1,0,1:0:0:0:
19,320,61585,1,0,0:0:0:0:
19,320,61671,1,0,0:0:0:0:
19,320,61758,5,2,0:0:0:0:
211,233,61931,1,0,0:0:0:0:
79,244,62105,1,0,1:0:0:0:
271,331,62278,1,0,0:0:0:0:
271,331,62365,1,0,0:0:0:0:
271,330,62452,2,0,P|307:318|348:314,1,80,2|0,0:0|0:0,0:0:0:0:
502,273,62798,2,0,P|462:270|425:257,1,80,0|0,1:0|0:0,0:0:0:0:
390,222,63059,1,0,0:0:0:0:
390,222,63145,5,2,0:0:0:0:
432,360,63319,1,0,0:0:0:0:
483,175,63492,1,0,1:0:0:0:
479,151,63579,1,0,0:0:0:0:
475,127,63665,1,8,0:0:0:0:
472,103,63752,1,8,0:0:0:0:
469,79,63839,5,2,0:0:0:0:
429,88,63926,1,2,0:0:0:0:
390,97,64012,1,2,0:0:0:0:
350,106,64099,1,2,0:0:0:0:
310,115,64186,2,0,L|230:103,1,80,4|0,0:0|0:0,0:0:0:0:
112,120,64446,1,0,0:0:0:0:
95,137,64533,6,0,L|214:121,1,120,6|0,0:0|0:0,0:0:0:0:
231,104,64879,6,0,L|112:120,1,120,4|0,1:0|0:0,0:0:0:0:
25,80,65139,1,0,0:0:0:0:
25,80,65226,5,2,0:0:0:0:
146,3,65400,1,0,0:0:0:0:
94,137,65573,2,0,P|81:177|86:214,1,80,0|0,1:0|0:0,0:0:0:0:
122,335,65833,1,0,0:0:0:0:
134,314,65920,2,0,P|127:255|86:213,1,120,2|0,0:0|0:0,0:0:0:0:
122,335,66267,6,0,P|168:299|185:242,1,120,4|0,1:0|0:0,0:0:0:0:
157,149,66527,1,0,0:0:0:0:
157,149,66613,5,2,0:0:0:0:
86,213,66787,1,0,0:0:0:0:
256,177,66960,2,0,L|342:187,1,80,0|0,1:0|0:0,0:0:0:0:
448,197,67220,1,0,0:0:0:0:
464,215,67307,6,0,B|394:226|394:226|350:203,1,120,2|0,0:0|0:0,0:0:0:0:
335,186,67654,6,0,B|404:174|404:174|448:197,1,120,4|0,1:0|0:0,0:0:0:0:
512,270,67914,1,0,0:0:0:0:
512,270,68001,1,2,0:0:0:0:
453,87,68174,1,0,0:0:0:0:
256,177,68348,1,0,1:0:0:0:
315,360,68521,1,0,0:0:0:0:
315,360,68608,1,0,0:0:0:0:
315,360,68694,6,0,P|352:335|410:331,1,80,2|0,0:0|0:0,0:0:0:0:
206,259,69041,2,0,P|167:250|134:227,1,80,0|0,1:0|0:0,0:0:0:0:
105,201,69301,1,0,0:0:0:0:
65,198,69388,1,2,0:0:0:0:
32,219,69475,1,0,0:0:0:0:
19,256,69561,2,0,L|34:302,1,40,0|0,0:0|0:0,0:0:0:0:
99,364,69735,2,0,L|178:352,1,80,0|0,1:0|0:0,0:0:0:0:
283,150,70082,6,0,L|204:162,2,80,2|0|0,0:0|0:0|1:0,0:0:0:0:
475,247,70602,1,0,0:0:0:0:
440,266,70688,1,0,0:0:0:0:
401,270,70775,1,2,0:0:0:0:
363,257,70862,1,0,0:0:0:0:
335,230,70948,1,0,0:0:0:0:
390,79,71122,1,0,1:0:0:0:
411,172,71296,1,0,0:0:0:0:
411,172,71382,1,0,0:0:0:0:
411,171,71469,6,0,P|452:153|476:123,1,80,2|0,0:0|0:0,0:0:0:0:
319,47,71816,2,0,P|351:70|390:79,1,80,0|0,1:0|0:0,0:0:0:0:
254,214,72163,2,0,P|202:187|139:197,1,120,2|0,0:0|0:0,0:0:0:0:
104,221,72509,2,0,P|65:224|29:209,1,80,0|0,1:0|0:0,0:0:0:0:
221,92,72856,5,2,0:0:0:0:
185,281,73030,1,0,0:0:0:0:
60,21,73203,1,0,0:0:0:0:
83,130,73376,1,0,0:0:0:0:
83,130,73463,1,0,0:0:0:0:
83,130,73550,5,0,1:0:0:0:
230,70,73723,1,0,0:0:0:0:
40,34,73897,1,0,0:0:0:0:
239,195,74070,1,0,0:0:0:0:
239,195,74157,1,0,0:0:0:0:
239,195,74244,6,0,P|299:176|375:175,1,120,2|0,0:0|0:0,0:0:0:0:
392,187,74590,1,2,0:0:0:0:
414,220,74677,1,2,0:0:0:0:
413,260,74764,1,2,0:0:0:0:
391,293,74850,1,2,0:0:0:0:
351,303,74937,6,0,P|333:296|317:284,1,40,0|0,1:0|0:0,0:0:0:0:
450,133,75111,1,8,0:0:0:0:
475,163,75197,1,8,0:0:0:0:
491,200,75284,1,2,0:0:0:0:
496,239,75371,1,2,0:0:0:0:
490,279,75457,1,2,0:0:0:0:
473,315,75544,1,2,0:0:0:0:
447,345,75631,5,2,0:0:0:0:
66,266,77018,6,0,P|36:269|8:280,2,60.0000022888184,4|0|0,0:0|0:0|0:0,0:0:0:0:
160,342,77538,2,0,P|187:353|217:356,2,60.0000022888184,4|0|0,0:0|0:0|0:0,0:0:0:0:
113,166,78059,1,0,0:0:0:0:
209,273,78232,1,0,0:0:0:0:
21,194,78405,5,6,0:0:0:0:
253,255,78579,1,0,0:0:0:0:
191,24,78752,1,0,1:0:0:0:
113,166,78926,5,6,0:0:0:0:
423,40,79272,1,2,0:0:0:0:
377,372,79619,1,6,0:0:0:0:
376,371,81180,6,0,P|338:360|298:360,1,80,6|0,0:0|0:0,0:0:0:0:
117,296,81527,2,0,P|156:295|195:284,1,80,0|0,1:0|0:0,0:0:0:0:
231,253,81787,1,0,0:0:0:0:
231,253,81874,1,0,0:0:0:0:
298,360,82047,1,2,0:0:0:0:
356,178,82220,2,0,L|348:98,1,80,0|2,1:0|0:0,0:0:0:0:
344,49,82481,1,0,0:0:0:0:
344,49,82567,5,0,0:0:0:0:
450,120,82741,1,0,0:0:0:0:
260,95,82914,1,0,1:0:0:0:
442,40,83087,1,0,0:0:0:0:
442,40,83174,1,0,0:0:0:0:
442,40,83261,2,0,L|450:120,1,80,0|2,0:0|0:0,0:0:0:0:
367,258,83608,2,0,P|328:253|294:232,1,80,0|0,1:0|0:0,0:0:0:0:
202,63,83954,5,2,0:0:0:0:
181,254,84128,1,0,0:0:0:0:
356,178,84301,1,0,1:0:0:0:
159,86,84475,1,2,0:0:0:0:
159,86,84561,1,2,0:0:0:0:
159,86,84648,5,2,0:0:0:0:
199,298,84822,1,2,0:0:0:0:
363,158,84995,1,0,1:0:0:0:
112,205,85168,5,6,0:0:0:0:
256,192,85255,12,0,88116,0:0:0:0:
