osu file format v14

[General]
AudioFilename: audio.mp3
AudioLeadIn: 1976
PreviewTime: 52307
Countdown: 0
SampleSet: Soft
StackLeniency: 0.7
Mode: 0
LetterboxInBreaks: 0
WidescreenStoryboard: 0

[Editor]
Bookmarks: 6267,17365,28463,39561,53434,64533,75631
DistanceSpacing: 0.7
BeatDivisor: 4
GridSize: 16
TimelineZoom: 2

[Metadata]
Title:Serendipity
TitleUnicode:Serendipity
Artist:ZAQ
ArtistUnicode:ZAQ
Creator:Pata-Mon
Version:Tt's Insane
Source:フリップフラッパーズ
Tags:TT Mouse Koiyuki Minakami Yuki Fycho Flip Flappers Anime OP opening tv size
BeatmapID:1121493
BeatmapSetID:526839

[Difficulty]
HPDrainRate:6
CircleSize:4
OverallDifficulty:7.5
ApproachRate:9
SliderMultiplier:1.5
SliderTickRate:1

[Events]
//Background and Video events
Video,-600,"video.avi"
0,0,"BG.jpg",0,0
//Break Periods
//Storyboard Layer 0 (Background)
//Storyboard Layer 1 (Fail)
//Storyboard Layer 2 (Pass)
//Storyboard Layer 3 (Foreground)
//Storyboard Sound Samples

[TimingPoints]
718,346.820809248555,4,2,1,80,1,0
5226,-200,4,2,1,80,0,0
5573,-90.9090909090909,4,2,1,80,0,0
16671,-166.666666666667,4,2,1,80,0,0
17191,-166.666666666667,4,2,1,12,0,0
17365,-111.111111111111,4,2,1,80,0,0
28463,-99.9999999999999,4,2,1,80,0,0
39561,-153.846153846153,4,2,1,80,0,0
45111,-125,4,2,1,40,0,0
46498,-125,4,2,1,60,0,0
47885,-111.111111111111,4,2,1,70,0,0
49272,-100,4,2,1,80,0,0
53434,-83.3333333333333,4,2,1,80,0,1
64879,-71.4285714285714,4,2,1,80,0,1
65139,-83.3333333333333,4,2,1,80,0,1
66267,-71.4285714285714,4,2,1,80,0,1
66527,-83.3333333333333,4,2,1,80,0,1
67654,-66.6666666666667,4,2,1,80,0,1
67914,-83.3333333333333,4,2,1,80,0,1
72033,-83.3333333333333,4,2,1,15,0,1
72119,-83.3333333333333,4,2,1,80,0,1
72856,-142.857142857143,4,2,1,80,0,1
74937,-100,4,2,1,80,0,1
75631,-100,4,2,1,80,0,0
77538,-125,4,2,1,80,0,0
78405,-83.3333333333333,4,2,1,80,0,1
78926,-90.9090909090909,4,2,1,80,0,1
79619,-83.3333333333333,4,2,1,80,0,1
79966,-83.3333333333333,4,2,1,80,0,0
80486,-111.111111111111,4,2,1,80,0,0
81180,-83.3333333333333,4,2,1,80,0,1
85168,-100,4,2,1,80,0,0

[Colours]
Combo1 : 95,95,255
Combo2 : 255,127,175
Combo3 : 127,175,255
Combo4 : 255,95,95

[HitObjects]
256,192,718,12,0,4879,0:0:0:0:
404,65,5226,6,0,L|333:52,1,56.25
348,54,5573,5,0,0:0:0:0:
460,131,5746,1,0,0:0:0:0:
349,240,5920,1,0,0:0:0:0:
340,272,6007,1,0,0:0:0:0:
345,305,6093,1,0,0:0:0:0:
365,331,6180,1,0,0:0:0:0:
394,348,6267,6,0,L|499:313,1,82.5000025177003,6|0,0:0|0:0,0:0:0:0:
226,322,6613,2,0,L|121:357,1,82.5000025177003,8|0,0:0|0:0,0:0:0:0:
147,348,6874,1,0,0:0:0:0:
147,348,6960,1,0,0:0:0:0:
243,196,7134,1,2,0:0:0:0:
38,147,7307,1,8,0:0:0:0:
38,147,7481,6,0,B|72:190|72:190|23:247|58:325,1,165.000005035401,2|0,0:0|0:0,0:0:0:0:
175,151,8001,2,0,P|201:120|250:116,1,82.5000025177003,8|0,0:0|0:0,0:0:0:0:
340,272,8348,1,0,0:0:0:0:
460,147,8521,1,10,0:0:0:0:
419,85,8694,1,8,0:0:0:0:
380,21,8868,1,0,0:0:0:0:
357,191,9041,6,0,L|334:300,1,82.5000025177003,2|0,0:0|0:0,0:0:0:0:
143,283,9388,2,8,P|169:249|235:238,1,82.5000025177003
205,235,9648,1,0,0:0:0:0:
205,235,9735,1,0,0:0:0:0:
69,351,9908,2,0,L|29:339,1,41.2500012588501,2|0,0:0|0:0,0:0:0:0:
217,313,10082,2,0,L|256:324,1,41.2500012588501,8|0,0:0|0:0,0:0:0:0:
111,189,10255,6,0,P|151:130|108:56,1,165.000005035401,2|0,0:0|0:0,0:0:0:0:
33,208,10775,2,0,P|66:190|135:199,1,82.5000025177003,8|0,0:0|0:0,0:0:0:0:
256,324,11122,1,0,0:0:0:0:
368,226,11296,1,2,0:0:0:0:
368,226,11382,1,2,0:0:0:0:
368,226,11469,2,0,L|345:129,1,82.5000025177003,8|0,0:0|0:0,0:0:0:0:
476,28,11816,6,0,P|432:57|389:49,1,82.5000025177003,6|0,0:0|0:0,0:0:0:0:
231,49,12163,2,8,P|195:29|155:35,1,82.5000025177003,8|0,0:0|0:0,0:0:0:0:
155,35,12423,1,0,0:0:0:0:
155,35,12509,1,0,0:0:0:0:
241,156,12683,1,2,0:0:0:0:
33,207,12856,1,8,0:0:0:0:
33,207,13030,6,0,B|72:207|105:243|105:243|154:225|188:243,1,165.000005035401,2|0,0:0|0:0,0:0:0:0:
40,341,13550,2,0,P|65:363|126:346,1,82.5000025177003,8|0,0:0|0:0,0:0:0:0:
233,323,13897,1,0,0:0:0:0:
445,377,14070,1,10,0:0:0:0:
439,282,14244,1,8,0:0:0:0:
358,337,14417,5,0,0:0:0:0:
358,337,14504,1,0,0:0:0:0:
358,337,14590,2,0,P|338:294|366:232,1,82.5000025177003,6|0,0:0|0:0,0:0:0:0:
431,65,14937,2,0,P|442:110|403:166,1,82.5000025177003,8|0,0:0|0:0,0:0:0:0:
403,163,15197,1,0,0:0:0:0:
370,166,15284,1,0,0:0:0:0:
339,154,15371,1,0,0:0:0:0:
317,129,15457,1,2,0:0:0:0:
168,242,15631,1,8,0:0:0:0:
239,90,15804,6,0,P|229:39|211:121,1,247.500007553101,2|0,0:0|0:0,0:0:0:0:
164,126,16671,6,0,P|142:37|197:15,1,157.499995193482
187,14,17365,5,6,0:0:0:0:
458,81,17712,2,0,L|314:66,1,134.999995880127,8|0,0:0|0:0,0:0:0:0:
350,155,18232,1,2,0:0:0:0:
350,155,18405,2,0,P|344:194|314:221,1,67.4999979400635,8|2,0:0|0:0,0:0:0:0:
278,304,18752,6,0,P|304:374|306:375,1,67.4999979400635
432,352,19099,2,0,P|395:291|354:344,1,134.999995880127,8|0,0:0|0:0,0:0:0:0:
206,351,19619,1,2,0:0:0:0:
124,286,19793,1,8,0:0:0:0:
26,333,19966,5,0,0:0:0:0:
26,333,20053,1,0,0:0:0:0:
26,333,20139,2,0,L|39:249,1,67.4999979400635,2|0,0:0|0:0,0:0:0:0:
164,92,20486,2,0,B|124:100|101:120|101:120|59:109|16:119,1,134.999995880127,8|0,0:0|0:0,0:0:0:0:
163,181,21007,1,2,0:0:0:0:
261,37,21180,1,8,0:0:0:0:
261,37,21353,6,0,L|249:187,1,134.999995880127,2|0,0:0|0:0,0:0:0:0:
228,349,21874,2,0,P|266:381|309:324,1,134.999995880127,8|0,0:0|0:0,0:0:0:0:
342,154,22394,1,2,0:0:0:0:
243,262,22567,1,8,0:0:0:0:
385,291,22741,1,0,0:0:0:0:
342,154,22914,6,0,P|373:128|422:127,1,67.4999979400635,2|0,0:0|0:0,0:0:0:0:
243,262,23261,2,0,L|96:233,1,134.999995880127,8|0,0:0|0:0,0:0:0:0:
34,335,23781,1,2,0:0:0:0:
8,196,23954,1,8,0:0:0:0:
8,196,24128,6,0,P|43:149|13:63,1,134.999995880127,2|0,0:0|0:0,0:0:0:0:
261,33,24648,2,0,B|213:34|173:63|173:63|188:25,1,134.999995880127,8|0,0:0|0:0,0:0:0:0:
251,146,25168,1,2,0:0:0:0:
137,133,25342,2,0,L|70:144,1,67.4999979400635,8|0,0:0|0:0,0:0:0:0:
328,225,25689,6,0,B|378:214|378:214|480:197,1,134.999995880127,2|8,0:0|0:0,0:0:0:0:
460,200,26556,1,2,0:0:0:0:
410,86,26729,1,8,0:0:0:0:
328,225,26902,6,0,B|318:272|339:309|339:309|322:279|296:275,1,134.999995880127,2|0,0:0|0:0,0:0:0:0:
133,280,27423,2,0,P|90:290|66:325,1,67.4999979400635,8|0,0:0|0:0,0:0:0:0:
223,368,27770,2,0,L|216:286,1,67.4999979400635,0|2,0:0|0:0,0:0:0:0:
217,300,28030,1,2,0:0:0:0:
217,300,28116,1,8,0:0:0:0:
127,23,28463,6,0,L|104:115,1,75,4|0,0:1|0:0,0:0:0:0:
352,94,28810,2,0,P|290:72|260:86,1,75,8|0,0:0|0:0,0:0:0:0:
148,207,29157,1,0,0:0:0:0:
296,149,29330,1,2,0:0:0:0:
212,16,29504,1,8,0:0:0:0:
212,16,29677,1,2,0:0:0:0:
212,16,29850,6,0,B|186:48|186:48|189:107,1,75
273,259,30197,2,0,B|260:290|260:290|223:308,1,75,8|0,0:0|0:0,0:0:0:0:
436,206,30544,1,0,0:0:0:0:
404,345,30718,1,2,0:0:0:0:
436,206,30891,2,0,P|476:188|519:195,1,75,8|0,0:0|0:0,0:0:0:0:
392,85,31238,6,0,P|352:103|309:96,1,75,2|0,0:0|0:0,0:0:0:0:
205,21,31585,1,8,0:0:0:0:
187,108,31758,2,0,L|154:276,1,150,0|2,0:0|0:0,0:0:0:0:
61,357,32278,1,8,0:0:0:0:
61,357,32452,1,2,0:0:0:0:
61,357,32625,6,0,B|99:372|99:372|154:352,1,75
324,318,32972,2,0,B|356:327|356:327|378:362,1,75,8|0,0:0|0:0,0:0:0:0:
234,365,33319,1,0,0:0:0:0:
292,212,33492,1,2,0:0:0:0:
234,365,33665,2,0,L|216:275,1,75,8|0,0:0|0:0,0:0:0:0:
138,104,34012,6,0,L|120:194,1,75,2|0,0:0|0:0,0:0:0:0:
101,285,34359,1,8,0:0:0:0:
215,193,34533,1,0,0:0:0:0:
44,107,34706,1,0,0:0:0:0:
44,107,34879,1,2,0:0:0:0:
152,22,35053,1,8,0:0:0:0:
152,22,35226,1,2,0:0:0:0:
152,22,35400,6,0,B|191:13|191:13|228:38,1,75
400,97,35746,2,0,B|434:95|434:95|461:65,1,75,8|0,0:0|0:0,0:0:0:0:
277,114,36093,1,0,0:0:0:0:
278,132,36180,1,0,0:0:0:0:
280,150,36267,1,0,0:0:0:0:
282,168,36353,1,0,0:0:0:0:
283,186,36440,2,0,L|293:284,1,75,8|0,0:0|0:0,0:0:0:0:
437,354,36787,6,0,P|457:322|379:311,1,150,2|8,0:0|0:0,0:0:0:0:
226,353,37307,1,0,0:0:0:0:
226,353,37394,1,0,0:0:0:0:
226,353,37481,1,0,0:0:0:0:
185,239,37654,1,2,0:0:0:0:
85,360,37827,1,8,0:0:0:0:
166,197,38001,1,2,0:0:0:0:
85,360,38174,6,0,B|44:364|44:364|11:332,1,75
63,171,38521,2,0,P|82:113|67:72,1,75,8|0,0:0|0:0,0:0:0:0:
90,262,38868,1,0,0:0:0:0:
491,344,39561,6,0,B|422:385|379:309|379:309|446:280,1,194.999991073609,4|8,0:0|0:0,0:0:0:0:
481,207,40428,1,0,0:0:0:0:
332,209,40602,1,0,0:0:0:0:
331,125,40775,1,0,0:0:0:0:
331,125,40949,6,0,B|297:83|297:83|249:92|249:92|223:128|223:128|242:180,1,194.999991073609,4|8,0:0|0:0,0:0:0:0:
209,255,41816,1,0,0:0:0:0:
27,273,41989,1,0,0:0:0:0:
63,353,42163,1,0,0:0:0:0:
63,353,42336,6,0,B|110:355|126:280|126:280|158:296|150:356|183:367,1,194.999991073609,4|8,0:0|0:0,0:0:0:0:
253,335,43203,1,0,0:0:0:0:
439,361,43376,1,0,0:0:0:0:
421,274,43550,1,0,0:0:0:0:
421,274,43723,6,0,L|403:212,1,48.7499977684022,4|0,0:0|0:0,0:0:0:0:
460,151,44070,2,0,L|475:89,1,48.7499977684022
272,24,44417,2,0,L|215:38,2,32.4999985122681
352,122,44764,2,0,L|409:136,2,32.4999985122681
237,198,45111,6,0,L|250:325,1,120,2|8,0:0|0:0,0:0:0:0:
167,367,45631,2,0,P|98:356|104:306,1,120,0|2,0:0|0:0,0:0:0:0:
169,277,46151,1,8,0:0:0:0:
0,76,46498,6,0,L|117:51,1,120,2|8,0:0|0:0,0:0:0:0:
200,113,47018,2,0,P|196:182|145:182,1,120,0|2,0:0|0:0,0:0:0:0:
70,141,47538,1,8,0:0:0:0:
294,33,47885,6,0,L|325:125,1,67.4999979400635,2|0,0:0|0:0,0:0:0:0:
349,183,48232,1,8,0:0:0:0:
279,317,48405,1,2,0:0:0:0:
286,328,48492,1,2,0:0:0:0:
293,339,48579,2,0,P|326:338|355:321,1,67.4999979400635,0|2,0:0|0:0,0:0:0:0:
497,185,48926,2,0,P|470:164|438:157,1,67.4999979400635,8|0,0:0|0:0,0:0:0:0:
269,236,49272,5,2,0:0:0:0:
198,148,49446,1,0,0:0:0:0:
341,171,49619,1,8,0:0:0:0:
203,354,49793,1,0,0:0:0:0:
27,277,49966,2,0,L|107:260,1,75,0|2,0:0|0:0,0:0:0:0:
86,373,50313,1,8,0:0:0:0:
42,182,50486,1,0,0:0:0:0:
247,303,50660,6,0,L|296:318,4,37.5,4|0|0|0|0,0:0|0:0|0:0|0:0|0:0,0:0:0:0:
192,101,51180,2,0,L|185:35,4,37.5,4|0|0|0|0,0:0|0:0|0:0|0:0|0:0,0:0:0:0:
349,226,51700,1,0,0:0:0:0:
374,220,51787,1,0,0:0:0:0:
399,214,51874,1,0,0:0:0:0:
424,209,51960,1,0,0:0:0:0:
449,201,52047,6,0,P|468:131|388:71,2,150,4|0|0,0:0|0:0|0:0,0:0:0:0:
446,334,53434,6,0,L|327:327,1,89.9999972534181,6|0,0:0|0:0,0:0:0:0:
121,363,53781,2,0,P|170:344|190:289,1,89.9999972534181,8|0,0:0|0:0,0:0:0:0:
188,313,54041,1,0,0:0:0:0:
188,313,54128,1,2,0:0:0:0:
133,223,54301,1,0,0:0:0:0:
41,262,54475,1,8,0:0:0:0:
136,73,54648,1,0,0:0:0:0:
136,73,54822,6,0,L|228:57,1,89.9999972534181,2|0,0:0|0:0,0:0:0:0:
332,35,55168,1,8,0:0:0:0:
335,206,55342,1,0,0:0:0:0:
335,206,55428,1,0,0:0:0:0:
335,206,55515,1,2,0:0:0:0:
380,117,55689,1,0,0:0:0:0:
419,280,55862,2,0,P|463:280|497:251,1,89.9999972534181,8|0,0:0|0:0,0:0:0:0:
256,284,56209,6,0,L|268:411,1,89.9999972534181,2|0,0:0|0:0,0:0:0:0:
244,195,56556,1,8,0:0:0:0:
122,259,56729,1,0,0:0:0:0:
122,259,56816,1,0,0:0:0:0:
122,259,56902,2,0,P|66:251|42:220,1,89.9999972534181,2|0,0:0|0:0,0:0:0:0:
171,338,57249,1,8,0:0:0:0:
9,370,57423,1,0,0:0:0:0:
107,183,57596,6,0,L|97:91,1,89.9999972534181,2|0,0:0|0:0,0:0:0:0:
299,29,57943,2,0,P|325:89|219:103,1,179.999994506836,8|2,0:0|0:0,0:0:0:0:
195,29,58463,1,0,0:0:0:0:
226,210,58637,1,8,0:0:0:0:
371,174,58810,5,0,0:0:0:0:
384,173,58897,1,0,0:0:0:0:
397,173,58983,2,0,P|424:219|413:258,1,89.9999972534181,6|0,0:0|0:0,0:0:0:0:
291,346,59330,2,0,L|186:324,1,89.9999972534181,8|0,0:0|0:0,0:0:0:0:
13,230,59677,2,0,L|101:211,1,89.9999972534181,2|0,0:0|0:0,0:0:0:0:
291,167,60024,1,8,0:0:0:0:
180,75,60197,1,0,0:0:0:0:
287,259,60371,6,0,L|297:78,1,179.999994506836,2|8,0:0|0:0,0:0:0:0:
389,184,60891,1,0,0:0:0:0:
389,184,61064,2,0,L|383:282,1,89.9999972534181,2|0,0:0|0:0,0:0:0:0:
279,355,61411,1,8,0:0:0:0:
377,366,61585,5,0,0:0:0:0:
377,366,61671,1,0,0:0:0:0:
377,366,61758,2,0,B|417:375|417:375|463:359,1,89.9999972534181,6|0,0:0|0:0,0:0:0:0:
186,337,62105,2,0,B|146:328|146:328|99:343,1,89.9999972534181,8|0,0:0|0:0,0:0:0:0:
179,236,62452,1,2,0:0:0:0:
15,151,62625,1,0,0:0:0:0:
19,367,62798,1,8,0:0:0:0:
82,243,62972,5,0,0:0:0:0:
85,239,63059,1,0,0:0:0:0:
88,236,63145,2,0,L|101:114,1,89.9999972534181,2|0,0:0|0:0,0:0:0:0:
173,26,63492,1,8,0:0:0:0:
196,46,63578,1,0,0:0:0:0:
225,58,63665,1,0,0:0:0:0:
257,57,63752,1,0,0:0:0:0:
287,48,63838,1,0,0:0:0:0:
315,33,63925,1,0,0:0:0:0:
345,26,64012,1,0,0:0:0:0:
376,28,64098,1,0,0:0:0:0:
405,41,64186,2,0,L|393:161,1,89.9999972534181,4|0,0:0|0:0,0:0:0:0:
320,296,64533,5,2,0:0:0:0:
470,248,64706,1,0,0:0:0:0:
264,365,64879,2,0,P|234:316|244:257,1,104.999996795654,4|0,0:0|0:0,0:0:0:0:
152,357,65226,1,2,0:0:0:0:
358,376,65400,1,0,0:0:0:0:
152,357,65573,2,0,L|44:368,1,89.9999972534181,8|0,0:0|0:0,0:0:0:0:
213,167,65920,5,2,0:0:0:0:
33,249,66093,1,0,0:0:0:0:
213,167,66267,2,0,P|209:99|168:70,1,104.999996795654,4|0,0:0|0:0,0:0:0:0:
108,183,66613,1,2,0:0:0:0:
51,40,66787,1,0,0:0:0:0:
274,29,66960,2,0,L|366:43,1,89.9999972534181,8|0,0:0|0:0,0:0:0:0:
213,167,67307,5,2,0:0:0:0:
385,241,67481,1,0,0:0:0:0:
183,353,67654,2,0,P|122:340|94:289,1,112.500004291535,4|0,0:0|0:0,0:0:0:0:
84,94,68001,1,2,0:0:0:0:
172,274,68174,1,0,0:0:0:0:
15,324,68348,1,8,0:0:0:0:
93,213,68521,5,0,0:0:0:0:
93,213,68608,1,0,0:0:0:0:
93,213,68694,2,0,L|86:114,1,89.9999972534181,2|0,0:0|0:0,0:0:0:0:
318,29,69041,2,0,L|325:128,1,89.9999972534181,8|0,0:0|0:0,0:0:0:0:
342,355,69388,1,2,0:0:0:0:
474,250,69561,1,0,0:0:0:0:
262,229,69735,2,0,P|250:271|269:320,1,89.9999972534181,8|0,0:0|0:0,0:0:0:0:
264,313,69995,1,0,0:0:0:0:
264,313,70082,5,2,0:0:0:0:
108,359,70255,1,0,0:0:0:0:
162,265,70428,1,8,0:0:0:0:
128,163,70602,1,0,0:0:0:0:
13,143,70775,2,0,L|-9:254,1,89.9999972534181,2|0,0:0|0:0,0:0:0:0:
139,60,71122,1,8,0:0:0:0:
264,101,71296,5,0,0:0:0:0:
268,112,71382,1,0,0:0:0:0:
273,122,71469,2,0,B|333:128|333:128|395:99|395:99|460:104,1,179.999994506836,2|8,0:0|0:0,0:0:0:0:
460,269,71989,2,0,P|443:325|423:337,1,44.999998626709
373,349,72163,2,0,P|311:308|379:278,1,179.999994506836,2|8,0:0|0:0,0:0:0:0:
373,349,72856,6,0,B|345:359|317:343|308:315|308:315|261:311|223:346,1,157.499995193482,4|0,0:0|0:0,0:0:0:0:
122,358,73550,2,0,L|11:343,2,104.999996795654,8|0|0,0:0|0:0|0:0,0:0:0:0:
315,113,74590,5,0,0:0:0:0:
301,149,74676,1,0,0:0:0:0:
270,173,74763,1,0,0:0:0:0:
232,176,74850,1,0,0:0:0:0:
197,159,74937,2,0,L|202:103,3,37.5,8|0|0|0,0:0|0:0|0:0|0:0,0:0:0:0:
117,72,75284,2,0,L|123:26,3,37.5
214,8,75631,5,4,0:1:0:0:
355,48,77018,5,8,0:0:0:0:
442,106,77191,1,0,0:0:0:0:
442,106,77278,1,0,0:0:0:0:
442,106,77365,1,0,0:0:0:0:
348,154,77538,2,0,L|272:144,2,60,8|0|0,0:0|0:0|0:0,0:0:0:0:
432,259,78059,1,0,0:0:0:0:
343,351,78232,1,0,0:0:0:0:
232,289,78405,6,0,P|172:265|71:333,1,179.999994506836,4|8,0:0|0:0,0:0:0:0:
16,149,78926,2,0,P|17:105|45:70,1,82.5000025177003
263,126,79272,2,0,P|262:170|234:205,1,82.5000025177003,0|8,0:0|0:0,0:0:0:0:
77,317,79619,6,0,L|146:125,1,179.999994506836
310,54,80139,1,0,0:0:0:0:
322,60,80226,1,0,0:0:0:0:
334,66,80313,1,0,0:0:0:0:
346,72,80400,1,0,0:0:0:0:
357,77,80486,2,0,L|394:60,3,33.7499989700318
453,30,80833,2,0,P|462:67|432:117,1,67.4999979400635
328,266,81180,6,0,L|349:372,1,89.9999972534181,6|0,0:0|0:0,0:0:0:0:
410,216,81527,2,0,P|373:177|321:172,1,89.9999972534181,8|0,0:0|0:0,0:0:0:0:
339,169,81787,1,0,0:0:0:0:
339,169,81874,1,0,0:0:0:0:
185,285,82047,1,2,0:0:0:0:
223,175,82220,1,8,0:0:0:0:
223,175,82394,6,0,B|230:102|256:50|256:50|203:-11,1,179.999994506836,2|0,0:0|0:0,0:0:0:0:
13,99,82914,2,0,P|55:116|105:100,1,89.9999972534181,8|0,0:0|0:0,0:0:0:0:
0,218,83261,1,0,0:0:0:0:
154,247,83434,1,2,0:0:0:0:
99,307,83608,1,8,0:0:0:0:
41,364,83781,1,0,0:0:0:0:
232,319,83954,6,0,P|309:326|340:359,1,89.9999972534181,2|0,0:0|0:0,0:0:0:0:
317,331,84215,1,0,0:0:0:0:
317,331,84301,1,8,0:0:0:0:
466,275,84475,1,0,0:0:0:0:
469,267,84562,1,0,0:0:0:0:
471,259,84648,1,0,0:0:0:0:
327,220,84822,1,2,0:0:0:0:
415,359,84995,1,8,0:0:0:0:
465,132,85168,1,4,0:0:0:0:
256,192,85255,12,0,88116,0:0:0:0:
