osu file format v14

[General]
AudioFilename: audio.mp3
AudioLeadIn: 1976
PreviewTime: 52307
Countdown: 0
SampleSet: Soft
StackLeniency: 0.7
Mode: 0
LetterboxInBreaks: 0
WidescreenStoryboard: 0

[Editor]
Bookmarks: 6267,17365,28463,39561,53434,64533,75631
DistanceSpacing: 1
BeatDivisor: 2
GridSize: 16
TimelineZoom: 1

[Metadata]
Title:Serendipity
TitleUnicode:Serendipity
Artist:ZAQ
ArtistUnicode:ZAQ
Creator:Pata-Mon
Version:Normal
Source:フリップフラッパーズ
Tags:TT Mouse Koiyuki Minakami Yuki Fycho Flip Flappers Anime OP opening tv size
BeatmapID:1118639
BeatmapSetID:526839

[Difficulty]
HPDrainRate:4
CircleSize:3.5
OverallDifficulty:4
ApproachRate:5
SliderMultiplier:1.1
SliderTickRate:1

[Events]
//Background and Video events
Video,-600,"video.avi"
0,0,"BG.jpg",0,0
//Break Periods
//Storyboard Layer 0 (Background)
//Storyboard Layer 1 (Fail)
//Storyboard Layer 2 (Pass)
//Storyboard Layer 3 (Foreground)
//Storyboard Sound Samples

[TimingPoints]
718,346.820809248555,4,2,1,30,1,0
1758,-100,4,2,1,40,0,0
2798,-100,4,2,1,50,0,0
3492,-100,4,2,1,60,0,0
4533,-100,4,2,1,70,0,0
5573,-100,4,2,1,80,0,0
6267,-100,4,2,1,80,0,1
17365,-100,4,2,1,60,0,0
28463,-100,4,2,1,70,0,0
39561,-100,4,2,1,60,0,0
45111,-100,4,2,1,65,0,0
47885,-100,4,2,1,70,0,0
49272,-100,4,2,1,75,0,0
52047,-100,4,2,1,80,0,0
53434,-100,4,2,1,80,0,1
75631,-100,4,2,1,60,0,0
78405,-100,4,2,1,80,0,1
79619,-100,4,2,1,80,0,0
81180,-100,4,2,1,80,0,1
85168,-100,4,2,1,80,0,0
88116,-100,4,2,1,5,0,0

[Colours]
Combo1 : 95,95,255
Combo2 : 255,127,175
Combo3 : 127,175,255
Combo4 : 255,95,95

[HitObjects]
197,177,24,6,0,P|255:253|315:177,1,220,0|4,0:0|0:0,0:0:0:0:
256,192,804,12,0,5573,0:0:0:0:
166,339,6267,6,0,P|182:286|186:232,1,110,6|0,0:0|1:0,0:0:0:0:
211,182,6787,2,0,L|320:189,1,110,2|2,0:0|0:0,0:0:0:0:
337,242,7307,1,0,1:0:0:0:
337,242,7481,2,0,P|411:288|507:259,1,165,2|0,0:0|1:0,0:0:0:0:
428,180,8348,1,2,0:0:0:0:
428,180,8521,2,0,L|421:125,1,55,2|0,0:0|1:0,0:0:0:0:
453,20,9041,6,0,P|390:46|341:38,1,110,2|0,0:0|1:0,0:0:0:0:
296,25,9561,2,0,L|310:135,1,110,2|2,0:0|0:0,0:0:0:0:
284,183,10082,1,0,1:0:0:0:
284,183,10255,2,0,P|201:185|107:161,1,165,2|0,0:0|1:0,0:0:0:0:
44,89,11122,2,0,L|50:35,2,55,2|2|0,0:0|0:0|1:0,0:0:0:0:
8,131,11642,1,0,0:0:0:0:
8,131,11816,6,0,L|20:240,1,110,6|0,0:0|1:0,0:0:0:0:
75,239,12336,2,0,P|121:269|144:318,1,110,0|2,0:0|0:0,0:0:0:0:
146,372,12856,1,0,1:0:0:0:
146,372,13030,2,0,P|224:349|309:349,1,165,2|0,0:0|1:0,0:0:0:0:
411,382,13897,1,2,0:0:0:0:
411,382,14070,2,0,L|489:374,1,55,2|0,0:0|1:0,0:0:0:0:
504,273,14590,6,0,P|504:218|480:153,1,110,2|0,0:0|1:0,0:0:0:0:
444,131,15111,2,0,L|311:145,1,110
317,195,15631,1,0,1:0:0:0:
317,195,15804,2,0,P|238:249|149:258,1,165,2|0,0:0|1:0,0:0:0:0:
68,220,16671,2,0,P|78:319|156:369,2,110,0|0|6,0:0|0:0|0:0,0:0:0:0:
171,260,17712,6,0,P|224:269|288:257,1,110,0|0,1:0|0:0,0:0:0:0:
325,230,18232,2,0,L|384:235,1,55,2|0,0:0|1:0,0:0:0:0:
428,263,18579,2,0,P|460:188|450:107,1,165,2|0,0:0|1:0,0:0:0:0:
351,58,19446,1,2,0:0:0:0:
351,58,19619,2,0,L|296:62,1,55,2|0,0:0|1:0,0:0:0:0:
253,97,19966,1,0,0:0:0:0:
253,97,20139,6,0,P|200:81|145:79,1,110,2|0,0:0|1:0,0:0:0:0:
46,127,20833,2,0,L|50:181,1,55,0|2,0:0|0:0,0:0:0:0:
36,235,21180,1,0,1:0:0:0:
36,235,21353,2,0,P|101:282|183:284,1,165,2|0,0:0|1:0,0:0:0:0:
271,218,22220,1,2,0:0:0:0:
271,218,22394,2,0,L|267:163,2,55,2|0|0,0:0|1:0|0:0,0:0:0:0:
304,261,22914,6,0,P|355:283|409:281,1,110,2|0,0:0|1:0,0:0:0:0:
459,260,23434,2,0,L|467:150,1,110,2|2,0:0|0:0,0:0:0:0:
497,104,23954,1,0,1:0:0:0:
497,104,24128,2,0,P|415:91|333:92,1,165,2|0,0:0|1:0,0:0:0:0:
285,120,24822,2,0,P|230:121|175:113,1,110,0|2,0:0|0:0,0:0:0:0:
129,84,25342,1,0,1:0:0:0:
20,101,25689,6,0,P|39:189|116:257,1,110,2|0,0:0|1:0,0:0:0:0:
124,284,26382,1,2,0:0:0:0:
124,284,26556,2,0,L|178:277,1,55,2|0,0:0|1:0,0:0:0:0:
223,309,26902,2,0,P|304:325|384:308,1,165,2|0,0:0|1:0,0:0:0:0:
458,227,27770,2,0,L|512:231,2,55,2|2|0,0:0|0:0|1:0,0:0:0:0:
447,117,28463,6,0,P|407:81|355:62,1,110,6|0,0:0|1:0,0:0:0:0:
308,91,28983,2,0,L|198:86,1,110,2|2,0:0|0:0,0:0:0:0:
156,49,29504,2,0,L|101:51,1,55,0|0,1:0|1:0,0:0:0:0:
60,88,29850,2,0,P|67:132|143:211,1,110,2|0,0:0|1:0,0:0:0:0:
196,244,30544,2,0,L|250:238,2,55,2|2|0,0:0|0:0|1:0,0:0:0:0:
99,296,31238,6,0,P|159:348|255:337,1,110,2|0,0:0|1:0,0:0:0:0:
237,331,31758,2,0,P|292:327|347:332,1,110,2|2,0:0|0:0,0:0:0:0:
396,354,32278,2,0,L|450:349,1,55,0|0,1:0|1:0,0:0:0:0:
495,316,32625,2,0,P|503:261|499:206,1,110,2|0,0:0|1:0,0:0:0:0:
454,106,33319,1,2,0:0:0:0:
454,106,33492,2,0,L|457:51,2,55,2|0|0,0:0|1:0|0:0,0:0:0:0:
404,130,34012,6,0,P|349:125|298:104,1,110,2|0,0:0|1:0,0:0:0:0:
198,59,34706,2,0,L|143:65,1,55,2|2,0:0|0:0,0:0:0:0:
88,70,35053,1,0,1:0:0:0:
88,70,35226,2,0,P|67:121|60:176,1,110,0|2,1:0|0:0,0:0:0:0:
77,284,35920,2,0,P|131:271|186:267,1,110,2|2,0:0|0:0,0:0:0:0:
237,285,36440,2,0,L|233:339,1,55,0|0,1:0|0:0,0:0:0:0:
285,356,36787,6,0,P|339:351|393:338,1,110,2|0,0:0|1:0,0:0:0:0:
452,244,37481,2,0,L|448:189,1,55,2|2,0:0|0:0,0:0:0:0:
407,152,37827,2,0,L|411:97,1,55,0|0,1:0|1:0,0:0:0:0:
439,49,38174,2,0,P|384:47|329:39,2,110,2|0|0,0:0|1:0|0:0,0:0:0:0:
348,249,39561,6,0,P|240:232|130:233,1,220,6|0,0:0|1:0,0:0:0:0:
270,63,40949,2,0,P|162:80|52:79,1,220,6|0,0:0|1:0,0:0:0:0:
123,287,42336,6,0,P|231:270|341:271,1,220,6|0,0:0|1:0,0:0:0:0:
201,101,43723,2,0,P|309:118|419:117,1,220,6|2,0:0|0:0,0:0:0:0:
503,320,45111,6,0,P|448:321|393:330,1,110,2|8,0:0|0:0,0:0:0:0:
346,358,45631,2,0,P|291:349|236:348,1,110,2|2,0:0|0:0,0:0:0:0:
185,368,46151,2,0,P|157:363|130:363,1,55,8|0,0:0|0:0,0:0:0:0:
76,371,46498,2,0,P|57:319|54:264,1,110,2|8,0:0|0:0,0:0:0:0:
102,238,47018,2,0,P|121:186|124:131,2,110,2|2|0,0:0|0:0|0:0,0:0:0:0:
151,263,47885,6,0,P|204:273|259:269,1,110,2|8,0:0|0:0,0:0:0:0:
350,205,48579,2,0,L|355:150,2,55,2|2|8,0:0|0:0|0:0,0:0:0:0:
453,242,49272,2,0,L|463:132,1,110,2|8,0:0|0:0,0:0:0:0:
393,47,49966,2,0,L|338:50,1,55,2|2,0:0|0:0,0:0:0:0:
291,78,50313,2,0,L|236:75,1,55,8|0,0:0|0:0,0:0:0:0:
185,52,50660,6,0,P|115:90|47:51,2,165,8|8|8,0:0|0:0|0:0,0:0:0:0:
256,136,52047,2,0,L|256:246,1,110,4|4,0:0|0:0,0:0:0:0:
256,246,53434,6,0,P|309:261|364:262,1,110,6|0,0:0|1:0,0:0:0:0:
472,240,54128,2,0,L|475:130,1,110,2|0,0:0|1:0,0:0:0:0:
436,90,54648,1,0,0:0:0:0:
436,90,54822,2,0,P|383:105|328:106,1,110,2|0,0:0|1:0,0:0:0:0:
246,33,55515,2,0,P|191:34|138:49,1,110,2|0,0:0|1:0,0:0:0:0:
87,70,56035,1,0,0:0:0:0:
87,70,56209,6,0,L|89:179,1,110,2|0,0:0|1:0,0:0:0:0:
119,226,56729,1,0,0:0:0:0:
119,226,56902,2,0,P|115:280|90:329,2,110,2|0|2,0:0|1:0|0:0,0:0:0:0:
89,120,57943,1,0,1:0:0:0:
181,61,58290,2,0,P|235:62|290:71,1,110,2|0,0:0|1:0,0:0:0:0:
335,102,58810,1,0,0:0:0:0:
335,102,58983,6,0,L|444:94,1,110,6|0,0:0|1:0,0:0:0:0:
475,199,59677,2,0,L|366:207,1,110,2|0,0:0|1:0,0:0:0:0:
310,211,60197,1,0,0:0:0:0:
310,211,60371,2,0,P|296:264|295:318,1,110,2|0,0:0|1:0,0:0:0:0:
199,373,61064,2,0,L|144:371,1,55,2|0,0:0|0:0,0:0:0:0:
109,328,61411,2,0,L|54:330,1,55,0|0,1:0|0:0,0:0:0:0:
14,368,61758,6,0,P|26:314|27:259,1,110,2|0,0:0|1:0,0:0:0:0:
17,205,62278,1,0,0:0:0:0:
17,205,62452,2,0,P|56:130|127:103,2,110,2|0|2,0:0|1:0|0:0,0:0:0:0:
127,214,63492,1,0,1:0:0:0:
225,165,63839,2,0,L|279:168,1,55,2|2,0:0|0:0,0:0:0:0:
320,205,64186,2,0,L|374:202,1,55,4|0,0:0|0:0,0:0:0:0:
417,167,64533,6,0,L|411:276,1,110,6|4,0:0|1:0,0:0:0:0:
320,340,65226,2,0,L|266:337,1,55,2|0,0:0|0:0,0:0:0:0:
225,300,65573,2,0,L|171:303,1,55,0|0,1:0|0:0,0:0:0:0:
128,338,65920,2,0,L|134:229,1,110,2|4,0:0|1:0,0:0:0:0:
214,153,66613,2,0,L|211:99,1,55,2|0,0:0|0:0,0:0:0:0:
168,62,66960,2,0,L|171:8,2,55,0|0|2,1:0|0:0|0:0,0:0:0:0:
104,152,67654,5,4,1:0:0:0:
214,153,68001,2,0,L|217:207,2,55,2|0|0,0:0|0:0|1:0,0:0:0:0:
211,98,68521,1,0,0:0:0:0:
211,98,68694,2,0,P|262:79|317:74,1,110,2|0,0:0|1:0,0:0:0:0:
426,90,69388,2,0,P|431:144|448:196,1,110,2|0,0:0|1:0,0:0:0:0:
476,243,69908,1,0,0:0:0:0:
476,243,70082,6,0,P|471:297|454:349,1,110,2|0,0:0|1:0,0:0:0:0:
352,308,70775,2,0,P|297:302|242:308,1,110,2|0,0:0|1:0,0:0:0:0:
194,335,71296,1,0,0:0:0:0:
194,335,71469,2,0,L|84:329,1,110,2|0,0:0|1:0,0:0:0:0:
44,290,71989,1,0,0:0:0:0:
44,290,72163,2,0,P|61:237|64:183,1,110,2|0,0:0|1:0,0:0:0:0:
53,73,72856,6,0,B|112:70|150:115|150:115|188:70|247:73,1,220,2|0,0:0|1:0,0:0:0:0:
403,228,74244,2,0,B|344:231|306:186|306:186|268:231|209:228,2,220,2|0|0,0:0|1:0|0:0,0:0:0:0:
403,228,77018,6,0,P|432:153|403:78,2,165,4|4|0,0:0|0:0|0:0,0:0:0:0:
323,153,78405,6,0,L|268:153,2,55,6|0|0,0:0|0:0|1:0,0:0:0:0:
296,202,78926,2,0,P|310:286|395:337,1,110,6|2,0:0|0:0,0:0:0:0:
371,333,79446,1,0,1:0:0:0:
371,333,79619,1,6,0:0:0:0:
371,333,81180,6,0,P|356:279|354:225,1,110,6|0,0:0|1:0,0:0:0:0:
366,171,81700,2,0,P|313:182|258:183,1,110,2|2,0:0|0:0,0:0:0:0:
204,167,82220,1,0,1:0:0:0:
204,167,82394,2,0,P|133:255|161:344,1,165,2|0,0:0|1:0,0:0:0:0:
180,333,83087,2,0,P|235:327|289:337,1,110,2|2,0:0|0:0,0:0:0:0:
337,362,83608,1,0,1:0:0:0:
412,282,83954,6,0,P|414:227|404:173,1,110,2|0,0:0|1:0,0:0:0:0:
364,133,84475,1,2,0:0:0:0:
364,133,84648,2,0,L|309:139,2,55,2|2|0,0:0|0:0|1:0,0:0:0:0:
395,87,85168,1,6,0:0:0:0:
256,192,85255,12,0,88116,0:0:0:0:
