osu file format v14

[General]
AudioFilename: audio.mp3
AudioLeadIn: 1976
PreviewTime: 52307
Countdown: 0
SampleSet: Soft
StackLeniency: 0.5
Mode: 0
LetterboxInBreaks: 0
WidescreenStoryboard: 0

[Editor]
Bookmarks: 6267,17365,28463,39561,53434,64533,75631
DistanceSpacing: 1.2
BeatDivisor: 2
GridSize: 16
TimelineZoom: 1

[Metadata]
Title:Serendipity
TitleUnicode:Serendipity
Artist:ZAQ
ArtistUnicode:ZAQ
Creator:Pata-Mon
Version:Hard
Source:フリップフラッパーズ
Tags:TT Mouse Koiyuki Minakami Yuki Fycho Flip Flappers Anime OP opening tv size
BeatmapID:1118638
BeatmapSetID:526839

[Difficulty]
HPDrainRate:5
CircleSize:3.8
OverallDifficulty:6
ApproachRate:7.2
SliderMultiplier:1.4
SliderTickRate:1

[Events]
//Background and Video events
Video,-600,"video.avi"
0,0,"BG.jpg",0,0
//Break Periods
//Storyboard Layer 0 (Background)
//Storyboard Layer 1 (Fail)
//Storyboard Layer 2 (Pass)
//Storyboard Layer 3 (Foreground)
//Storyboard Sound Samples

[TimingPoints]
718,346.820809248555,4,2,1,30,1,0
1758,-100,4,2,1,40,0,0
2798,-100,4,2,1,50,0,0
3492,-100,4,2,1,60,0,0
4533,-100,4,2,1,70,0,0
5573,-100,4,2,1,80,0,0
6267,-90.9090909090909,4,2,1,80,0,1
17365,-100,4,2,1,60,0,0
28463,-100,4,2,1,70,0,0
39561,-133.333333333333,4,2,1,60,0,0
45111,-100,4,2,1,65,0,0
47885,-100,4,2,1,70,0,0
49272,-100,4,2,1,75,0,0
52047,-100,4,2,1,80,0,0
53434,-90.9090909090909,4,2,1,80,0,1
63839,-90.9090909090909,4,2,1,60,0,1
64186,-90.9090909090909,4,2,1,80,0,1
64533,-90.9090909090909,4,2,1,80,0,1
72856,-125,4,2,1,80,0,1
74590,-90.9090909090909,4,2,1,80,0,1
75284,-90.9090909090909,4,2,1,60,0,1
75631,-100,4,2,1,60,0,0
78405,-90.9090909090909,4,2,1,80,0,1
79619,-83.3333333333333,4,2,1,80,0,0
81180,-90.9090909090909,4,2,1,80,0,1
85168,-90.9090909090909,4,2,1,80,0,0
88116,-90.9090909090909,4,2,1,5,0,0

[Colours]
Combo1 : 95,95,255
Combo2 : 255,127,175
Combo3 : 127,175,255
Combo4 : 255,95,95

[HitObjects]
257,130,24,6,0,P|214:237|318:196,1,280,0|4,0:0|0:0,0:0:0:0:
256,192,804,12,0,5573,0:0:0:0:
181,137,6267,6,0,P|256:152|331:138,1,154.000004699707,6|0,0:0|1:0,0:0:0:0:
407,84,6787,2,0,P|440:152|445:229,1,154.000004699707,0|2,0:0|0:0,0:0:0:0:
401,311,7307,1,0,1:0:0:0:
310,333,7481,6,0,P|237:307|160:300,1,154.000004699707,2|0,0:0|0:0,0:0:0:0:
74,333,8001,2,0,P|41:265|36:188,1,154.000004699707,0|0,1:0|0:0,0:0:0:0:
73,103,8521,1,2,0:0:0:0:
162,124,8694,2,0,P|201:121|238:111,1,77.0000023498536,0|0,1:0|0:0,0:0:0:0:
315,60,9041,5,2,0:0:0:0:
465,166,9388,2,0,L|457:242,2,77.0000023498536,0|0|0,1:0|0:0|0:0,0:0:0:0:
390,113,9908,1,2,0:0:0:0:
399,21,10082,1,0,1:0:0:0:
315,60,10255,6,0,P|240:75|165:61,1,154.000004699707,2|0,0:0|0:0,0:0:0:0:
81,21,10775,2,0,L|76:97,1,77.0000023498536,0|0,1:0|0:0,0:0:0:0:
9,162,11122,1,0,0:0:0:0:
59,240,11296,1,2,0:0:0:0:
59,240,11382,1,2,0:0:0:0:
59,240,11469,2,0,L|135:231,1,77.0000023498536,0|0,1:0|0:0,0:0:0:0:
273,189,11816,6,0,P|230:250|240:325,1,154.000004699707,6|0,0:0|1:0,0:0:0:0:
320,370,12336,2,0,P|387:338|416:268,1,154.000004699707,0|2,0:0|0:0,0:0:0:0:
366,191,12856,1,0,1:0:0:0:
273,189,13030,6,0,P|325:108|443:139,1,154.000004699707,2|0,0:0|0:0,0:0:0:0:
366,191,13550,2,0,L|212:187,1,154.000004699707,0|0,1:0|0:0,0:0:0:0:
119,185,14070,1,2,0:0:0:0:
63,259,14244,2,0,P|135:276|190:244,1,77.0000023498536,0|0,1:0|0:0,0:0:0:0:
119,185,14590,6,0,P|119:109|151:39,1,154.000004699707,2|0,0:0|1:0,0:0:0:0:
237,74,15111,2,0,L|313:78,1,77.0000023498536,0|0,0:0|0:0,0:0:0:0:
402,48,15457,1,2,0:0:0:0:
457,123,15631,1,0,1:0:0:0:
403,198,15804,6,0,P|432:304|507:321,1,154.000004699707,2|0,0:0|0:0,0:0:0:0:
489,231,16324,2,0,L|351:300,2,154.000004699707,0|0|0,1:0|0:0|0:0,0:0:0:0:
402,86,17365,6,0,L|276:148,1,140,6|0,0:0|1:0,0:0:0:0:
108,159,18059,1,0,0:0:0:0:
108,159,18232,2,0,P|113:194|124:227,1,70,2|0,0:0|1:0,0:0:0:0:
208,234,18579,6,0,P|244:310|200:376,1,140,2|0,0:0|0:0,0:0:0:0:
160,303,19099,1,0,1:0:0:0:
245,158,19446,1,0,0:0:0:0:
245,158,19619,2,0,L|314:152,1,70,2|0,0:0|1:0,0:0:0:0:
398,145,19966,1,0,0:0:0:0:
391,61,20139,6,0,L|251:73,1,140,2|0,0:0|1:0,0:0:0:0:
88,30,20833,1,0,0:0:0:0:
88,30,21007,2,0,L|95:99,1,70,2|0,0:0|1:0,0:0:0:0:
35,159,21353,6,0,P|36:227|83:277,1,140,2|0,0:0|0:0,0:0:0:0:
163,305,21874,2,0,L|156:374,2,70,0|0|0,1:0|0:0|0:0,0:0:0:0:
222,244,22394,1,2,0:0:0:0:
284,299,22567,2,0,P|319:305|354:305,1,70,0|0,1:0|0:0,0:0:0:0:
424,260,22914,6,0,P|409:192|426:124,1,140,2|0,0:0|1:0,0:0:0:0:
362,70,23434,2,0,P|292:59|223:60,1,140,0|2,0:0|0:0,0:0:0:0:
143,88,23954,1,0,1:0:0:0:
173,166,24128,6,0,P|177:235|157:302,1,140,2|0,0:0|0:0,0:0:0:0:
92,356,24648,1,0,1:0:0:0:
92,356,24822,2,0,P|160:343|230:345,1,140,0|2,0:0|0:0,0:0:0:0:
311,369,25342,2,0,P|270:313|276:258,1,70,0|0,1:0|0:0,0:0:0:0:
352,296,25689,6,0,P|421:306|481:342,2,140,2|0|0,0:0|1:0|0:0,0:0:0:0:
270,314,26556,1,2,0:0:0:0:
213,253,26729,1,0,1:0:0:0:
295,234,26902,6,0,P|312:166|313:96,1,140,2|0,0:0|0:0,0:0:0:0:
289,15,27423,2,0,P|393:69|387:138,1,140,0|0,1:0|0:0,0:0:0:0:
399,163,27943,2,0,L|442:172,2,35,2|2|0,0:0|0:0|1:0,0:0:0:0:
203,46,28463,6,0,P|199:115|182:183,1,140,6|0,0:0|1:0,0:0:0:0:
117,238,28983,2,0,L|123:307,1,70,0|0,0:0|0:0,0:0:0:0:
186,363,29330,1,2,0:0:0:0:
260,323,29504,2,0,P|295:317|330:321,1,70,0|0,1:0|1:0,0:0:0:0:
395,374,29850,6,0,P|483:328|473:236,2,140,2|0|0,0:0|1:0|0:0,0:0:0:0:
329,321,30718,1,2,0:0:0:0:
407,290,30891,2,0,P|415:256|415:221,1,70,0|0,1:0|0:0,0:0:0:0:
408,137,31238,6,0,P|338:134|270:116,1,140,2|0,0:0|1:0,0:0:0:0:
214,53,31758,2,0,P|144:56|76:74,1,140,0|2,0:0|0:0,0:0:0:0:
14,130,32278,1,0,1:0:0:0:
47,207,32452,1,0,1:0:0:0:
47,207,32625,6,0,P|46:277|30:345,2,140,2|0|2,0:0|1:0|0:0,0:0:0:0:
14,130,33492,1,2,0:0:0:0:
76,74,33665,2,0,P|109:66|144:65,1,70,0|0,1:0|0:0,0:0:0:0:
197,131,34012,6,0,P|262:154|329:135,1,140,2|0,0:0|1:0,0:0:0:0:
399,88,34533,2,0,L|468:94,2,70,0|2|2,0:0|0:0|0:0,0:0:0:0:
323,52,35053,1,0,1:0:0:0:
328,136,35226,6,0,L|333:205,1,70,0|0,1:0|0:0,0:0:0:0:
278,269,35573,2,0,L|273:338,1,70,2|0,0:0|1:0,0:0:0:0:
346,381,35920,2,0,P|430:351|457:329,1,70
477,307,36267,2,0,P|501:258|507:190,1,70,2|0,0:0|1:0,0:0:0:0:
502,159,36613,1,0,0:0:0:0:
422,135,36787,6,0,P|412:68|451:12,2,140,2|0|2,0:0|1:0|0:0,0:0:0:0:
502,159,37654,1,2,0:0:0:0:
504,243,37827,1,0,1:0:0:0:
424,270,38001,1,0,1:0:0:0:
372,204,38174,6,0,P|304:214|269:272,2,140,2|0|0,0:0|1:0|0:0,0:0:0:0:
372,204,39561,6,0,B|423:176|419:117|419:117|443:95|443:95|435:23,1,210.000008010865,6|0,0:0|1:0,0:0:0:0:
259,204,40949,6,0,B|208:176|212:117|212:117|188:95|188:95|196:23,1,210.000008010865,6|0,0:0|1:0,0:0:0:0:
372,204,42336,6,0,P|303:308|158:256,1,210.000008010865,6|0,0:0|1:0,0:0:0:0:
121,83,43723,6,0,L|128:187,1,105.000004005432,6|0,0:0|0:0,0:0:0:0:
64,296,44417,2,0,L|31:282,2,35.0000013351441,2|2|2,0:0|0:0|0:0,0:0:0:0:
64,338,44764,2,0,L|31:352,2,35.0000013351441,2|2|2,0:0|0:0|0:0,0:0:0:0:
116,317,45111,6,0,P|185:316|251:291,1,140,2|8,0:0|0:0,0:0:0:0:
300,223,45631,2,0,P|369:224|435:249,1,140,0|2,0:0|0:0,0:0:0:0:
506,204,46151,2,0,L|510:134,1,70,8|0,0:0|0:0,0:0:0:0:
450,75,46498,5,2,0:0:0:0:
450,75,46671,2,0,P|415:75|381:84,1,70,0|8,0:0|0:0,0:0:0:0:
322,144,47018,2,0,P|253:143|187:118,1,140,0|2,0:0|0:0,0:0:0:0:
120,66,47538,2,0,L|50:72,1,70,8|0,0:0|0:0,0:0:0:0:
6,144,47885,6,0,P|27:210|17:278,2,140,2|8|0,0:0|0:0|0:0,0:0:0:0:
50,72,48752,1,2,0:0:0:0:
129,43,48926,2,0,P|194:58|225:103,1,70,8|0,0:0|0:0,0:0:0:0:
242,130,49272,6,0,P|323:126|364:28,2,140,2|8|0,0:0|0:0|0:0,0:0:0:0:
281,55,50139,1,2,0:0:0:0:
345,3,50313,2,0,P|410:18|441:63,1,70,8|0,0:0|0:0,0:0:0:0:
445,102,50660,6,0,L|445:137,5,35,8|8|8|8|2|0,0:0|0:0|0:0|0:0|0:0|0:0,0:0:0:0:
409,159,51180,2,0,L|409:194,5,35,8|8|8|8|2|0,0:0|0:0|0:0|0:0|0:0|0:0,0:0:0:0:
373,216,51700,2,0,L|373:251,3,35,8|8|8|8,0:0|0:0|0:0|0:0,0:0:0:0:
337,273,52047,6,0,P|271:251|206:273,1,140,4|4,0:0|0:0,0:0:0:0:
206,273,53434,6,0,P|200:198|141:153,1,154.000004699707,6|0,0:0|1:0,0:0:0:0:
49,143,53954,1,0,0:0:0:0:
0,222,54128,2,0,L|5:298,1,77.0000023498536,2|0,0:0|0:0,0:0:0:0:
57,375,54475,1,0,1:0:0:0:
133,322,54648,6,0,L|209:315,1,77.0000023498536,0|2,0:0|0:0,0:0:0:0:
283,371,54995,2,0,L|359:378,1,77.0000023498536,0|0,0:0|1:0,0:0:0:0:
441,334,55342,1,0,0:0:0:0:
409,247,55515,1,2,0:0:0:0:
409,247,55689,2,0,P|411:208|420:171,1,77.0000023498536,0|0,0:0|1:0,0:0:0:0:
459,87,56035,1,0,0:0:0:0:
387,27,56209,6,0,P|311:12|234:11,1,154.000004699707,2|0,0:0|1:0,0:0:0:0:
156,61,56729,2,0,L|79:67,1,77.0000023498536,0|2,0:0|0:0,0:0:0:0:
10,128,57076,1,0,0:0:0:0:
54,208,57249,2,0,L|131:202,1,77.0000023498536,0|0,1:0|0:0,0:0:0:0:
223,195,57596,5,2,0:0:0:0:
223,195,57943,2,0,P|180:280|144:293,1,77.0000023498536,0|0,1:0|0:0,0:0:0:0:
130,202,58290,2,0,P|181:112|304:154,1,154.000004699707,2|0,0:0|1:0,0:0:0:0:
303,150,58810,1,0,0:0:0:0:
313,307,58983,6,0,P|249:265|223:195,1,154.000004699707,6|0,0:0|1:0,0:0:0:0:
224,102,59504,1,0,0:0:0:0:
307,62,59677,2,0,P|343:75|382:80,1,77.0000023498536,2|0,0:0|0:0,0:0:0:0:
474,72,60024,1,0,1:0:0:0:
512,156,60197,6,0,L|503:232,1,77.0000023498536,0|2,0:0|0:0,0:0:0:0:
429,289,60544,2,0,L|438:365,2,77.0000023498536,0|0|0,0:0|1:0|0:0,0:0:0:0:
359,228,61064,2,0,P|321:226|284:234,1,77.0000023498536,2|0,0:0|0:0,0:0:0:0:
204,282,61411,1,0,1:0:0:0:
138,347,61585,1,0,0:0:0:0:
138,347,61671,1,0,0:0:0:0:
138,347,61758,6,0,L|61:344,1,77.0000023498536,2|0,0:0|0:0,0:0:0:0:
40,254,62105,2,0,L|117:251,1,77.0000023498536,0|0,1:0|0:0,0:0:0:0:
204,282,62452,1,2,0:0:0:0:
277,226,62625,2,0,P|287:190|289:151,1,77.0000023498536,0|0,0:0|1:0,0:0:0:0:
270,59,62972,1,0,0:0:0:0:
346,7,63145,6,0,P|422:11|487:50,1,154.000004699707,2|0,0:0|1:0,0:0:0:0:
512,140,63665,1,8,0:0:0:0:
438,196,63839,2,0,L|436:234,3,38.5000011749268,2|2|2|2,0:0|0:0|0:0|0:0,0:0:0:0:
415,276,64186,2,0,P|453:276|490:285,1,77.0000023498536,4|0,0:0|0:0,0:0:0:0:
331,316,64533,6,0,P|257:312|207:255,1,154.000004699707,6|4,0:0|1:0,0:0:0:0:
216,163,65053,1,0,0:0:0:0:
141,109,65226,2,0,L|64:115,1,77.0000023498536,2|0,0:0|0:0,0:0:0:0:
55,207,65573,2,0,L|132:201,1,77.0000023498536,0|0,1:0|0:0,0:0:0:0:
216,163,65920,6,0,P|290:167|340:224,1,154.000004699707,2|4,0:0|1:0,0:0:0:0:
358,315,66440,1,0,0:0:0:0:
450,321,66613,2,0,P|483:258|483:191,1,77.0000023498536,2|0,0:0|0:0,0:0:0:0:
474,160,66960,1,0,1:0:0:0:
474,160,67134,1,0,0:0:0:0:
391,120,67307,6,0,P|315:120|240:102,1,154.000004699707,2|4,0:0|1:0,0:0:0:0:
54,107,68001,2,0,P|93:110|130:101,1,77.0000023498536,2|0,0:0|0:0,0:0:0:0:
185,27,68348,1,0,1:0:0:0:
277,27,68521,1,0,0:0:0:0:
317,110,68694,6,0,P|427:107|457:4,1,154.000004699707,2|0,0:0|1:0,0:0:0:0:
370,34,69215,1,0,0:0:0:0:
277,27,69388,2,0,P|246:50|228:84,1,77.0000023498536,2|0,0:0|0:0,0:0:0:0:
250,174,69735,1,0,1:0:0:0:
184,239,69908,1,0,0:0:0:0:
184,239,70082,6,0,P|190:313|246:365,1,154.000004699707,2|0,0:0|1:0,0:0:0:0:
333,333,70602,2,0,L|409:338,1,77.0000023498536,0|2,0:0|0:0,0:0:0:0:
512,184,71122,1,0,1:0:0:0:
512,184,71296,1,0,0:0:0:0:
435,234,71469,6,0,P|359:232|301:184,1,154.000004699707,2|0,0:0|1:0,0:0:0:0:
216,145,71989,2,0,L|139:151,1,77.0000023498536,0|2,0:0|0:0,0:0:0:0:
47,165,72336,1,0,0:0:0:0:
0,244,72509,2,0,P|63:256|127:210,1,77.0000023498536,0|0,1:0|0:0,0:0:0:0:
47,165,72856,6,0,B|52:78|131:60|131:60|155:68|155:68|183:58|200:42,2,224,2|0|2,0:0|1:0|0:0,0:0:0:0:
231,146,74590,6,0,L|269:150,3,38.5000011749268,2|2|2|2,0:0|0:0|0:0|0:0,0:0:0:0:
303,181,74937,2,0,P|340:172|378:171,1,77.0000023498536,0|8,1:0|0:0,0:0:0:0:
424,182,75197,1,8,0:0:0:0:
424,182,75284,2,0,L|420:220,3,38.5000011749268,2|2|2|2,0:0|0:0|0:0|0:0,0:0:0:0:
440,257,75631,5,0,0:0:0:0:
440,257,77018,6,0,P|474:258|508:267,2,70,4|0|0,0:0|0:0|0:0,0:0:0:0:
383,319,77538,2,0,P|317:341|248:333,1,140,4|0,0:0|0:0,0:0:0:0:
171,298,78059,2,0,L|176:228,1,70
96,97,78405,6,0,L|101:173,1,77.0000023498536,6|0,0:0|0:0,0:0:0:0:
176,228,78752,1,0,1:0:0:0:
319,186,78926,2,0,P|262:138|186:136,1,154.000004699707,6|2,0:0|0:0,0:0:0:0:
101,174,79446,1,0,1:0:0:0:
150,50,79619,5,6,0:0:0:0:
150,50,81180,6,0,P|225:65|300:51,1,154.000004699707,6|0,0:0|1:0,0:0:0:0:
388,79,81700,2,0,P|421:147|426:224,1,154.000004699707,0|2,0:0|0:0,0:0:0:0:
382,306,82220,1,0,1:0:0:0:
299,347,82394,6,0,P|226:321|149:314,1,154.000004699707,2|0,0:0|0:0,0:0:0:0:
60,336,82914,1,0,1:0:0:0:
0,266,83087,2,0,P|0:227|9:190,1,77.0000023498536,0|0,0:0|0:0,0:0:0:0:
52,108,83434,1,2,0:0:0:0:
141,128,83608,2,0,P|180:125|217:115,1,77.0000023498536,0|0,1:0|0:0,0:0:0:0:
291,61,83954,5,2,0:0:0:0:
366,115,84128,2,0,L|404:115,2,38.5000011749268,0|0|0,0:0|0:0|1:0,0:0:0:0:
338,203,84475,1,2,0:0:0:0:
338,203,84561,1,2,0:0:0:0:
338,203,84648,1,2,0:0:0:0:
245,203,84822,1,2,0:0:0:0:
216,115,84995,1,0,1:0:0:0:
123,115,85168,5,6,0:0:0:0:
256,192,85255,12,0,88116,0:0:0:0:
