osu file format v14

[General]
AudioFilename: audio.mp3
AudioLeadIn: 1976
PreviewTime: 52307
Countdown: 0
SampleSet: Soft
StackLeniency: 0.6
Mode: 0
LetterboxInBreaks: 0
WidescreenStoryboard: 0

[Editor]
Bookmarks: 83087
DistanceSpacing: 0.9
BeatDivisor: 4
GridSize: 4
TimelineZoom: 3.699998

[Metadata]
Title:Serendipity
TitleUnicode:Serendipity
Artist:ZAQ
ArtistUnicode:ZAQ
Creator:Pata-Mon
Version:Fycho's Extra
Source:フリップフラッパーズ
Tags:TT Mouse Koiyuki Minakami Yuki Fycho Flip Flappers Anime OP opening tv size
BeatmapID:1124351
BeatmapSetID:526839

[Difficulty]
HPDrainRate:7
CircleSize:4
OverallDifficulty:9
ApproachRate:9.3
SliderMultiplier:1.76
SliderTickRate:1

[Events]
//Background and Video events
Video,-600,"video.avi"
0,0,"BG.jpg",0,0
//Break Periods
//Storyboard Layer 0 (Background)
//Storyboard Layer 1 (Fail)
//Storyboard Layer 2 (Pass)
//Storyboard Layer 3 (Foreground)
//Storyboard Sound Samples

[TimingPoints]
718,346.820809248555,4,2,1,30,1,0
718,-200,4,2,1,30,0,0
1758,-200,4,2,1,40,0,0
2105,-166.666666666667,4,2,1,40,0,0
2798,-166.666666666667,4,2,1,50,0,0
3492,-142.857142857143,4,2,1,60,0,0
4533,-142.857142857143,4,2,1,70,0,0
4879,-125,4,2,1,70,0,0
5573,-125,4,2,1,80,0,0
6267,-100,4,2,1,80,0,0
17365,-100,4,2,1,60,0,0
28463,-100,4,2,1,70,0,0
39561,-133.333333333333,4,2,1,60,0,0
40255,-83.3333333333333,4,2,1,60,0,0
40949,-133.333333333333,4,2,1,60,0,0
41642,-83.3333333333333,4,2,1,60,0,0
42336,-133.333333333333,4,2,1,60,0,0
43030,-83.3333333333333,4,2,1,60,0,0
43723,-133.333333333333,4,2,1,60,0,0
45111,-133.333333333333,4,2,1,65,0,0
47885,-133.333333333333,4,2,1,70,0,0
49272,-111.111111111111,4,2,1,75,0,0
50660,-100,4,2,1,75,0,0
52047,-133.333333333333,4,2,1,80,0,0
53434,-90.9090909090909,4,2,1,80,0,1
63839,-90.9090909090909,4,2,1,60,0,1
64186,-90.9090909090909,4,2,1,80,0,1
64879,-66.6666666666667,4,2,1,80,0,1
65920,-90.9090909090909,4,2,1,80,0,1
66267,-66.6666666666667,4,2,1,80,0,1
67307,-90.9090909090909,4,2,1,80,0,1
67654,-66.6666666666667,4,2,1,80,0,1
68694,-83.3333333333333,4,2,1,80,0,1
72856,-133.333333333333,4,2,1,80,0,1
74244,-100,4,2,1,80,0,1
75284,-100,4,2,1,60,0,1
75631,-100,4,2,1,60,0,0
78405,-100,4,2,1,80,0,0
88116,-100,4,2,1,5,0,0

[Colours]
Combo1 : 95,95,255
Combo2 : 255,127,175
Combo3 : 127,175,255
Combo4 : 255,95,95

[HitObjects]
47,178,718,6,0,L|56:122,1,44,4|0,0:0|0:0,0:0:0:0:
134,94,1064,2,0,L|143:38,1,44,0|0,0:0|0:0,0:0:0:0:
224,20,1411,1,0,0:0:0:0:
224,20,1585,1,0,0:0:0:0:
294,74,1758,1,0,0:0:0:0:
294,74,1931,1,0,0:0:0:0:
236,175,2105,6,0,L|301:151,1,52.7999983886719,0|0,0:0|0:0,0:0:0:0:
339,223,2452,2,0,L|404:199,1,52.7999983886719,0|0,0:0|0:0,0:0:0:0:
474,170,2798,1,0,0:0:0:0:
435,288,2972,1,0,0:0:0:0:
474,170,3145,1,0,0:0:0:0:
435,288,3319,1,0,0:0:0:0:
289,279,3492,6,0,P|296:309|292:340,1,61.5999981201173,0|0,0:0|0:0,0:0:0:0:
207,228,3839,2,0,P|202:197|209:167,1,61.5999981201173,0|0,0:0|0:0,0:0:0:0:
151,301,4186,1,0,0:0:0:0:
70,268,4359,1,0,0:0:0:0:
22,117,4533,1,0,0:0:0:0:
101,151,4706,1,0,0:0:0:0:
189,105,4879,6,0,L|184:17,1,70.4,0|0,0:0|0:0,0:0:0:0:
264,160,5226,2,0,P|352:149|369:106,1,140.8,0|0,0:0|0:0,0:0:0:0:
264,160,5746,2,0,L|244:318,1,140.8,0|0,0:0|0:0,0:0:0:0:
406,365,6267,6,0,P|395:302|340:270,1,132,6|0,0:0|0:0,0:0:0:0:
329,263,6613,2,0,L|348:148,1,88,0|0,1:0|3:0,0:0:0:0:
343,176,6874,1,0,3:0:0:0:
343,176,6960,1,0,3:0:0:0:
440,219,7134,1,2,0:0:0:0:
269,77,7307,1,0,1:0:0:0:
239,293,7481,6,0,P|215:341|79:352,1,176,2|0,0:0|0:0,0:0:0:0:
176,48,8001,1,0,1:0:0:0:
95,242,8174,1,0,3:0:0:0:
95,242,8261,1,0,3:0:0:0:
95,242,8348,1,0,3:0:0:0:
264,172,8521,1,2,0:0:0:0:
4,94,8694,1,0,1:0:0:0:
4,204,8868,1,0,3:0:0:0:
49,221,8954,1,0,3:0:0:0:
95,242,9041,6,0,L|82:361,1,88,2|0,0:0|3:0,0:0:0:0:
85,329,9301,1,0,3:0:0:0:
85,329,9388,1,0,1:0:0:0:
204,156,9561,1,0,3:0:0:0:
204,156,9648,1,0,3:0:0:0:
204,156,9735,2,0,L|278:143,1,44,0|0,3:0|0:0,0:0:0:0:
351,211,9908,2,0,L|307:216,1,44,2|0,0:0|0:0,0:0:0:0:
204,286,10082,1,0,1:0:0:0:
400,367,10255,6,0,P|450:335|417:211,1,176,2|0,0:0|3:0,0:0:0:0:
442,229,10689,1,0,3:0:0:0:
442,229,10775,1,0,1:0:0:0:
344,83,10949,1,0,3:0:0:0:
293,69,11035,1,0,3:0:0:0:
240,76,11122,1,0,3:0:0:0:
198,108,11209,1,0,3:0:0:0:
176,156,11296,2,0,L|172:216,1,44,2|2,0:0|0:0,0:0:0:0:
189,291,11469,1,0,1:0:0:0:
32,227,11642,1,0,3:0:0:0:
25,182,11729,1,0,3:0:0:0:
27,136,11816,6,0,L|32:48,1,88,6|0,0:0|0:0,0:0:0:0:
175,0,12163,1,0,1:0:0:0:
155,143,12336,1,0,3:0:0:0:
155,143,12423,1,0,3:0:0:0:
155,143,12509,2,0,L|147:199,1,44,0|0,3:0|0:0,0:0:0:0:
196,340,12683,2,0,L|209:285,1,44,2|0,0:0|0:0,0:0:0:0:
256,188,12856,1,0,1:0:0:0:
381,321,13030,6,0,P|455:281|459:197,1,176,2|0,0:0|0:0,0:0:0:0:
339,69,13550,1,0,1:0:0:0:
202,154,13723,1,0,3:0:0:0:
202,154,13810,1,0,3:0:0:0:
202,154,13897,2,0,L|140:161,1,44,0|0,3:0|0:0,0:0:0:0:
244,251,14070,2,0,L|287:253,1,44,2|0,0:0|0:0,0:0:0:0:
394,172,14244,1,0,1:0:0:0:
295,260,14417,1,0,3:0:0:0:
295,260,14504,1,0,3:0:0:0:
295,260,14590,6,0,P|282:300|282:360,1,88,2|0,0:0|0:0,0:0:0:0:
445,217,14937,1,0,1:0:0:0:
359,58,15111,1,0,3:0:0:0:
319,41,15197,1,0,3:0:0:0:
275,50,15284,1,0,3:0:0:0:
247,85,15371,1,0,3:0:0:0:
248,129,15457,1,2,0:0:0:0:
286,258,15631,1,0,1:0:0:0:
84,350,15804,6,0,L|116:177,1,176,2|0,0:0|3:0,0:0:0:0:
90,154,16238,1,0,3:0:0:0:
90,154,16324,2,0,L|111:50,1,88,0|0,1:0|0:0,0:0:0:0:
329,80,16671,6,0,P|402:97|380:211,1,176,0|0,0:0|3:0,0:0:0:0:
377,210,17105,1,0,3:0:0:0:
377,210,17191,1,0,3:0:0:0:
377,210,17278,1,0,3:0:0:0:
377,210,17365,6,0,L|366:325,1,88,6|0,0:0|0:0,0:0:0:0:
276,144,17712,2,0,P|180:144|132:225,1,176,0|0,1:0|0:0,0:0:0:0:
125,347,18232,1,2,0:0:0:0:
12,175,18405,1,0,1:0:0:0:
266,300,18579,6,0,P|331:298|381:172,1,176,2|0,0:0|0:0,0:0:0:0:
245,66,19099,1,0,1:0:0:0:
386,111,19272,1,0,3:0:0:0:
386,111,19359,1,0,3:0:0:0:
386,111,19446,1,0,3:0:0:0:
144,193,19619,1,2,0:0:0:0:
300,242,19793,2,0,L|313:358,1,88,0|0,1:0|0:0,0:0:0:0:
76,345,20139,6,0,P|74:231|132:207,1,176,2|0,0:0|1:0,0:0:0:0:
311,154,20660,1,0,3:0:0:0:
311,154,20746,1,0,3:0:0:0:
311,154,20833,2,0,L|300:241,1,88,0|2,3:0|0:0,0:0:0:0:
215,105,21180,1,0,1:0:0:0:
424,151,21353,6,0,P|464:85|373:15,1,176,2|0,0:0|0:0,0:0:0:0:
269,147,21874,1,0,1:0:0:0:
189,59,22047,1,0,0:0:0:0:
139,183,22220,2,0,P|129:255|141:295,1,88,0|2,0:0|0:0,0:0:0:0:
79,110,22567,1,0,1:0:0:0:
0,219,22741,1,0,0:0:0:0:
220,117,22914,6,0,P|303:91|390:102,1,176,2|0,0:0|1:0,0:0:0:0:
457,220,23434,2,0,L|504:19,1,176,0|2,0:0|0:0,0:0:0:0:
312,192,23954,1,0,1:0:0:0:
390,102,24128,6,0,L|434:310,1,176,2|0,0:0|0:0,0:0:0:0:
312,192,24648,1,0,1:0:0:0:
241,342,24822,1,0,3:0:0:0:
241,342,24908,1,0,3:0:0:0:
241,342,24995,2,0,P|219:291|233:238,1,88,0|2,3:0|0:0,0:0:0:0:
242,116,25342,1,0,1:0:0:0:
116,321,25515,1,0,3:0:0:0:
116,321,25602,1,0,3:0:0:0:
116,321,25689,6,0,P|68:344|-6:258,1,176,2|0,0:0|1:0,0:0:0:0:
65,114,26209,1,0,0:0:0:0:
160,181,26382,1,0,0:0:0:0:
23,200,26556,1,2,0:0:0:0:
234,241,26729,1,0,1:0:0:0:
147,56,26902,2,0,L|258:54,1,88,2|0,0:0|0:0,0:0:0:0:
395,179,27249,5,0,0:0:0:0:
282,142,27423,1,0,1:0:0:0:
462,107,27596,1,0,0:0:0:0:
486,299,27770,1,0,0:0:0:0:
258,250,27943,1,2,0:0:0:0:
307,227,28030,1,2,0:0:0:0:
353,202,28116,1,0,1:0:0:0:
352,331,28290,1,0,0:0:0:0:
190,170,28463,5,6,0:0:0:0:
70,315,28637,1,0,0:0:0:0:
98,219,28810,1,0,1:0:0:0:
215,348,28983,1,0,3:0:0:0:
222,316,29070,1,0,3:0:0:0:
230,286,29157,1,0,3:0:0:0:
360,142,29330,1,2,0:0:0:0:
457,214,29504,1,0,1:0:0:0:
305,233,29677,1,0,1:0:0:0:
463,118,29850,5,2,0:0:0:0:
457,214,30024,1,0,0:0:0:0:
366,47,30197,1,0,1:0:0:0:
305,233,30371,1,0,3:0:0:0:
305,233,30457,1,0,3:0:0:0:
305,233,30544,1,0,3:0:0:0:
302,127,30718,1,2,0:0:0:0:
401,279,30891,2,0,P|400:329|366:367,1,88,0|0,1:0|0:0,0:0:0:0:
128,349,31238,5,2,0:0:0:0:
237,141,31411,1,0,3:0:0:0:
237,141,31498,1,0,3:0:0:0:
237,141,31585,1,0,1:0:0:0:
51,207,31758,1,0,3:0:0:0:
28,168,31845,1,0,3:0:0:0:
28,124,31931,1,0,3:0:0:0:
50,85,32018,1,0,3:0:0:0:
91,71,32105,1,2,0:0:0:0:
246,49,32278,1,0,1:0:0:0:
150,206,32452,6,0,L|92:395,1,176,0|0,1:0|0:0,0:0:0:0:
248,213,32972,1,0,1:0:0:0:
347,351,33145,1,0,3:0:0:0:
347,351,33232,1,0,3:0:0:0:
347,351,33319,2,0,P|353:279|342:236,1,88,2|2,0:0|0:0,0:0:0:0:
234,333,33665,1,0,1:0:0:0:
403,192,33839,1,0,0:0:0:0:
232,78,34012,5,2,0:0:0:0:
284,183,34186,1,2,0:0:0:0:
420,27,34359,1,0,1:0:0:0:
464,190,34533,1,0,3:0:0:0:
480,225,34619,1,0,3:0:0:0:
481,264,34706,2,0,L|456:327,1,44,2|0,0:0|0:0,0:0:0:0:
386,356,34879,1,2,0:0:0:0:
278,219,35053,1,0,1:0:0:0:
142,339,35226,6,0,B|83:326|36:345|36:345|20:318|21:279,1,176,0|2,1:0|0:0,0:0:0:0:
27,75,35746,2,0,P|99:86|127:94,1,88,0|0,1:0|3:0,0:0:0:0:
148,116,36007,1,0,3:0:0:0:
148,116,36093,2,0,L|207:92,1,44,0|0,3:0|0:0,0:0:0:0:
269,55,36267,1,2,0:0:0:0:
180,248,36440,1,0,1:0:0:0:
269,160,36613,1,0,0:0:0:0:
374,273,36787,6,0,P|453:148|441:129,1,176,2|0,0:0|1:0,0:0:0:0:
251,254,37307,1,0,3:0:0:0:
251,254,37394,1,0,3:0:0:0:
251,254,37481,2,0,L|227:352,1,88,2|2,0:0|0:0,0:0:0:0:
116,152,37827,1,0,1:0:0:0:
327,156,38001,1,0,1:0:0:0:
89,262,38174,5,2,0:0:0:0:
238,107,38348,1,2,0:0:0:0:
367,333,38521,2,0,L|395:224,1,88,0|0,1:0|3:0,0:0:0:0:
389,248,38781,1,0,3:0:0:0:
389,248,38868,5,0,3:0:0:0:
330,135,39041,1,0,3:0:0:0:
243,192,39215,1,0,3:0:0:0:
231,292,39388,1,0,3:0:0:0:
66,343,39561,6,0,P|27:240|43:139,1,198.000007553101,6|0,0:0|0:0,0:0:0:0:
87,42,40255,6,0,B|126:64|180:41|180:41|218:94|218:94|315:64|376:93,1,316.799990332032,0|0,1:0|0:0,0:0:0:0:
413,192,40949,6,0,P|453:157|426:2,1,198.000007553101,6|0,0:0|0:0,0:0:0:0:
307,28,41642,6,0,B|285:67|285:67|304:100|304:100|272:128|260:197|260:197|262:331,1,316.799990332032,0|0,1:0|0:0,0:0:0:0:
333,233,42336,6,0,P|307:165|189:167,1,198.000007553101,6|0,0:0|0:0,0:0:0:0:
132,257,43030,6,0,B|79:224|49:250|49:250|66:189|25:124|25:124|71:130|116:104,1,316.799990332032,0|0,1:0|0:0,0:0:0:0:
194,161,43723,6,0,P|237:178|362:88,1,198.000007553101,6|0,0:0|0:0,0:0:0:0:
476,131,44417,5,2,0:0:0:0:
476,131,44533,2,0,L|462:205,1,44.0000016784669,2|2,0:0|0:0,0:0:0:0:
388,259,44764,1,2,0:0:0:0:
388,259,44880,2,0,L|374:333,1,44.0000016784669,2|2,0:0|0:0,0:0:0:0:
288,357,45111,5,2,0:0:0:0:
288,357,45457,2,0,L|148:332,1,132.000005035401,8|0,0:0|0:0,0:0:0:0:
49,288,45978,1,2,0:0:0:0:
123,201,46151,2,0,P|127:150|121:116,1,66.0000025177003,8|0,0:0|0:0,0:0:0:0:
240,233,46498,5,2,0:0:0:0:
240,233,46845,2,0,P|254:150|267:92,1,132.000005035401,8|0,0:0|0:0,0:0:0:0:
356,179,47365,1,2,0:0:0:0:
451,96,47538,1,8,0:0:0:0:
463,206,47712,1,0,0:0:0:0:
360,78,47885,5,2,0:0:0:0:
360,78,48232,2,0,L|210:68,1,132.000005035401,8|0,0:0|0:0,0:0:0:0:
64,146,48752,1,2,0:0:0:0:
248,176,48926,1,8,0:0:0:0:
132,57,49099,1,0,0:0:0:0:
145,215,49272,6,0,L|137:263,1,39.5999987915039,2|0,0:0|0:0,0:0:0:0:
123,343,49446,1,0,0:0:0:0:
49,184,49619,1,8,0:0:0:0:
8,269,49793,1,0,0:0:0:0:
100,96,49966,1,0,0:0:0:0:
179,159,50139,1,2,0:0:0:0:
46,1,50313,1,8,0:0:0:0:
0,105,50486,1,0,0:0:0:0:
184,27,50660,5,8,0:0:0:0:
218,53,50746,1,8,0:0:0:0:
260,63,50833,1,8,0:0:0:0:
304,64,50920,1,8,0:0:0:0:
345,49,51007,2,0,L|380:6,1,44,2|0,0:0|0:0,0:0:0:0:
356,169,51180,5,8,0:0:0:0:
327,207,51266,1,8,0:0:0:0:
283,229,51353,1,8,0:0:0:0:
234,232,51440,1,8,0:0:0:0:
187,219,51527,2,0,L|154:167,1,44,2|0,0:0|0:0,0:0:0:0:
68,101,51700,5,8,0:0:0:0:
32,140,51787,1,8,0:0:0:0:
25,192,51874,1,8,0:0:0:0:
37,242,51960,1,8,0:0:0:0:
75,278,52047,1,4,0:0:0:0:
495,117,52394,1,4,0:0:0:0:
247,90,52741,5,0,0:0:0:0:
247,90,52914,2,0,P|235:192|235:229,1,132.000005035401,0|0,0:0|0:0,0:0:0:0:
224,332,53434,6,0,P|136:340|79:241,1,193.600005908203,6|0,0:0|1:0,0:0:0:0:
158,59,53954,1,0,3:0:0:0:
158,59,54041,1,0,3:0:0:0:
158,59,54128,1,2,3:2:0:0:
51,165,54301,1,0,0:0:0:0:
247,112,54475,1,0,1:0:0:0:
78,261,54648,1,0,0:0:0:0:
78,261,54735,1,0,0:0:0:0:
78,261,54822,6,0,L|45:355,1,96.8000029541017,2|0,0:0|0:0,0:0:0:0:
247,112,55168,1,0,1:0:0:0:
337,273,55342,1,0,0:0:0:0:
337,273,55428,1,0,0:0:0:0:
337,273,55515,2,0,L|352:206,1,48.4000014770508,2|0,0:0|0:0,0:0:0:0:
391,105,55689,1,0,0:0:0:0:
473,270,55862,1,0,1:0:0:0:
247,112,56035,1,0,0:0:0:0:
247,112,56122,1,0,0:0:0:0:
247,112,56209,6,0,L|141:98,1,96.8000029541017,2|0,0:0|0:0,0:0:0:0:
0,162,56556,1,0,1:0:0:0:
110,268,56729,1,0,3:0:0:0:
110,268,56816,1,0,3:0:0:0:
110,268,56902,2,0,L|147:191,1,48.4000014770508,2|0,3:2|0:0,0:0:0:0:
254,213,57076,2,0,L|230:146,1,48.4000014770508,0|0,0:0|0:0,0:0:0:0:
188,66,57249,1,0,1:0:0:0:
333,140,57423,1,0,3:0:0:0:
333,140,57509,1,0,3:0:0:0:
333,140,57596,6,0,L|433:111,1,96.8000029541017,2|0,3:2|0:0,0:0:0:0:
327,323,57943,2,0,P|259:334|188:271,1,145.200004431152,0|0,1:0|0:0,0:0:0:0:
185,263,58290,1,2,0:0:0:0:
339,71,58463,1,0,0:0:0:0:
189,140,58637,2,0,L|87:182,1,96.8000029541017,0|0,1:0|3:0,0:0:0:0:
315,328,58983,6,0,P|329:217|255:177,1,193.600005908203,6|0,3:2|1:0,0:0:0:0:
92,326,59504,1,0,3:0:0:0:
92,326,59590,1,0,3:0:0:0:
92,326,59677,2,0,L|146:309,1,48.4000014770508,2|0,3:2|0:0,0:0:0:0:
267,259,59850,1,0,0:0:0:0:
23,203,60024,1,0,1:0:0:0:
164,139,60197,1,0,3:0:0:0:
164,139,60284,1,0,3:0:0:0:
164,139,60371,6,0,P|178:47|164:27,1,96.8000029541017,2|0,0:0|0:0,0:0:0:0:
51,113,60718,1,0,1:0:0:0:
332,61,60891,1,0,3:0:0:0:
332,61,60978,1,0,3:0:0:0:
332,61,61064,2,0,L|325:133,1,48.4000014770508,2|0,3:2|0:0,0:0:0:0:
231,218,61238,2,0,L|241:154,1,48.4000014770508
243,48,61411,1,0,1:0:0:0:
355,194,61585,1,0,3:0:0:0:
355,194,61671,1,0,3:0:0:0:
355,194,61758,6,0,L|345:309,1,96.8000029541017,2|0,3:2|0:0,0:0:0:0:
151,364,62105,2,0,L|137:255,1,96.8000029541017,0|0,1:0|0:0,0:0:0:0:
171,57,62452,1,2,0:0:0:0:
265,273,62625,1,0,0:0:0:0:
32,290,62798,1,0,1:0:0:0:
249,157,62972,1,0,3:0:0:0:
249,157,63059,1,0,3:0:0:0:
249,157,63145,6,0,L|136:164,1,96.8000029541017,2|0,3:2|0:0,0:0:0:0:
113,168,63405,1,0,0:0:0:0:
113,168,63492,1,0,1:0:0:0:
274,348,63665,1,8,0:0:0:0:
304,310,63752,1,8,0:0:0:0:
311,262,63839,1,2,0:0:0:0:
281,223,63926,1,2,0:0:0:0:
248,187,64012,1,2,0:0:0:0:
239,139,64099,1,2,0:0:0:0:
268,100,64186,1,4,0:0:0:0:
455,184,64359,1,0,0:0:0:0:
159,304,64533,6,0,L|173:173,1,96.8000029541017,6|0,0:0|0:0,0:0:0:0:
232,11,64879,6,0,P|339:21|384:109,1,198.000007553101,4|0,1:2|0:0,0:0:0:0:
374,127,65226,5,2,0:0:0:0:
124,187,65400,1,0,0:0:0:0:
430,259,65573,1,0,1:0:0:0:
96,323,65746,1,0,3:0:0:0:
96,323,65833,1,0,3:0:0:0:
96,323,65920,6,0,L|-2:313,1,96.8000029541017,2|0,0:0|0:0,0:0:0:0:
274,344,66267,6,0,P|294:264|250:153,1,198.000007553101,4|0,1:2|0:0,0:0:0:0:
231,139,66613,5,2,0:0:0:0:
8,305,66787,1,0,0:0:0:0:
156,31,66960,1,0,1:0:0:0:
337,250,67134,1,0,3:0:0:0:
337,250,67220,1,0,3:0:0:0:
337,250,67307,6,0,L|351:132,1,96.8000029541017,2|0,0:0|0:0,0:0:0:0:
451,0,67654,6,0,P|384:67|290:53,1,198.000007553101,4|0,1:2|0:0,0:0:0:0:
251,27,68001,5,2,0:0:0:0:
421,263,68174,1,0,0:0:0:0:
23,262,68348,1,0,1:0:0:0:
314,148,68521,1,0,3:0:0:0:
314,148,68608,1,0,3:0:0:0:
314,148,68694,6,0,L|284:276,1,105.599996777344,2|0,3:2|0:0,0:0:0:0:
79,317,69041,2,0,L|56:165,1,105.599996777344,0|0,1:0|3:0,0:0:0:0:
27,181,69301,1,0,3:0:0:0:
17,134,69388,1,2,0:0:0:0:
32,88,69475,1,0,3:0:0:0:
71,61,69561,1,0,3:0:0:0:
250,232,69735,2,0,L|274:101,1,105.599996777344,0|0,1:0|3:0,0:0:0:0:
276,96,69995,1,0,3:0:0:0:
276,96,70082,5,2,0:0:0:0:
492,236,70255,1,0,0:0:0:0:
139,334,70428,1,0,1:0:0:0:
388,157,70602,1,0,3:0:0:0:
388,157,70689,1,0,3:0:0:0:
388,157,70775,1,2,3:2:0:0:
259,365,70949,1,0,0:0:0:0:
73,184,71122,2,0,P|50:232|48:284,1,105.599996777344,0|0,1:0|3:0,0:0:0:0:
74,329,71382,1,0,3:0:0:0:
74,329,71469,6,0,L|221:292,1,105.599996777344,2|0,0:0|0:0,0:0:0:0:
496,235,71816,1,0,1:0:0:0:
145,142,71989,1,0,3:0:0:0:
145,142,72076,1,0,3:0:0:0:
145,142,72163,1,2,3:2:0:0:
375,343,72336,1,0,0:0:0:0:
314,35,72509,1,0,1:0:0:0:
24,194,72683,1,0,0:0:0:0:
375,343,72856,5,2,0:0:0:0:
466,349,73550,2,0,B|456:139,1,198.000007553101,8|0,3:2|0:0,0:0:0:0:
461,37,74244,6,0,P|357:68|314:42,1,132,2|0,0:0|0:0,0:0:0:0:
224,59,74590,2,0,L|208:128,1,44,2|2,0:0|0:0,0:0:0:0:
314,188,74764,2,0,L|314:253,1,44,2|2,0:0|0:0,0:0:0:0:
269,333,74937,2,0,L|207:306,1,44,0|0,1:0|0:0,0:0:0:0:
111,199,75111,2,0,L|178:183,1,44,8|8,0:0|0:0,0:0:0:0:
82,307,75284,1,2,0:0:0:0:
82,307,75371,1,2,0:0:0:0:
82,307,75457,1,2,0:0:0:0:
82,307,75544,1,2,0:0:0:0:
82,307,75631,1,0,0:0:0:0:
192,213,77018,5,4,0:0:0:0:
440,299,77191,1,0,0:0:0:0:
302,176,77365,1,0,0:0:0:0:
46,306,77538,1,4,0:0:0:0:
46,306,77885,5,0,0:0:0:0:
149,146,78059,1,0,0:0:0:0:
262,268,78232,1,0,0:0:0:0:
60,191,78405,5,6,0:0:0:0:
354,140,78579,1,0,0:0:0:0:
153,261,78752,1,0,1:0:0:0:
416,339,78926,2,0,P|467:301|436:181,1,176,6|2,0:0|0:0,0:0:0:0:
153,261,79446,1,0,1:0:0:0:
500,61,79619,5,6,0:0:0:0:
106,365,81180,6,0,P|96:290|106:210,1,132,6|0,0:0|0:0,0:0:0:0:
109,208,81526,2,0,L|90:93,1,88,0|0,1:0|3:0,0:0:0:0:
94,121,81787,1,0,3:0:0:0:
94,121,81873,1,0,3:0:0:0:
363,186,82047,1,2,0:0:0:0:
249,62,82220,1,0,1:0:0:0:
284,352,82394,6,0,P|338:361|416:267,1,176,2|0,0:0|0:0,0:0:0:0:
175,301,82914,1,0,1:0:0:0:
465,180,83087,1,0,3:0:0:0:
465,180,83174,1,0,3:0:0:0:
465,180,83261,1,0,3:0:0:0:
274,232,83434,1,2,0:0:0:0:
473,358,83607,1,0,1:0:0:0:
465,180,83781,1,0,3:0:0:0:
461,127,83867,1,0,3:0:0:0:
451,74,83954,6,0,L|357:88,1,88,2|0,0:0|3:0,0:0:0:0:
330,96,84214,1,0,3:0:0:0:
330,96,84301,1,0,1:0:0:0:
243,20,84474,1,2,0:0:0:0:
243,20,84561,1,2,0:0:0:0:
243,20,84648,2,0,L|169:7,1,44,2|0,0:0|0:0,0:0:0:0:
100,111,84821,2,0,L|176:133,1,44,2|0,0:0|0:0,0:0:0:0:
330,96,84995,1,0,1:0:0:0:
3,241,85168,5,6,0:0:0:0:
256,192,85255,12,0,88116,0:0:0:0:
