osu file format v14

[General]
AudioFilename: audio.mp3
AudioLeadIn: 1976
PreviewTime: 52307
Countdown: 0
SampleSet: Soft
StackLeniency: 0.7
Mode: 0
LetterboxInBreaks: 0
WidescreenStoryboard: 0

[Editor]
Bookmarks: 6267,17365,28463,39561,53434,64533,75631
DistanceSpacing: 1
BeatDivisor: 4
GridSize: 16
TimelineZoom: 1

[Metadata]
Title:Serendipity
TitleUnicode:Serendipity
Artist:ZAQ
ArtistUnicode:ZAQ
Creator:Pata-Mon
Version:Easy
Source:フリップフラッパーズ
Tags:TT Mouse Koiyuki Minakami Yuki Fycho Flip Flappers Anime OP opening tv size
BeatmapID:1118882
BeatmapSetID:526839

[Difficulty]
HPDrainRate:2
CircleSize:2.5
OverallDifficulty:2
ApproachRate:3
SliderMultiplier:0.9
SliderTickRate:1

[Events]
//Background and Video events
Video,-600,"video.avi"
0,0,"BG.jpg",0,0
//Break Periods
//Storyboard Layer 0 (Background)
//Storyboard Layer 1 (Fail)
//Storyboard Layer 2 (Pass)
//Storyboard Layer 3 (Foreground)
//Storyboard Sound Samples

[TimingPoints]
718,346.820809248555,4,2,1,30,1,0
1758,-100,4,2,1,40,0,0
2798,-100,4,2,1,50,0,0
3492,-100,4,2,1,60,0,0
4533,-100,4,2,1,70,0,0
6267,-100,4,2,1,80,0,1
17365,-100,4,2,1,60,0,0
28463,-100,4,2,1,70,0,0
39561,-100,4,2,1,60,0,0
45111,-100,4,2,1,65,0,0
47885,-100,4,2,1,70,0,0
49272,-100,4,2,1,75,0,0
52047,-100,4,2,1,80,0,0
53434,-100,4,2,1,80,0,1
75631,-100,4,2,1,60,0,0
78405,-100,4,2,1,80,0,1
79619,-100,4,2,1,80,0,0
81180,-100,4,2,1,80,0,1
85168,-100,4,2,1,80,0,0
88116,-100,4,2,1,5,0,0

[Colours]
Combo1 : 95,95,255
Combo2 : 255,127,175
Combo3 : 127,175,255
Combo4 : 255,95,95

[HitObjects]
180,227,24,6,0,P|256:268|332:227,1,180,0|4,0:0|0:0,0:0:0:0:
256,192,804,12,0,4533,0:0:0:0:
105,268,6267,5,6,0:0:0:0:
186,306,6613,2,0,B|262:332|288:280|363:306,1,180,0|0,1:0|1:0,0:0:0:0:
398,334,7481,2,0,P|456:307|453:244,1,135,2|0,0:0|1:0,0:0:0:0:
384,185,8348,2,0,L|386:95,1,90,2|0,0:0|1:0,0:0:0:0:
325,29,9041,5,2,0:0:0:0:
241,62,9388,2,0,B|215:138|267:164|241:239,1,180,0|0,1:0|1:0,0:0:0:0:
277,266,10255,2,0,P|342:257|372:199,1,135,2|0,0:0|1:0,0:0:0:0:
372,110,11122,2,0,L|416:103,2,45,2|2|0,0:0|0:0|1:0,0:0:0:0:
292,67,11816,5,6,0:0:0:0:
219,119,12163,2,0,B|143:145|117:93|42:119,1,180,0|0,1:0|1:0,0:0:0:0:
16,155,13030,2,0,P|14:218|72:243,1,135,2|0,0:0|1:0,0:0:0:0:
162,234,13897,2,0,L|251:244,1,90,2|0,0:0|1:0,0:0:0:0:
300,319,14590,5,2,0:0:0:0:
383,286,14937,2,0,B|409:210|357:184|383:109,1,180,0|0,1:0|1:0,0:0:0:0:
421,85,15804,2,0,P|393:27|329:30,1,135,2|0,0:0|1:0,0:0:0:0:
255,80,16671,2,0,P|211:79|169:64,1,90,2|0,0:0|0:0,0:0:0:0:
94,12,17365,5,6,0:0:0:0:
28,73,17712,2,0,P|11:139|10:206,1,135,0|2,1:0|0:0,0:0:0:0:
34,292,18579,2,0,P|99:273|164:288,1,135,2|0,0:0|1:0,0:0:0:0:
225,353,19446,2,0,L|314:344,1,90,2|0,0:0|1:0,0:0:0:0:
403,359,20139,5,2,0:0:0:0:
466,295,20486,2,0,P|477:228|466:162,1,135,0|2,1:0|0:0,0:0:0:0:
406,94,21353,2,0,P|342:115|277:100,1,135,2|0,0:0|1:0,0:0:0:0:
206,44,22220,2,0,L|116:57,1,90,2|0,0:0|1:0,0:0:0:0:
39,103,22915,5,2,0:0:0:0:
73,186,23261,2,0,B|149:212|175:160|250:186,1,180,0|0,1:0|1:0,0:0:0:0:
274,224,24128,2,0,P|339:231|384:184,1,135,2|0,0:0|1:0,0:0:0:0:
405,144,24822,2,0,P|403:210|430:272,1,135,2|0,0:0|1:0,0:0:0:0:
496,333,25688,5,2,0:0:0:0:
410,360,26035,2,0,B|334:386|308:334|233:360,1,180,0|0,1:0|1:0,0:0:0:0:
191,376,26902,2,0,P|132:351|135:287,1,135,2|0,0:0|1:0,0:0:0:0:
200,226,27770,2,0,L|244:222,2,45,2|2|0,0:0|0:0|1:0,0:0:0:0:
114,200,28463,6,0,P|95:159|91:114,1,90,6|0,0:0|1:0,0:0:0:0:
130,33,29157,2,0,L|219:40,1,90,2|0,0:0|1:0,0:0:0:0:
255,68,29677,2,0,B|249:119|269:99|262:158,2,90,0|2|0,1:0|0:0|0:0,0:0:0:0:
297,53,30544,1,2,0:0:0:0:
385,68,30891,1,0,1:0:0:0:
433,144,31238,6,0,P|442:187|427:229,1,90,2|0,0:0|1:0,0:0:0:0:
390,256,31758,2,0,P|323:245|259:264,1,135,2|0,0:0|1:0,0:0:0:0:
221,287,32452,2,0,P|155:279|107:233,1,135,0|0,1:0|1:0,0:0:0:0:
76,149,33319,2,0,L|31:145,2,45,2|2|0,0:0|0:0|1:0,0:0:0:0:
126,73,34012,6,0,P|167:55|212:52,1,90,2|0,0:0|1:0,0:0:0:0:
298,77,34706,2,0,P|342:73|383:55,1,90,2|0,0:0|1:0,0:0:0:0:
426,72,35226,2,0,P|393:170|336:204,1,135,0|0,1:0|1:0,0:0:0:0:
295,236,36093,2,0,P|297:280|318:319,1,90,2|0,0:0|1:0,0:0:0:0:
403,353,36787,6,0,P|481:316|500:231,2,180,2|2|2,0:0|0:0|0:0,0:0:0:0:
319,320,38521,2,0,P|275:322|233:340,1,90,0|0,1:0|0:0,0:0:0:0:
72,259,39561,6,0,B|46:183|98:157|72:82,1,180,6|0,0:0|1:0,0:0:0:0:
249,115,40949,2,0,P|263:195|184:219,1,180,6|0,0:0|1:0,0:0:0:0:
207,38,42336,6,0,B|283:12|309:64|384:38,1,180,6|0,0:0|1:0,0:0:0:0:
351,215,43723,2,0,P|271:229|247:150,1,180,6|2,0:0|0:0,0:0:0:0:
384,38,45111,5,2,0:0:0:0:
455,93,45457,2,0,P|475:179|454:266,1,180,8|8,0:0|0:0,0:0:0:0:
384,324,46498,1,2,0:0:0:0:
329,253,46845,2,0,P|243:233|156:254,1,180,8|8,0:0|0:0,0:0:0:0:
98,324,47885,5,2,0:0:0:0:
27,269,48232,2,0,P|7:183|28:96,1,180,8|8,0:0|0:0,0:0:0:0:
98,38,49272,1,2,0:0:0:0:
168,95,49619,1,8,0:0:0:0:
238,38,49966,2,0,L|327:45,1,90,2|8,0:0|0:0,0:0:0:0:
363,127,50660,6,0,P|308:195|328:271,2,135,8|8|8,0:0|0:0|0:0,0:0:0:0:
396,211,52047,2,0,L|392:300,1,90,4|4,0:0|0:0,0:0:0:0:
123,325,53434,6,0,L|119:236,1,90,6|0,0:0|1:0,0:0:0:0:
29,225,54128,2,0,P|6:164|44:111,2,135,2|2|0,0:0|0:0|1:0,0:0:0:0:
119,235,55515,2,0,P|161:219|206:214,1,90,2|0,0:0|1:0,0:0:0:0:
288,249,56209,6,0,P|332:244|374:228,1,90,2|0,0:0|1:0,0:0:0:0:
374,138,56902,2,0,P|385:94|415:62,2,90,2|0|2,0:0|1:0|0:0,0:0:0:0:
374,228,57943,1,0,1:0:0:0:
296,183,58290,2,0,B|220:157|194:209|119:183,1,180,2|6,0:0|0:0,0:0:0:0:
80,102,59330,5,0,1:0:0:0:
163,68,59677,2,0,P|229:55|296:57,2,135,2|2|0,0:0|0:0|1:0,0:0:0:0:
80,102,61064,2,0,P|93:144|89:189,1,90,2|0,0:0|1:0,0:0:0:0:
23,250,61758,6,0,P|60:274|105:278,1,90,2|0,0:0|1:0,0:0:0:0:
174,220,62452,2,0,B|250:194|276:246|351:220,1,180,2|2,0:0|0:0,0:0:0:0:
428,173,63492,1,0,1:0:0:0:
395,89,63839,2,0,P|350:81|306:88,1,90,2|4,0:0|0:0,0:0:0:0:
223,123,64533,5,6,0:0:0:0:
140,88,64879,2,0,P|95:81|51:89,2,90,4|2|0,1:0|0:0|1:0,0:0:0:0:
223,123,65920,1,2,0:0:0:0:
223,213,66267,2,0,L|223:303,2,90,4|2|0,1:0|0:0|1:0,0:0:0:0:
223,123,67307,5,2,0:0:0:0:
305,88,67654,2,0,P|349:81|393:89,2,90,4|2|0,1:0|0:0|1:0,0:0:0:0:
223,123,68694,1,2,0:0:0:0:
258,206,69041,2,0,P|265:250|257:294,1,90,0|2,1:0|0:0,0:0:0:0:
224,378,69735,1,0,1:0:0:0:
140,345,70082,6,0,L|50:350,2,90,2|0|2,0:0|1:0|0:0,0:0:0:0:
224,378,71122,1,0,1:0:0:0:
257,294,71469,2,0,P|320:273|384:291,2,135,2|2|0,0:0|0:0|1:0,0:0:0:0:
224,378,72856,5,2,0:0:0:0:
256,192,72943,12,0,75631,0:0:0:0:
211,115,77018,6,0,P|172:167|107:170,2,135,4|4|0,0:0|0:0|0:0,0:0:0:0:
301,115,78405,6,0,P|340:167|405:170,2,135,6|6|0,0:0|0:0|1:0,0:0:0:0:
321,74,79619,1,6,0:0:0:0:
321,74,81180,5,6,0:0:0:0:
244,26,81527,2,0,B|168:0|142:52|67:26,1,180,0|0,1:0|1:0,0:0:0:0:
38,61,82395,2,0,P|49:124|111:139,1,135,2|0,0:0|1:0,0:0:0:0:
201,129,83261,2,0,L|203:218,1,90,2|0,0:0|1:0,0:0:0:0:
280,265,83954,6,0,L|278:354,1,90,2|0,0:0|1:0,0:0:0:0:
364,383,84648,2,0,P|409:336|404:270,1,135,2|6,0:0|0:0,0:0:0:0:
256,192,85255,12,0,88116,0:0:0:0:
