osu file format v14

[General]
AudioFilename: audio.mp3
AudioLeadIn: 0
PreviewTime: -1
Countdown: 0
SampleSet: Soft
StackLeniency: 0.7
Mode: 0
LetterboxInBreaks: 0
WidescreenStoryboard: 0

[Editor]
Bookmarks: 42176
DistanceSpacing: 0.5
BeatDivisor: 4
GridSize: 32
TimelineZoom: 3.799999

[Metadata]
Title:Hopeness
TitleUnicode:Hopeness
Artist:ZAQ
ArtistUnicode:ZAQ
Creator:gxytcgxytc
Version:Insane
Source:
Tags:
BeatmapID:1263400
BeatmapSetID:597644

[Difficulty]
HPDrainRate:7
CircleSize:4.4
OverallDifficulty:7.9
ApproachRate:9
SliderMultiplier:1.6
SliderTickRate:1

[Events]
//Background and Video events
//Break Periods
//Storyboard Layer 0 (Background)
//Storyboard Layer 1 (Fail)
//Storyboard Layer 2 (Pass)
//Storyboard Layer 3 (Foreground)
//Storyboard Sound Samples

[TimingPoints]
499,402.684563758389,4,2,1,30,1,0
7747,402.684563758389,4,2,1,30,1,0
14189,-133.333333333333,4,2,1,30,0,0
17008,-80,4,2,1,30,0,0
17210,-133.333333333333,4,2,1,30,0,0
24659,-133.333333333333,4,2,1,50,0,0
35330,-90.9090909090909,4,2,1,60,0,0
35532,-133.333333333333,4,2,1,60,0,0
36538,-133.333333333333,4,2,1,60,0,0
39961,-133.333333333333,4,2,2,30,0,0
41673,-133.333333333333,4,2,1,30,0,0
42780,-133.333333333333,4,2,2,19,0,0
43183,-133.333333333333,4,2,2,30,0,0
44391,-133.333333333333,4,2,2,19,0,0
44793,-133.333333333333,4,2,1,30,0,0
46404,-133.333333333333,4,2,2,30,0,0
48216,-133.333333333333,4,2,1,30,0,0
52042,-133.333333333333,4,2,1,45,0,0
52444,-133.333333333333,4,2,1,60,0,0
54357,-133.333333333333,4,2,2,30,0,0
54559,-133.333333333333,4,2,1,30,0,0
56069,-76.9230769230769,4,2,1,60,0,1
62109,-38.461538461538,4,2,1,60,0,1
62310,-76.9230769230769,4,2,1,60,0,1
74995,-38.461538461538,4,2,1,60,0,1
75196,-76.9230769230769,4,2,1,60,0,1
85866,-100,4,2,1,30,0,0

[HitObjects]
38,265,499,6,0,L|79:257,1,40,2|0,0:0|0:0,0:0:0:0:
223,275,700,2,0,L|184:283,1,40
346,309,901,2,0,L|387:301,1,40
457,308,1103,1,0,0:0:0:0:
463,236,1203,6,0,P|436:206|410:195,1,40,2|0,0:0|0:0,0:0:0:0:
263,176,1405,2,0,P|282:174|301:167,1,40
404,40,1606,1,0,0:0:0:0:
379,4,1707,1,0,0:0:0:0:
337,18,1808,1,0,0:0:0:0:
337,62,1908,1,0,0:0:0:0:
379,76,2009,1,0,0:0:0:0:
379,76,2109,6,0,P|361:97|356:120,1,40,2|0,0:0|0:0,0:0:0:0:
263,229,2311,2,0,P|279:218|292:203,1,40
140,286,2512,2,0,P|123:297|110:312,2,40
200,98,2814,5,2,0:0:0:0:
188,140,2915,2,0,P|148:179|138:183,1,40
365,190,3116,5,2,0:0:0:0:
335,159,3217,2,0,P|326:141|321:121,1,40
202,287,3418,5,2,0:0:0:0:
244,276,3519,2,0,P|298:292|307:298,1,40
418,299,3720,2,0,L|430:342,3,40,2|0|0|0,0:0|0:0|0:0|0:0,0:0:0:0:
462,144,4123,6,0,L|421:152,1,40,2|0,0:0|0:0,0:0:0:0:
277,134,4324,2,0,L|316:126,1,40
453,50,4525,2,0,L|412:58,1,40
346,29,4727,1,0,0:0:0:0:
275,20,4827,6,0,P|248:26|225:37,1,40,2|0,0:0|0:0,0:0:0:0:
155,176,5029,2,0,P|167:155|170:131,1,40
73,0,5230,1,0,0:0:0:0:
38,11,5331,1,0,0:0:0:0:
38,49,5432,1,0,0:0:0:0:
73,60,5532,1,0,0:0:0:0:
96,30,5633,1,0,0:0:0:0:
96,30,5733,6,0,L|146:37,1,40,2|0,0:0|0:0,0:0:0:0:
246,103,5935,2,0,L|195:94,1,40
335,158,6136,2,0,L|376:167,1,40
427,215,6337,1,0,0:0:0:0:
414,106,6438,2,0,P|406:78|409:44,1,40,2|0,0:0|0:0,0:0:0:0:
387,288,6639,6,0,P|372:309|355:320,3,40,2|0|0|0,0:0|0:0|0:0|0:0,0:0:0:0:
150,317,7042,2,0,P|134:305|125:288,3,40,0|2|0|0,0:0|0:0|0:0|0:0,0:0:0:0:
142,226,7445,1,2,0:3:0:0:
159,164,7545,1,2,0:3:0:0:
177,102,7646,1,2,0:3:0:0:
193,40,7747,6,0,P|235:57|285:49,1,80,12|0,1:2|0:0,0:0:0:0:
364,25,8049,1,0,0:0:0:0:
412,107,8149,1,0,1:0:0:0:
411,119,8250,1,0,0:0:0:0:
410,131,8351,1,0,0:0:0:0:
410,142,8451,2,0,L|425:185,1,40,8|0,1:2|0:0,0:0:0:0:
333,342,8653,5,0,0:0:0:0:
316,324,8753,1,8,0:2:0:0:
294,312,8854,1,0,0:0:0:0:
270,307,8955,2,0,L|278:245,1,40,0|8,1:0|0:2,0:0:0:0:
212,108,9156,2,0,L|206:147,1,40
142,327,9357,6,0,L|101:332,3,40,12|0|0|0,0:2|0:0|0:0|0:0,0:0:0:0:
76,199,9760,2,0,L|117:207,3,40,0|0|0|0,1:0|0:0|1:0|0:0,0:0:0:0:
85,49,10163,5,0,0:0:0:0:
124,29,10263,1,0,0:0:0:0:
167,22,10364,1,8,0:2:0:0:
210,31,10465,1,0,0:0:0:0:
246,55,10565,1,0,1:0:0:0:
253,77,10666,1,8,0:2:0:0:
260,99,10767,1,0,0:0:0:0:
269,120,10867,1,0,1:0:0:0:
139,201,10968,6,0,L|174:183,1,40,8|0,0:2|0:0,0:0:0:0:
300,191,11169,2,0,L|282:245,1,40,0|8,0:0|0:2,0:0:0:0:
185,306,11371,1,0,1:0:0:0:
208,337,11471,1,0,0:0:0:0:
244,353,11572,1,0,0:0:0:0:
283,356,11673,1,0,1:0:0:0:
321,346,11773,6,0,L|352:290,1,40
485,205,11975,2,0,L|459:258,1,40,8|0,0:2|0:0,0:0:0:0:
394,68,12176,1,0,1:0:0:0:
394,68,12277,1,8,0:2:0:0:
394,68,12377,1,0,0:0:0:0:
394,68,12478,1,8,0:2:0:0:
394,68,12579,6,0,P|363:75|320:64,1,40,0|8,0:0|0:2,0:0:0:0:
225,58,12780,2,0,P|200:56|177:62,1,40,0|8,0:0|0:2,0:0:0:0:
70,91,12981,1,0,1:0:0:0:
70,91,13182,5,0,1:0:0:0:
70,91,13283,1,0,0:0:0:0:
70,111,13384,1,0,1:0:0:0:
58,131,13485,1,0,1:0:0:0:
47,161,13585,1,0,0:0:0:0:
47,201,13686,1,0,1:0:0:0:
71,242,13787,1,0,1:0:0:0:
121,266,13887,1,0,1:0:0:0:
184,256,13988,1,0,1:0:0:0:
226,197,14089,1,0,0:0:0:0:
202,121,14189,6,0,B|197:88|197:88|205:51,1,60.0000022888184,8|0,0:2|0:0,0:0:0:0:
365,13,14592,2,0,B|370:46|370:46|362:83,1,60.0000022888184,8|0,0:2|0:0,0:0:0:0:
349,159,14894,1,0,0:0:0:0:
349,159,14995,2,0,L|446:165,1,90.0000034332277,8|0,0:2|0:0,0:0:0:0:
342,284,15398,2,0,L|261:288,1,60.0000022888184,8|0,0:2|0:0,0:0:0:0:
9,207,15800,5,8,0:2:0:0:
9,207,15901,1,0,0:0:0:0:
9,207,16002,1,0,0:0:0:0:
9,207,16102,1,0,0:0:0:0:
0,229,16203,2,0,L|26:332,1,90.0000034332277,8|0,0:2|0:0,0:0:0:0:
191,228,16606,2,0,B|214:186|191:126,1,90.0000034332277,8|0,0:2|0:0,0:0:0:0:
92,69,17008,6,0,L|115:184,1,100,8|2,1:2|0:0,0:0:0:0:
203,75,17310,1,0,0:0:0:0:
203,75,17411,6,0,P|254:92|300:74,1,90.0000034332277,8|0,0:2|0:0,0:0:0:0:
421,73,17814,2,0,L|401:160,1,90.0000034332277,8|0,0:2|0:0,0:0:0:0:
433,293,18216,2,0,L|450:222,1,60.0000022888184,8|0,0:2|0:0,0:0:0:0:
338,330,18619,2,0,P|293:352|270:354,1,60.0000022888185,8|0,0:2|0:0,2:2:0:0:
240,354,18887,1,0,0:0:0:0:
224,351,18955,1,2,0:0:0:0:
210,349,19022,6,0,L|170:340,1,30.0000011444092,10|0,0:2|0:2,0:0:0:0:
72,313,19223,2,0,L|126:299,1,30.0000011444092,8|2,1:2|0:0,0:0:0:0:
246,255,19424,1,8,0:2:0:0:
310,235,19525,2,0,P|325:208|314:160,1,60.0000022888184,2|0,1:2|0:0,0:0:0:0:
139,167,19827,6,0,L|182:154,1,30.0000011444092,8|0,0:2|0:0,0:0:0:0:
388,93,20028,2,0,L|332:93,1,30.0000011444092,0|0,1:0|0:0,0:0:0:0:
164,81,20230,1,8,0:2:0:0:
101,103,20330,2,0,P|55:110|28:99,1,60.0000022888184,4|0,1:2|0:0,0:0:0:0:
164,81,20632,6,0,L|133:192,1,90.0000034332277,8|0,0:2|0:0,0:0:0:0:
99,323,21035,2,0,B|148:300|148:300|194:313,1,90.0000034332277,8|0,0:2|0:0,0:0:0:0:
305,357,21438,2,0,L|276:276,1,60.0000022888184,0|0,1:2|0:0,0:0:0:0:
420,269,21740,2,0,L|374:328,1,60.0000022888184,0|0,1:1|0:0,0:0:0:0:
259,231,22042,2,0,L|310:226,1,30.0000011444092,0|0,1:2|0:0,0:0:0:0:
448,157,22243,6,0,B|463:117|463:117|443:63,1,90.0000034332277,8|0,0:2|0:0,0:0:0:0:
266,5,22646,2,0,B|249:49|249:49|264:89,1,90.0000034332277,8|0,0:2|0:0,0:0:0:0:
378,155,23049,2,0,L|352:232,1,60.0000022888184,0|0,1:0|0:0,0:0:0:0:
231,155,23351,2,0,L|285:153,1,30.0000011444092,0|0,1:0|0:0,0:0:0:0:
325,290,23552,1,0,1:0:0:0:
325,290,23653,2,0,L|289:251,1,30.0000011444092,0|0,1:0|1:0,0:0:0:0:
296,264,23854,5,0,0:0:0:0:
281,260,23955,1,0,0:0:0:0:
262,250,24055,1,0,0:0:0:0:
247,234,24156,1,0,0:0:0:0:
234,210,24257,1,0,0:0:0:0:
231,177,24357,1,0,0:0:0:0:
241,142,24458,1,0,0:0:0:0:
269,114,24559,1,0,0:0:0:0:
308,103,24659,1,0,0:0:0:0:
350,114,24760,1,0,0:0:0:0:
381,146,24861,1,0,0:0:0:0:
391,189,24961,1,0,0:0:0:0:
377,231,25062,1,0,1:0:0:0:
341,259,25163,1,0,1:0:0:0:
296,264,25263,6,0,P|270:113|372:237,1,420.000016021729,0|4,0:0|0:3,0:0:0:0:
58,335,27075,6,0,P|83:310|88:270,1,60.0000022888184,4|0,1:1|0:0,0:0:0:0:
66,210,27377,1,0,0:0:0:0:
27,137,27478,2,0,L|77:111,1,30.0000011444092,0|0,1:0|0:0,0:0:0:0:
77,110,27679,1,0,0:0:0:0:
217,105,27780,2,0,P|177:106|149:98,2,60.0000022888184,0|0|0,1:0|1:0|0:0,0:0:0:0:
362,46,28283,1,0,1:0:0:0:
370,68,28384,1,0,0:0:0:0:
378,90,28485,1,2,0:0:0:0:
385,112,28585,1,0,0:0:0:0:
393,134,28686,6,0,P|427:135|442:137,1,30.0000011444092,8|0,0:2|0:0,0:0:0:0:
273,290,28887,2,0,L|218:289,1,30.0000011444092
369,260,29089,2,0,P|376:298|362:338,1,60.0000022888184,0|0,1:0|0:0,0:0:0:0:
292,168,29391,2,0,P|285:130|299:90,1,60.0000022888184,0|0,1:0|0:0,0:0:0:0:
304,91,29693,1,0,0:0:0:0:
304,91,29793,1,0,0:0:0:0:
149,61,29894,2,0,P|116:80|83:80,1,60.0000022888184,0|2,1:0|0:0,0:0:0:0:
27,57,30196,1,0,1:0:0:0:
59,189,30297,6,0,P|57:231|64:269,1,60.0000022888184,8|0,0:2|0:0,0:0:0:0:
184,183,30599,2,0,L|135:208,2,30.0000011444092,0|0|0,0:0|1:0|0:0,0:0:0:0:
161,344,30901,2,0,L|210:319,2,30.0000011444092,0|0|0,0:0|1:0|0:0,0:0:0:0:
285,313,31203,2,0,P|287:283|285:253,1,60.0000022888184
378,152,31505,2,0,P|371:218|384:246,1,90.0000034332277,0|0,1:0|1:0,0:0:0:0:
454,133,31908,5,0,1:0:0:0:
397,82,32008,1,0,1:0:0:0:
378,152,32109,1,8,0:2:0:0:
300,9,32310,5,8,1:2:0:0:
256,176,32512,1,8,1:2:0:0:
454,133,32814,1,8,1:2:0:0:
454,133,33015,5,0,1:0:0:0:
397,82,33116,1,0,1:0:0:0:
390,104,33216,1,0,1:0:0:0:
383,127,33317,1,4,1:2:0:0:
376,150,33418,1,0,0:0:0:0:
369,172,33518,6,0,L|311:188,1,60.0000022888184,4|0,1:0|0:0,0:0:0:0:
247,239,33820,1,0,0:0:0:0:
131,318,33921,2,0,L|204:301,1,60.0000022888184,0|0,1:0|0:0,0:0:0:0:
247,239,34223,1,0,1:0:0:0:
100,167,34324,2,0,P|98:194|106:220,1,30.0000011444092
219,103,34525,2,0,P|221:76|213:50,1,30.0000011444092,2|0,0:0|0:0,0:0:0:0:
247,239,34726,2,0,P|284:208|291:177,1,60.0000022888184,0|0,1:0|0:0,0:0:0:0:
412,97,35028,1,0,0:0:0:0:
432,81,35129,6,0,P|439:121|446:131,1,45.0000017166138,8|0,0:3|0:0,0:0:0:0:
495,251,35330,2,0,P|501:218|499:185,1,66.0000020141602,2|0,0:3|0:0,0:0:0:0:
388,292,35532,2,0,P|415:318|445:325,1,60.0000022888184,4|0,0:1|0:0,0:0:0:0:
435,324,35834,1,0,0:0:0:0:
287,208,35934,2,0,P|306:206|329:212,1,30.0000011444092,0|0,1:0|0:0,0:0:0:0:
285,334,36136,2,0,P|270:335|255:333,1,30.0000011444092,0|0,1:0|0:0,0:0:0:0:
113,340,36337,2,0,P|118:304|110:278,1,60.0000022888184,0|0,1:0|0:0,0:0:0:0:
111,281,36639,1,0,0:0:0:0:
49,180,36740,5,8,0:2:0:0:
62,153,36840,1,0,0:0:0:0:
74,125,36941,1,2,0:0:0:0:
86,97,37042,1,0,0:0:0:0:
99,70,37142,1,0,1:0:0:0:
113,43,37243,1,0,0:0:0:0:
125,15,37344,2,0,L|175:20,1,30.0000011444092,0|0,0:0|1:0,0:0:0:0:
291,165,37545,5,0,0:0:0:0:
298,194,37646,1,0,0:0:0:0:
295,223,37746,1,0,0:0:0:0:
280,250,37847,1,0,0:0:0:0:
257,270,37948,1,0,1:0:0:0:
229,280,38049,1,0,0:0:0:0:
198,280,38149,2,0,L|158:268,1,30.0000011444092,0|0,1:0|0:0,0:0:0:0:
218,89,38351,5,8,0:2:0:0:
242,46,38451,1,0,0:0:0:0:
264,4,38552,1,8,0:2:0:0:
268,32,38653,1,0,0:0:0:0:
273,61,38753,1,0,1:0:0:0:
279,89,38854,1,0,0:0:0:0:
283,119,38955,5,0,0:0:0:0:
307,76,39055,1,0,1:0:0:0:
329,34,39156,1,0,0:0:0:0:
333,62,39257,1,0,1:0:0:0:
338,91,39357,1,0,1:0:0:0:
344,119,39458,1,0,0:0:0:0:
380,224,39559,6,0,P|361:251|347:260,1,30.0000011444092,0|0,1:0|0:0,0:0:0:0:
219,249,39760,2,0,P|193:235|178:213,1,30.0000011444092,0|0,1:0|1:0,1:0:0:0:
81,102,39961,6,0,L|152:89,1,60.0000022888184,8|8,0:0|0:0,0:0:0:0:
81,102,40565,6,0,L|152:89,1,60.0000022888184,8|0,0:0|0:0,0:0:0:0:
99,189,40969,6,0,L|170:176,1,60.0000022888184,8|0,0:0|0:0,0:0:0:0:
117,282,41371,6,0,L|188:269,1,60.0000022888184,8|0,0:0|0:0,0:0:0:0:
279,309,41673,5,2,0:0:0:0:
391,298,41773,2,0,P|408:284|414:260,1,30.0000011444092,0|2,0:0|0:2,0:0:0:0:
306,142,41975,2,0,P|309:163|327:180,1,30.0000011444092,0|2,0:0|0:0,0:0:0:0:
243,21,42176,2,0,P|223:13|199:20,1,30.0000011444092,0|2,0:0|0:0,0:0:0:0:
64,159,42377,2,0,P|104:140|111:133,1,30.0000011444092,2|0,0:0|0:0,0:0:0:0:
91,148,42579,1,0,0:0:0:0:
195,273,42780,6,0,L|195:280,15,7.50000028610231
226,267,43183,5,0,1:0:0:0:
346,218,43384,1,0,0:0:0:0:
470,174,43585,1,0,1:0:0:0:
345,218,43787,1,0,0:0:0:0:
355,236,43887,1,0,0:0:0:0:
361,255,43988,1,0,1:0:0:0:
358,275,44089,1,0,0:0:0:0:
348,293,44189,1,0,0:0:0:0:
267,125,44391,6,0,L|267:118,15,7.50000028610231,0|0|0|0|0|0|0|0|0|0|0|0|0|0|0|0,1:0|0:0|0:0|0:0|0:0|0:0|0:0|0:0|0:0|0:0|0:0|0:0|0:0|0:0|0:0|0:0,0:0:0:0:
267,117,44793,5,0,0:0:0:0:
400,24,44995,1,2,0:0:0:0:
459,158,45196,2,0,P|454:178|434:207,1,30.0000011444092,0|2,0:0|0:0,0:0:0:0:
228,310,45398,2,0,P|242:310|257:313,1,30.0000011444092,0|2,0:0|0:0,0:0:0:0:
464,315,45599,2,0,P|450:321|434:321,1,30.0000011444092,2|0,0:0|0:0,0:0:0:0:
328,128,45800,2,0,P|324:110|302:84,1,30.0000011444092,2|0,0:0|0:0,0:0:0:0:
144,15,46002,6,0,L|173:10,1,30.0000011444092,0|2,0:0|0:0,0:0:0:0:
239,132,46203,2,0,P|236:151|229:161,1,30.0000011444092,2|0,0:0|0:0,0:0:0:0:
81,102,46404,6,0,L|152:89,1,60.0000022888184,8|8,0:0|0:0,0:0:0:0:
81,102,47008,6,0,L|152:89,1,60.0000022888184,8|0,0:0|0:0,0:0:0:0:
99,189,47412,6,0,L|170:176,1,60.0000022888184,10|0,0:0|0:0,0:0:0:0:
117,282,47814,6,0,L|188:269,1,60.0000022888184,8|0,0:0|0:0,0:0:0:0:
428,290,48216,5,0,1:0:0:0:
359,112,48418,1,0,1:0:0:0:
277,323,48619,1,0,0:0:0:0:
247,318,48720,1,0,0:0:0:0:
220,312,48820,1,0,1:0:0:0:
0,240,49022,5,0,0:0:0:0:
32,225,49122,1,0,0:0:0:0:
64,210,49223,2,0,P|91:179|100:148,1,60.0000022888184,0|0,1:0|0:0,0:0:0:0:
120,53,49525,1,0,0:0:0:0:
187,104,49626,5,8,0:2:0:0:
211,92,49726,1,0,0:0:0:0:
237,85,49827,1,0,0:0:0:0:
264,85,49928,1,0,0:0:0:0:
288,94,50028,2,0,L|336:84,1,30.0000011444092,0|0,1:0|0:0,0:0:0:0:
387,190,50230,1,0,0:0:0:0:
363,185,50330,2,0,L|320:177,1,30.0000011444092,0|0,1:0|0:0,0:0:0:0:
323,267,50532,5,0,0:0:0:0:
323,293,50632,1,8,0:2:0:0:
315,319,50733,1,0,0:0:0:0:
294,336,50834,2,0,P|294:356|288:379,1,30.0000011444092,0|0,1:0|1:0,1:0:0:0:
136,272,51035,2,0,P|136:252|142:229,1,30.0000011444092,0|0,1:0|1:0,1:0:0:0:
256,201,51236,5,0,0:0:0:0:
244,192,51337,1,0,0:0:0:0:
256,180,51438,1,0,0:0:0:0:
265,192,51538,1,0,0:0:0:0:
256,212,51639,5,0,1:0:0:0:
233,192,51740,1,0,0:0:0:0:
256,169,51841,1,0,0:0:0:0:
276,192,51941,1,0,1:0:0:0:
256,224,52042,5,0,1:0:0:0:
221,192,52143,1,0,1:0:0:0:
256,157,52244,1,0,1:0:0:0:
288,192,52344,1,0,1:0:0:0:
256,237,52444,5,8,0:3:0:0:
207,192,52545,1,0,0:0:0:0:
256,143,52646,1,8,1:2:0:0:
301,192,52746,1,0,0:0:0:0:
256,192,52847,12,2,54458,0:0:0:0:
209,137,55062,5,0,0:0:0:0:
170,83,55263,5,0,0:0:0:0:
107,103,55464,5,0,0:0:0:0:
107,169,55666,5,0,0:0:0:0:
170,190,55867,5,0,0:0:0:0:
209,137,56069,6,0,P|279:140|329:117,1,103.999995239258,8|0,0:2|0:0,0:0:0:0:
418,82,56371,1,0,0:0:0:0:
437,59,56471,2,0,L|422:177,1,103.999995239258,0|0,1:0|0:0,0:0:0:0:
421,301,56773,1,0,1:0:0:0:
406,329,56874,2,0,P|366:333|340:328,1,51.999997619629
230,253,57075,2,0,P|207:250|172:258,1,51.999997619629
12,304,57277,1,0,1:0:0:0:
39,332,57377,2,0,P|81:337|99:333,2,51.999997619629
118,155,57679,6,0,P|128:215|112:276,1,103.999995239258,8|0,0:2|0:0,0:0:0:0:
40,208,57981,1,0,0:0:0:0:
37,125,58082,2,0,P|68:91|83:84,1,51.999997619629,0|0,1:0|0:0,0:0:0:0:
236,138,58283,1,0,0:0:0:0:
235,163,58384,1,0,1:0:0:0:
238,188,58485,6,0,P|257:197|292:201,1,51.999997619629,2|0,0:0|0:0,0:0:0:0:
444,116,58686,2,0,P|425:107|390:103,1,51.999997619629,2|0,0:0|0:0,0:0:0:0:
218,200,58887,2,0,P|241:211|284:215,1,51.999997619629,2|0,1:2|0:0,0:0:0:0:
470,111,59088,2,0,P|446:99|403:95,1,51.999997619629,2|0,0:0|0:0,0:0:0:0:
435,266,59290,6,0,P|476:217|478:170,1,103.999995239258,0|0,1:0|0:0,0:0:0:0:
493,100,59592,1,0,0:0:0:0:
493,100,59693,2,0,P|487:69|491:37,1,51.999997619629,0|0,1:0|0:0,0:0:0:0:
345,32,59894,1,0,0:0:0:0:
357,64,59995,1,0,1:0:0:0:
360,97,60095,2,0,P|356:127|366:178,1,51.999997619629,0|0,0:0|0:0,0:0:0:0:
434,257,60297,2,0,P|439:289|430:323,1,51.999997619629
255,338,60498,2,0,P|240:285|260:218,1,103.999995239258,0|0,1:0|0:0,0:0:0:0:
249,237,60800,1,0,0:0:0:0:
249,237,60901,6,0,L|305:231,1,51.999997619629,8|0,0:3|0:0,0:0:0:0:
195,160,61102,2,0,L|246:153,1,51.999997619629
145,82,61304,2,0,L|200:75,1,51.999997619629,0|0,1:0|0:0,0:0:0:0:
143,166,61505,2,0,L|198:159,1,51.999997619629
140,253,61706,2,0,L|195:246,1,51.999997619629,8|0,0:3|0:0,0:0:0:0:
134,337,61908,2,0,L|189:330,1,51.999997619629,0|0,1:3|0:0,0:0:0:0:
140,253,62109,6,0,L|195:246,1,51.999997619629,0|0,1:0|0:0,0:0:0:0:
143,166,62210,2,0,L|198:159,1,51.999997619629,0|0,1:0|0:0,0:0:0:0:
145,82,62310,2,0,L|200:75,1,51.999997619629,0|0,1:0|0:0,0:0:0:0:
373,127,62512,6,0,P|314:130|261:91,1,103.999995239258,8|0,0:2|0:0,0:0:0:0:
276,30,62814,1,0,0:0:0:0:
276,30,62914,1,0,1:0:0:0:
451,220,63116,1,0,0:0:0:0:
451,220,63216,1,0,0:0:0:0:
451,220,63317,2,0,P|457:253|452:274,1,51.999997619629,8|0,0:3|0:0,0:0:0:0:
238,310,63518,2,0,P|197:318|185:331,1,51.999997619629
341,345,63720,2,0,P|343:289|318:233,1,103.999995239258,0|0,1:0|0:0,0:0:0:0:
326,244,64022,1,0,0:0:0:0:
326,244,64122,5,8,0:2:0:0:
113,101,64324,1,0,0:0:0:0:
113,101,64424,1,0,0:0:0:0:
113,101,64525,2,0,P|119:75|134:54,1,51.999997619629,0|0,1:0|0:0,0:0:0:0:
182,246,64726,2,0,P|176:279|152:313,1,51.999997619629
121,180,64928,2,0,L|243:159,1,103.999995239258,8|0,0:3|0:0,0:0:0:0:
296,199,65230,1,0,0:0:0:0:
296,199,65330,1,0,1:0:0:0:
296,199,65431,1,0,0:0:0:0:
296,199,65532,1,0,0:0:0:0:
296,199,65632,1,0,0:0:0:0:
296,199,65733,6,0,L|365:184,1,51.999997619629,8|0,0:3|0:0,0:0:0:0:
331,34,65934,2,0,P|371:65|386:117,2,103.999995239258,0|0|0,1:0|1:0|0:0,3:0:0:0:
260,56,66438,1,0,1:0:0:0:
192,81,66538,1,0,0:0:0:0:
123,105,66639,6,0,P|116:130|99:150,1,51.999997619629
48,334,66840,1,0,0:0:0:0:
48,334,66941,2,0,P|69:298|94:282,1,51.999997619629
180,312,67142,1,2,0:0:0:0:
374,64,67344,5,0,0:0:0:0:
334,343,67545,1,0,0:0:0:0:
162,64,67746,1,0,0:0:0:0:
426,264,67948,1,0,0:0:0:0:
146,317,68149,1,0,0:0:0:0:
306,55,68350,1,0,0:0:0:0:
373,351,68552,1,0,0:0:0:0:
162,108,68753,1,0,0:0:0:0:
162,108,68854,1,0,0:0:0:0:
162,108,68955,6,0,P|154:150|161:175,1,51.999997619629
145,312,69156,2,0,P|148:341|136:375,1,51.999997619629
65,233,69357,2,0,P|45:188|52:120,1,103.999995239258
81,36,69659,1,0,0:0:0:0:
81,36,69760,2,0,P|115:29|145:36,1,51.999997619629
290,60,69961,2,0,P|264:67|239:65,1,51.999997619629
429,44,70163,1,0,0:0:0:0:
413,72,70263,2,0,P|412:106|417:124,2,51.999997619629
485,155,70565,6,0,P|433:198|377:188,1,103.999995239258
327,184,70867,1,0,0:0:0:0:
256,163,70968,2,0,P|215:173|191:187,1,51.999997619629
66,324,71169,1,0,0:0:0:0:
91,319,71269,1,0,0:0:0:0:
115,309,71371,2,0,P|123:277|115:237,1,51.999997619629
60,114,71572,2,0,P|52:146|60:186,1,51.999997619629
189,360,71773,2,0,P|197:328|189:288,1,51.999997619629
136,41,71974,2,0,P|129:65|129:91,1,51.999997619629
259,219,72176,6,0,P|300:175|298:130,1,103.999995239258
253,76,72478,1,0,0:0:0:0:
125,169,72579,2,0,L|229:150,1,103.999995239258
298,133,72881,1,0,0:0:0:0:
453,40,72981,2,0,P|449:80|430:109,1,51.999997619629
360,259,73183,2,0,P|363:231|374:212,1,51.999997619629
448,327,73384,2,0,L|334:346,1,103.999995239258
120,324,73787,6,0,P|82:283|85:225,1,103.999995239258
218,142,74089,1,0,0:0:0:0:
218,142,74189,2,0,L|157:171,1,51.999997619629
209,230,74391,2,0,L|148:259,1,51.999997619629
120,324,74592,2,0,P|82:283|85:225,1,103.999995239258
228,56,74995,6,0,L|167:85,1,51.999997619629
218,142,75095,2,0,L|157:171,1,51.999997619629
209,230,75196,2,0,L|150:257,1,51.999997619629
79,337,75398,6,0,P|91:277|69:220,1,103.999995239258
79,236,75700,1,0,0:0:0:0:
79,47,75800,2,0,P|91:107|69:164,1,103.999995239258
79,147,76102,1,0,0:0:0:0:
195,185,76203,2,0,P|238:190|265:177,1,51.999997619629
342,142,76404,2,0,P|369:138|396:148,1,51.999997619629
479,166,76606,2,0,P|452:83|474:33,1,103.999995239258
488,317,77008,6,0,P|440:338|379:333,1,103.999995239258
326,299,77310,1,0,0:0:0:0:
395,163,77411,2,0,L|392:273,1,103.999995239258
389,339,77713,1,0,0:0:0:0:
319,247,77814,2,0,L|326:307,1,51.999997619629
245,164,78015,2,0,L|252:224,1,51.999997619629
172,128,78216,2,0,P|243:80|296:90,1,103.999995239258
257,79,78518,1,0,0:0:0:0:
257,79,78619,5,0,0:0:0:0:
365,227,78820,1,0,0:0:0:0:
181,246,79022,1,0,0:0:0:0:
257,79,79223,5,0,0:0:0:0:
283,86,79324,1,0,0:0:0:0:
307,93,79424,1,0,3:0:0:0:
332,274,79625,1,0,3:0:0:0:
158,199,79827,1,0,3:0:0:0:
395,122,80028,1,0,0:0:0:0:
255,322,80230,5,0,0:0:0:0:
208,74,80431,1,0,0:0:0:0:
385,302,80632,1,0,0:0:0:0:
137,215,80834,1,0,0:0:0:0:
399,72,81035,1,0,0:0:0:0:
221,300,81236,1,0,0:0:0:0:
175,50,81438,1,0,0:0:0:0:
388,291,81639,1,0,0:0:0:0:
120,333,81840,5,0,0:0:0:0:
109,315,81941,1,0,0:0:0:0:
105,294,82042,1,0,0:0:0:0:
103,273,82142,1,0,0:0:0:0:
106,252,82243,1,0,0:0:0:0:
114,232,82344,1,0,0:0:0:0:
132,98,82444,5,0,0:0:0:0:
151,90,82545,1,0,0:0:0:0:
170,82,82646,1,0,0:0:0:0:
188,71,82746,1,0,0:0:0:0:
205,59,82847,1,0,0:0:0:0:
220,45,82948,1,0,0:0:0:0:
365,45,83049,5,0,0:0:0:0:
385,50,83149,1,0,0:0:0:0:
403,60,83250,1,0,0:0:0:0:
417,74,83351,1,0,0:0:0:0:
428,91,83451,1,0,0:0:0:0:
433,111,83552,1,0,0:0:0:0:
419,230,83653,5,0,0:0:0:0:
415,250,83753,1,0,0:0:0:0:
413,270,83854,1,0,0:0:0:0:
415,290,83955,1,0,0:0:0:0:
291,332,84055,5,0,0:0:0:0:
298,312,84156,1,0,0:0:0:0:
298,291,84257,1,0,0:0:0:0:
292,271,84357,1,0,0:0:0:0:
286,250,84458,2,0,L|297:181,3,51.999997619629
210,93,84861,5,0,0:0:0:0:
164,110,84961,1,0,0:0:0:0:
177,151,85062,1,0,0:0:0:0:
223,136,85163,1,0,0:0:0:0:
143,251,85263,5,0,0:0:0:0:
140,276,85364,1,0,0:0:0:0:
147,300,85465,1,0,0:0:0:0:
162,320,85565,1,0,0:0:0:0:
183,335,85666,1,0,0:0:0:0:
207,343,85767,1,0,0:0:0:0:
357,305,85867,5,0,0:0:0:0:
349,286,85968,1,0,0:0:0:0:
343,266,86069,1,0,0:0:0:0:
343,246,86169,1,0,0:0:0:0:
347,226,86270,1,0,0:0:0:0:
358,209,86371,1,0,0:0:0:0:
285,98,86471,5,0,0:0:0:0:
271,83,86572,1,0,0:0:0:0:
279,65,86672,1,0,0:0:0:0:
300,64,86773,1,0,0:0:0:0:
309,81,86874,1,0,0:0:0:0:
256,192,86975,12,0,88283,0:0:0:0:
