osu file format v14

[General]
AudioFilename: Extra Revolution.mp3
AudioLeadIn: 0
PreviewTime: 59656
Countdown: 0
SampleSet: Normal
StackLeniency: 0.7
Mode: 0
LetterboxInBreaks: 0
WidescreenStoryboard: 1

[Editor]
DistanceSpacing: 0.5
BeatDivisor: 4
GridSize: 4
TimelineZoom: 2

[Metadata]
Title:Extra Revolution (TV Size)
TitleUnicode:Extra Revolution (TV Size)
Artist:ZAQ
ArtistUnicode:ZAQ
Creator:- G I D Z -
Version:Extra
Source:Yuusha ni Narenakatta Ore wa Shibushibu Shuushoku wo Ketsui Shimashita
Tags:Opening OP Karia Yu-Shibu JUDYDANNY GIDZ -_G_I_D_Z_-
BeatmapID:331905
BeatmapSetID:131849

[Difficulty]
HPDrainRate:7
CircleSize:4
OverallDifficulty:7
ApproachRate:9
SliderMultiplier:2
SliderTickRate:1

[Events]
//Background and Video events
0,0,"BG.jpg",0,0
Video,0,"Yusi-bu OP vid.flv"
//Break Periods
//Storyboard Layer 0 (Background)
//Storyboard Layer 1 (Fail)
//Storyboard Layer 2 (Pass)
//Storyboard Layer 3 (Foreground)
//Storyboard Sound Samples

[TimingPoints]
745,310.880829015544,4,1,0,60,1,0
3232,-133.333333333333,4,2,1,50,0,0
15200,-100,4,1,1,65,0,0
34941,-100,4,1,1,60,0,0
35252,-100,4,1,1,65,0,0
43024,-100,4,1,1,45,0,0
43335,-100,4,1,1,50,0,0
43646,-100,4,1,1,55,0,0
43957,-100,4,1,1,60,0,0
44268,-100,4,1,1,70,0,0
44890,-100,4,1,1,75,0,0
55460,-100,4,3,1,55,0,0
59656,-200,4,3,1,55,0,0
60123,-100,4,3,1,55,0,0
60434,-100,4,1,1,60,0,0
60745,-100,4,1,1,80,0,1
70382,-200,4,1,1,80,0,1
70693,-100,4,1,1,80,0,1
78776,-100,4,1,1,65,0,0
79708,-100,4,1,1,65,0,0
80019,-66.6666666666667,4,1,1,65,0,0
80330,-100,4,1,1,65,0,0
92143,-100,4,2,1,5,0,0

[Colours]
Combo1 : 64,0,128
Combo2 : 0,202,0
Combo3 : 18,124,255
Combo4 : 242,24,57
Combo5 : 255,128,0
Combo6 : 255,255,0

[HitObjects]
40,104,745,6,0,P|120:64|228:92,1,200
140,208,1211,1,0,0:0:0:0:
260,316,1366,1,0,0:0:0:0:
368,192,1522,1,0,0:0:0:0:
376,180,1833,1,0,0:0:0:0:
256,192,1910,12,0,2921,0:0:0:0:
160,112,3232,6,0,P|92:132|52:200,1,150.000005722046,4|8,0:0|0:0,0:0:0:0:
148,208,3698,2,0,P|232:176|232:96,1,150.000005722046
192,36,4164,1,8,0:0:0:0:
336,40,4320,2,0,P|408:64|440:132,1,150.000005722046
336,144,4786,2,0,P|304:172|296:224,2,75.0000028610231,8|0|0,0:0|0:0|0:0,0:0:0:0:
468,260,5408,5,8,0:0:0:0:
380,344,5563,1,0,0:0:0:0:
296,256,5719,1,8,0:0:0:0:
416,260,6029,5,8,0:0:0:0:
328,344,6184,1,0,0:0:0:0:
244,256,6340,1,8,0:0:0:0:
41,103,6651,6,0,P|71:82|108:76,1,75.0000028610231,8|0,0:0|0:0,0:0:0:0:
104,164,6962,2,0,P|72:216|12:240,1,112.500004291535
28,280,7273,2,0,P|68:276|112:300,1,75.0000028610231,8|0,0:0|0:0,0:0:0:0:
196,332,7584,1,0,0:0:0:0:
316,336,7739,2,0,P|296:292|296:252,1,75.0000028610231,0|8,0:0|0:0,0:0:0:0:
400,272,8050,1,0,0:0:0:0:
132,88,8206,1,4,0:0:0:0:
432,56,8517,5,0,0:0:0:0:
336,132,8673,1,0,0:0:0:0:
252,44,8828,1,8,0:0:0:0:
472,56,9138,5,0,0:0:0:0:
376,132,9294,1,0,0:0:0:0:
292,44,9449,1,8,0:0:0:0:
444,260,9760,6,0,P|476:296|484:336,1,75.0000028610231
392,336,10071,1,0,0:0:0:0:
260,196,10382,1,8,0:0:0:0:
260,196,10693,1,0,0:0:0:0:
256,192,10848,12,4,11781,0:0:0:0:
132,288,12092,5,2,2:0:0:0:
256,84,12247,1,2,2:0:0:0:
380,288,12403,1,2,2:0:0:0:
128,156,12558,1,2,2:0:0:0:
392,156,12713,1,2,2:0:0:0:
256,324,12869,1,2,2:0:0:0:
256,84,13024,1,2,2:0:0:0:
256,192,13180,12,0,15200,0:0:0:0:
256,192,15356,5,12,0:0:0:0:
112,88,15667,6,0,P|48:152|64:260,1,200,4|8,0:0|0:0,0:0:0:0:
152,192,16133,1,0,0:0:0:0:
256,348,16289,1,0,0:0:0:0:
256,192,16444,1,8,0:0:0:0:
152,344,16599,1,0,0:0:0:0:
352,248,16755,6,0,P|344:128|264:84,1,200
136,172,17221,1,8,0:0:0:0:
256,192,17377,1,0,0:0:0:0:
212,24,17532,2,0,P|167:45|128:76,1,100
256,192,17843,1,8,0:0:0:0:
408,88,17998,1,0,0:0:0:0:
444,260,18154,6,0,P|412:296|340:312,1,100,4|0,0:0|0:0,0:0:0:0:
256,192,18465,1,8,0:0:0:0:
96,124,18620,1,0,0:0:0:0:
76,300,18776,1,0,0:0:0:0:
172,160,18931,1,0,0:0:0:0:
76,300,19086,2,0,P|108:332|160:336,1,100,8|0,0:0|0:0,0:0:0:0:
296,300,19397,5,0,0:0:0:0:
440,180,19553,1,0,0:0:0:0:
464,296,19708,1,8,0:0:0:0:
328,180,19864,1,0,0:0:0:0:
296,300,20019,2,0,B|228:276|200:228|200:228|192:184|224:156,1,200
252,132,20408,1,0,0:0:0:0:
268,96,20485,1,0,0:0:0:0:
264,56,20563,1,0,0:0:0:0:
232,32,20641,5,4,0:0:0:0:
400,52,20796,1,8,0:0:0:0:
304,180,20952,1,8,0:0:0:0:
232,32,21107,1,0,0:0:0:0:
400,52,21263,2,0,P|440:88|464:132,1,100
304,180,21574,1,8,0:0:0:0:
140,12,21729,1,0,0:0:0:0:
140,12,22040,6,0,P|155:68|143:120,1,100,0|8,0:0|0:0,0:0:0:0:
24,152,22351,1,0,0:0:0:0:
120,272,22506,1,0,0:0:0:0:
224,164,22662,1,0,0:0:0:0:
24,240,22817,1,8,0:0:0:0:
124,360,22972,1,0,0:0:0:0:
192,204,23128,5,4,0:0:0:0:
52,340,23283,1,0,0:0:0:0:
292,284,23439,1,8,0:0:0:0:
144,196,23594,2,0,P|98:175|49:182,1,100
132,344,23905,1,8,0:0:0:0:
312,308,24061,1,0,0:0:0:0:
444,184,24216,6,0,P|448:112|320:100,1,200,4|0,0:0|0:0,0:0:0:0:
312,120,24605,1,0,0:0:0:0:
304,168,24682,1,8,0:0:0:0:
296,268,24838,2,0,P|188:320|204:196,1,300,0|12,0:0|0:0,0:0:0:0:
72,72,25615,6,0,B|108:112|168:132|168:132|120:156|104:196,1,200,0|8,0:0|0:0,0:0:0:0:
44,248,26081,1,0,0:0:0:0:
32,344,26237,2,0,P|80:340|136:284,1,100
184,216,26548,1,8,0:0:0:0:
320,344,26703,6,0,B|292:320|224:288|224:288|268:260|264:208,1,200
268,88,27169,1,8,0:0:0:0:
372,52,27325,2,0,B|392:132|336:172|336:172|336:240,1,200
376,336,27791,1,8,0:0:0:0:
489,178,27947,1,8,0:0:0:0:
336,237,28102,6,0,P|240:240|204:144,1,200,0|8,0:0|0:0,0:0:0:0:
304,140,28568,2,0,B|352:220|268:248|332:344,1,200
416,272,29035,1,8,0:0:0:0:
440,168,29190,6,0,P|396:60|320:32,1,200
144,96,29656,1,8,0:0:0:0:
320,156,29812,1,0,0:0:0:0:
128,192,29967,1,0,0:0:0:0:
256,32,30123,1,0,0:0:0:0:
280,232,30278,1,8,0:0:0:0:
144,96,30434,1,0,0:0:0:0:
284,76,30589,6,0,B|320:28|368:20|368:20|424:28|456:72,1,200,0|8,0:0|0:0,0:0:0:0:
412,248,31055,2,0,B|340:207|332:128|332:128|368:92,1,200
468,156,31522,1,8,0:0:0:0:
308,304,31677,1,0,0:0:0:0:
120,248,31833,6,0,B|148:220|208:256|208:256|236:208|292:196,1,200,0|8,0:0|0:0,0:0:0:0:
108,172,32299,2,0,B|36:188|16:284|100:320,1,200
296,232,32765,1,8,0:0:0:0:
120,248,32921,1,8,0:0:0:0:
412,320,33076,6,0,B|376:284|376:284|405:226|370:174|370:174|414:137,1,200,0|8,0:0|0:0,0:0:0:0:
512,268,33542,1,0,0:0:0:0:
464,100,33698,1,0,0:0:0:0:
464,200,33853,1,0,0:0:0:0:
384,40,34009,1,8,0:0:0:0:
280,176,34164,6,0,P|332:268|432:276,1,200
432,356,34631,2,0,P|488:324|492:280,1,100,8|0,0:0|0:0,0:0:0:0:
456,200,34941,1,8,1:3:0:0:
432,192,35019,1,8,1:3:0:0:
413,174,35097,1,8,1:3:0:0:
408,149,35175,1,8,1:3:0:0:
426,132,35252,1,8,1:3:0:0:
450,125,35330,1,8,1:3:0:0:
457,101,35408,1,8,1:3:0:0:
449,77,35485,1,8,1:3:0:0:
425,68,35563,6,0,B|353:68|301:144|301:144|265:100,1,200,4|8,3:3|0:0,0:0:0:0:
270,106,36029,1,0,0:0:0:0:
108,44,36340,1,0,0:0:0:0:
36,188,36651,1,0,0:0:0:0:
36,188,36962,5,0,0:0:0:0:
368,48,37118,1,8,0:0:0:0:
500,360,37428,1,0,0:0:0:0:
500,360,37506,1,0,0:0:0:0:
500,360,37584,1,0,0:0:0:0:
312,284,37739,1,8,0:0:0:0:
464,152,37895,1,8,0:0:0:0:
368,44,38050,6,0,L|260:16,1,100
220,88,38361,2,0,L|335:119,1,100,8|0,0:0|0:0,0:0:0:0:
416,136,38672,1,0,0:0:0:0:
312,296,38827,1,0,0:0:0:0:
120,300,38983,1,8,0:0:0:0:
419,324,39138,6,0,P|316:184|204:327,1,400,2|2,0:0|0:0,0:0:0:0:
32,320,40071,2,2,P|44:224|128:136,1,200
348,148,40537,5,2,0:0:0:0:
220,32,40693,1,0,0:0:0:0:
216,176,40848,1,8,0:0:0:0:
352,40,41004,1,0,0:0:0:0:
216,176,41159,5,2,0:0:0:0:
84,28,41314,1,0,0:0:0:0:
20,192,41470,1,8,0:0:0:0:
216,176,41625,1,0,0:0:0:0:
120,192,41781,6,2,B|144:236|100:284|100:284|104:344,1,150,2|0,0:0|2:2,0:0:0:0:
192,312,42092,2,2,B|240:300|272:324|272:324|308:304|348:328,1,150,10|0,0:0|2:2,0:0:0:0:
424,344,42403,2,2,B|444:316|424:272|424:272|440:240|420:192|420:192|444:152,1,200,2|8,0:0|2:2,0:0:0:0:
484,40,43024,5,8,3:3:0:0:
484,40,43180,1,8,3:3:0:0:
336,144,43335,1,8,3:3:0:0:
336,144,43491,1,8,3:3:0:0:
160,172,43646,1,8,3:3:0:0:
160,172,43801,1,8,3:3:0:0:
296,48,43957,1,8,3:3:0:0:
296,48,44112,1,8,3:3:0:0:
148,44,44268,5,8,3:3:0:0:
103,66,44346,1,8,3:3:0:0:
69,102,44423,1,8,3:3:0:0:
44,145,44501,1,8,3:3:0:0:
44,195,44579,1,8,3:3:0:0:
62,240,44656,1,8,3:3:0:0:
97,275,44734,1,8,3:3:0:0:
142,295,44812,1,8,3:3:0:0:
192,298,44890,6,8,L|244:298,1,50,8|8,3:3|3:3,3:3:0:0:
304,164,45045,2,8,L|252:164,1,50,10|8,3:3|3:3,3:3:0:0:
352,292,45200,2,8,L|408:292,1,50,8|8,3:3|3:3,3:3:0:0:
472,164,45356,2,8,L|408:164,1,50,8|8,3:3|3:3,3:3:0:0:
402,292,45511,5,12,0:3:0:0:
304,36,45667,1,12,0:3:0:0:
164,236,45822,1,12,0:3:0:0:
422,164,45978,1,12,0:3:0:0:
100,80,46289,5,0,2:2:0:0:
380,348,46444,1,0,2:2:0:0:
220,40,46755,5,4,0:3:0:0:
416,160,46910,1,4,0:3:0:0:
200,240,47066,1,4,0:3:0:0:
412,44,47221,1,12,0:3:0:0:
80,352,47532,5,0,2:2:0:0:
412,44,47688,1,0,2:2:0:0:
184,156,47998,5,4,0:3:0:0:
300,228,48154,1,4,0:3:0:0:
76,84,48309,1,12,0:3:0:0:
416,300,48465,1,4,0:3:0:0:
452,48,48776,5,0,2:2:0:0:
84,324,48931,1,0,2:2:0:0:
288,40,49242,5,8,3:3:0:0:
288,40,49397,1,8,3:3:0:0:
336,220,49553,1,8,3:3:0:0:
336,220,49708,1,8,3:3:0:0:
200,104,49864,1,8,3:3:0:0:
200,104,50019,1,8,3:3:0:0:
64,220,50175,1,8,1:3:0:0:
64,220,50252,1,8,1:3:0:0:
64,220,50330,1,8,1:3:0:0:
64,220,50485,6,0,B|88:292|192:284|192:284|160:328,1,200,0|8,0:0|0:0,0:0:0:0:
76,352,50952,1,0,0:0:0:0:
276,364,51107,2,0,B|316:296|316:296|280:220|336:172,1,200,0|8,0:0|0:0,0:0:0:0:
424,248,51574,1,0,0:0:0:0:
492,88,51729,6,0,B|440:28|356:32|312:92,1,200,0|8,0:0|0:0,0:0:0:0:
216,188,52195,1,0,0:0:0:0:
20,100,52351,2,0,B|56:40|160:28|192:88,1,200,0|8,0:0|0:0,0:0:0:0:
208,124,52739,1,0,0:0:0:0:
208,124,52817,1,0,0:0:0:0:
144,320,52972,6,0,B|184:340|184:340|268:308|268:216,1,200,0|8,0:0|0:0,0:0:0:0:
156,208,53439,1,0,0:0:0:0:
344,52,53594,2,0,B|384:32|384:32|468:64|468:156,1,200,0|8,0:0|0:0,0:0:0:0:
388,224,54061,1,0,0:0:0:0:
272,136,54216,5,0,0:0:0:0:
168,328,54371,1,0,0:0:0:0:
88,124,54527,1,8,0:0:0:0:
244,204,54682,1,0,0:0:0:0:
44,272,54838,1,0,0:0:0:0:
168,120,54993,1,8,3:3:0:0:
168,328,55149,1,8,3:3:0:0:
56,188,55304,1,8,3:3:0:0:
390,231,55460,6,2,L|444:148,1,100,10|2,0:0|0:0,0:0:0:0:
148,132,55770,2,2,L|56:88,1,100,10|2,0:0|0:0,0:0:0:0:
299,274,56081,2,2,L|399:226,1,100,10|2,0:0|0:0,0:0:0:0:
120,204,56392,2,2,L|12:204,1,100,10|2,0:0|0:0,0:0:0:0:
364,136,56703,2,2,L|464:136,1,100,10|2,0:0|0:0,0:0:0:0:
132,80,57014,2,2,L|32:80,1,100,10|2,0:0|0:0,0:0:0:0:
375,275,57325,2,2,L|452:340,1,100,10|2,0:0|0:0,0:0:0:0:
132,79,57636,2,2,P|214:37|268:100,1,150,10|0,0:0|0:0,0:0:0:0:
264,100,57947,5,4,0:0:0:0:
256,192,58024,12,0,59501,0:0:0:0:
152,48,59656,6,0,B|148:72|164:96|164:96|152:124|160:144,1,100
88,120,60123,6,0,P|88:168|132:212,1,100
196,216,60434,6,0,B|184:272|132:280|132:280|148:340|228:356,1,200,0|12,0:0|0:0,0:0:0:0:
317,349,60900,2,0,B|372:340|388:280|388:280|336:272|324:216,1,200
260,280,61366,1,8,0:0:0:0:
312,104,61522,6,0,P|400:64|488:104,1,200
512,136,61910,1,0,0:0:0:0:
512,136,61988,1,8,0:0:0:0:
400,192,62143,1,0,0:0:0:0:
252,152,62299,1,0,0:0:0:0:
112,212,62454,1,0,0:0:0:0:
280,276,62610,1,8,0:0:0:0:
168,152,62765,1,0,0:0:0:0:
304,288,62921,6,0,P|352:252|372:200,1,100
476,60,63232,2,0,P|432:40|384:64,1,100,8|0,0:0|0:0,0:0:0:0:
240,172,63542,1,0,0:0:0:0:
96,76,63698,1,0,0:0:0:0:
264,32,63853,1,8,0:0:0:0:
176,228,64009,6,0,B|240:280|304:228|304:228|344:272,1,200
396,340,64475,1,8,0:0:0:0:
128,40,64631,1,0,0:0:0:0:
40,216,64786,1,0,0:0:0:0:
240,176,64941,2,0,P|256:120|232:64,2,100,0|8|0,0:0|0:0|0:0,0:0:0:0:
144,120,65408,6,0,P|88:120|48:144,1,100
80,260,65719,1,8,0:0:0:0:
180,328,65874,1,0,0:0:0:0:
384,176,66029,2,0,P|436:152|500:152,1,100
464,256,66340,1,8,0:0:0:0:
404,348,66496,6,0,B|352:312|356:260|356:260|304:236|296:168,1,200
180,104,66962,2,0,P|156:128|148:168,1,50,2|0,0:0|2:2,0:0:0:0:
220,168,67118,2,0,B|180:236|112:208|112:208|48:204|64:160,1,200
64,132,67506,1,0,0:0:0:0:
64,132,67584,1,8,0:0:0:0:
288,28,67895,5,8,3:3:0:0:
400,184,68050,1,8,3:3:0:0:
180,88,68206,1,8,2:1:0:0:
180,88,68283,1,8,2:1:0:0:
180,88,68361,1,8,2:1:0:0:
400,184,68517,1,8,3:3:0:0:
120,276,68672,1,8,3:3:0:0:
268,236,68827,1,8,2:1:0:0:
268,236,68905,1,8,2:1:0:0:
268,236,68983,1,8,2:1:0:0:
444,364,69138,5,2,2:2:0:0:
328,304,69294,1,2,2:2:0:0:
448,256,69449,1,10,2:2:0:0:
332,196,69605,1,2,2:2:0:0:
456,160,69760,1,2,2:2:0:0:
336,112,69915,1,2,2:2:0:0:
456,60,70071,1,10,2:2:0:0:
332,24,70226,1,2,2:2:0:0:
232,80,70382,6,0,P|196:88|160:80,1,75,0|0,0:0|2:2,0:0:0:0:
184,12,70693,6,0,B|76:-20|36:148|172:156|172:156|136:176,1,300,12|0,0:0|0:0,0:0:0:0:
40,272,71314,1,8,0:0:0:0:
202,309,71470,2,0,B|142:361|54:309|54:309|34:257,1,200
160,80,71936,1,8,0:0:0:0:
40,272,72092,1,0,0:0:0:0:
212,184,72247,2,0,B|260:204|312:192|312:192|356:216|408:208,1,200
440,212,72636,1,0,0:0:0:0:
440,212,72713,1,0,0:0:0:0:
200,304,72869,5,0,0:0:0:0:
260,88,73024,1,0,0:0:0:0:
24,120,73180,1,8,0:0:0:0:
292,88,73335,1,0,0:0:0:0:
0,120,73491,1,0,0:0:0:0:
320,84,73646,1,0,0:0:0:0:
160,176,73801,2,0,P|172:224|224:240,1,100,8|0,0:0|0:0,0:0:0:0:
284,232,74035,1,0,0:0:0:0:
348,208,74112,6,0,B|380:184|428:204|428:204|452:180,1,100
256,48,74423,1,8,0:0:0:0:
56,192,74579,1,0,0:0:0:0:
260,328,74734,2,0,B|312:332|356:308|356:308|404:332|460:332,1,200,0|8,0:0|0:0,0:0:0:0:
496,340,75123,1,0,0:0:0:0:
496,340,75200,1,0,0:0:0:0:
184,220,75356,6,0,P|132:220|92:244,1,100
160,324,75667,1,8,0:0:0:0:
400,216,75822,2,0,P|396:160|360:112,1,100
296,196,76133,1,0,0:0:0:0:
88,192,76289,2,0,P|140:188|192:144,1,100,8|0,0:0|0:0,0:0:0:0:
104,88,76600,5,0,0:0:0:0:
328,160,76755,1,0,0:0:0:0:
88,192,76910,1,8,0:0:0:0:
300,76,77066,1,0,0:0:0:0:
372,280,77221,2,0,B|352:320|372:360|372:360|408:352,2,100,0|0|8,0:0|0:0|0:0,0:0:0:0:
488,96,77688,1,0,0:0:0:0:
304,80,77843,6,0,B|292:144|212:140|212:140|192:172,1,150,2|0,0:0|2:2,0:0:0:0:
44,40,78154,2,0,B|112:24|168:60|168:60|208:60,1,150,2|0,0:0|2:2,0:0:0:0:
120,232,78465,2,0,B|64:196|108:124|108:124|64:120,1,150,2|0,0:0|2:2,0:0:0:0:
0,124,78776,1,2,0:0:0:0:
200,284,79086,5,8,3:3:0:0:
412,76,79242,5,0,3:0:0:0:
256,192,79397,1,0,3:0:0:0:
444,192,79553,1,0,3:0:0:0:
304,72,79708,2,0,P|224:64|168:104,1,150,0|0,2:0|2:2,2:0:0:0:
156,172,80019,6,0,P|108:140|124:48,1,150.000005722046,12|0,0:0|0:0,0:0:0:0:
176,248,80330,5,0,0:0:0:0:
256,160,80485,1,0,0:0:0:0:
336,256,80641,2,0,P|388:280|448:264,1,100,8|0,0:0|0:0,0:0:0:0:
104,196,80952,2,0,P|52:176|-4:192,1,100,8|8,0:0|0:0,0:0:0:0:
12,328,81263,1,0,0:0:0:0:
144,284,81418,1,0,0:0:0:0:
144,284,81729,6,0,B|200:292|240:256,1,100,0|8,0:0|0:0,0:0:0:0:
284,180,82040,1,0,0:0:0:0:
228,88,82195,1,0,0:0:0:0:
436,80,82351,1,0,0:0:0:0:
204,92,82506,1,8,0:0:0:0:
456,80,82662,1,0,0:0:0:0:
392,276,82817,6,0,P|360:308|304:312,1,100,4|0,0:0|0:0,0:0:0:0:
215,267,83128,1,8,0:0:0:0:
232,144,83283,1,0,0:0:0:0:
320,232,83439,1,0,0:0:0:0:
320,232,83750,1,8,0:0:0:0:
416,188,83905,6,0,P|340:124|252:152,1,200,0|8,0:0|0:0,0:0:0:0:
240,232,84371,1,8,0:0:0:0:
144,168,84527,1,0,0:0:0:0:
224,80,84682,2,0,P|176:48|132:48,2,100,0|0|8,0:0|0:0|3:3,0:0:0:0:
244,128,85071,1,8,3:3:0:0:
236,176,85149,1,8,3:3:0:0:
200,208,85226,1,8,3:3:0:0:
152,216,85304,6,0,P|140:268|172:304,1,100,4|8,3:3|0:0,0:0:0:0:
256,344,85615,1,0,0:0:0:0:
28,192,85770,1,0,0:0:0:0:
256,36,85926,1,0,0:0:0:0:
368,208,86081,1,8,0:0:0:0:
152,216,86237,1,8,0:0:0:0:
400,192,86392,6,0,P|332:108|244:148,1,200,0|8,0:0|0:0,0:0:0:0:
104,240,86858,1,0,0:0:0:0:
316,192,87014,1,0,0:0:0:0:
124,172,87169,1,0,0:0:0:0:
356,256,87325,1,0,0:0:0:0:
168,116,87480,1,8,0:0:0:0:
304,308,87636,1,0,0:0:0:0:
96,68,87791,6,0,P|64:108|64:156,1,100,4|0,0:0|0:0,0:0:0:0:
112,244,88102,2,0,B|164:216|164:152,1,100,8|0,0:0|0:0,0:0:0:0:
168,80,88413,1,0,0:0:0:0:
216,256,88568,1,8,0:0:0:0:
304,127,88724,1,0,0:0:0:0:
416,236,88879,1,4,0:0:0:0:
131,132,89346,5,8,0:0:0:0:
268,40,89656,1,0,0:0:0:0:
352,192,89967,1,8,3:0:0:0:
384,196,90045,1,8,3:3:0:0:
416,192,90123,1,8,3:0:0:0:
448,200,90200,1,8,3:3:0:0:
480,192,90278,5,12,3:0:0:0:
256,192,90356,12,0,92143,0:0:0:0:
