osu file format v14

[General]
AudioFilename: audio.mp3
AudioLeadIn: 0
PreviewTime: 66504
Countdown: 0
SampleSet: Soft
StackLeniency: 0.7
Mode: 3
LetterboxInBreaks: 0
SpecialStyle: 0
WidescreenStoryboard: 1

[Editor]
DistanceSpacing: 1.3
BeatDivisor: 4
GridSize: 32
TimelineZoom: 1.8

[Metadata]
Title:Dance In The Game (TV Size)
TitleUnicode:Dance In The Game (TV Size)
Artist:ZAQ
ArtistUnicode:ZAQ
Creator:Syadow-
Version:Senior Class
Source:ようこそ実力至上主義の教室へ 2nd Season
Tags:female opening op anime youkoso jitsuryoku shijou shugi no kyoushitsu e Classroom of the elite cote LACM-24278 pop j-pop jpop japanese Mirsaaa dudehacker drum-hitnormal
BeatmapID:3690664
BeatmapSetID:1799825

[Difficulty]
HPDrainRate:8
CircleSize:4
OverallDifficulty:8
ApproachRate:5
SliderMultiplier:1.4
SliderTickRate:1

[Events]
//Background and Video events
0,0,"keimantap.jpg",0,0
Video,45,"video.mp4"
//Break Periods
//Storyboard Layer 0 (Background)
//Storyboard Layer 1 (Fail)
//Storyboard Layer 2 (Pass)
//Storyboard Layer 3 (Foreground)
//Storyboard Layer 4 (Overlay)
//Storyboard Sound Samples

[TimingPoints]
727,444.444444444444,4,2,1,50,1,0
66504,-100.0,4,2,1,50,0,1
82504,-100.0,4,2,1,50,0,0

[HitObjects]
64,192,727,1,0,0:0:0:0:
448,192,727,1,0,0:0:0:0:
192,192,949,1,0,0:0:0:0:
320,192,1060,1,0,0:0:0:0:
64,192,1171,1,0,0:0:0:0:
192,192,1171,1,0,0:0:0:0:
320,192,1393,1,0,0:0:0:0:
192,192,1504,1,0,0:0:0:0:
320,192,1615,1,0,0:0:0:0:
448,192,1615,1,0,0:0:0:0:
64,192,1838,1,0,0:0:0:0:
192,192,1949,1,0,0:0:0:0:
448,192,1949,1,0,0:0:0:0:
448,192,2171,1,0,0:0:0:0:
64,192,2282,1,0,0:0:0:0:
192,192,2282,128,0,2726:0:0:0:0:
320,192,2726,1,0,0:0:0:0:
64,192,2949,1,0,0:0:0:0:
448,192,2949,1,0,0:0:0:0:
320,192,3060,1,0,0:0:0:0:
192,192,3171,1,0,0:0:0:0:
320,192,3282,1,0,0:0:0:0:
64,192,3393,1,0,0:0:0:0:
448,192,3393,1,0,0:0:0:0:
192,192,3615,1,0,0:0:0:0:
320,192,3726,1,0,0:0:0:0:
64,192,3838,1,0,0:0:0:0:
448,192,3838,1,0,0:0:0:0:
192,192,4060,1,0,0:0:0:0:
320,192,4171,1,0,0:0:0:0:
64,192,4282,1,0,0:0:0:0:
192,192,4282,1,0,0:0:0:0:
448,192,4504,1,0,0:0:0:0:
192,192,4615,1,0,0:0:0:0:
320,192,4726,1,0,0:0:0:0:
448,192,4726,1,0,0:0:0:0:
64,192,4949,1,0,0:0:0:0:
320,192,5060,1,0,0:0:0:0:
64,192,5171,1,0,0:0:0:0:
192,192,5171,1,0,0:0:0:0:
448,192,5393,1,0,0:0:0:0:
192,192,5504,1,0,0:0:0:0:
320,192,5504,1,0,0:0:0:0:
64,192,5726,1,0,0:0:0:0:
320,192,5838,1,0,0:0:0:0:
448,192,5838,128,0,6282:0:0:0:0:
192,192,6171,1,0,0:0:0:0:
64,192,6282,1,0,0:0:0:0:
320,192,6393,1,0,0:0:0:0:
64,192,6504,1,0,0:0:0:0:
448,192,6504,1,0,0:0:0:0:
192,192,6615,1,0,0:0:0:0:
320,192,6726,1,0,0:0:0:0:
192,192,6838,1,0,0:0:0:0:
64,192,6949,1,0,0:0:0:0:
448,192,6949,1,0,0:0:0:0:
320,192,7060,1,0,0:0:0:0:
192,192,7171,1,0,0:0:0:0:
320,192,7282,1,0,0:0:0:0:
64,192,7393,1,0,0:0:0:0:
448,192,7393,1,0,0:0:0:0:
320,192,7615,1,0,0:0:0:0:
192,192,7726,1,0,0:0:0:0:
64,192,7838,1,2,0:0:0:0:
320,192,7838,1,4,0:0:0:0:
448,192,7838,1,0,0:0:0:0:
192,192,8060,1,0,0:0:0:0:
320,192,8171,1,0,0:0:0:0:
64,192,8282,1,2,0:0:0:0:
448,192,8282,1,0,0:0:0:0:
192,192,8393,1,0,0:0:0:0:
320,192,8504,1,0,0:0:0:0:
192,192,8615,1,0,0:0:0:0:
320,192,8726,1,2,0:0:0:0:
448,192,8726,1,0,0:0:0:0:
192,192,8949,1,0,0:0:0:0:
320,192,9060,1,0,0:0:0:0:
64,192,9171,1,2,0:0:0:0:
192,192,9171,1,0,0:0:0:0:
320,192,9393,1,0,0:0:0:40:Hat open.wav
192,192,9504,1,0,0:0:0:0:
64,192,9615,1,2,0:0:0:0:
448,192,9615,1,0,0:0:0:0:
320,192,9726,1,0,0:0:0:0:
192,192,9838,1,0,0:0:0:40:Hat open.wav
320,192,9949,1,0,0:0:0:0:
64,192,10060,1,2,0:0:0:0:
192,192,10060,1,0,0:0:0:0:
448,192,10282,1,0,0:0:0:40:Hat open.wav
320,192,10393,1,0,0:0:0:0:
64,192,10504,1,2,0:0:0:0:
448,192,10504,1,0,0:0:0:0:
192,192,10726,1,0,0:0:0:40:Hat open.wav
320,192,10838,1,0,0:0:0:0:
192,192,10949,1,2,0:0:0:0:
448,192,10949,1,0,0:0:0:40:Hat open.wav
64,192,11171,1,0,0:0:0:0:
320,192,11393,1,8,0:0:0:0:
448,192,11393,1,0,0:0:0:0:
64,192,11541,1,8,0:0:0:0:
192,192,11541,1,0,0:0:0:0:
320,192,11689,1,8,0:0:0:0:
448,192,11689,1,0,0:0:0:0:
64,192,11838,1,8,0:0:0:0:
192,192,11838,1,0,0:0:0:0:
64,192,11986,1,8,0:0:0:0:
320,192,11986,1,0,0:0:0:0:
192,192,12134,1,8,0:0:0:0:
448,192,12134,1,0,0:0:0:0:
320,192,12282,1,8,0:0:0:0:
448,192,12282,1,0,0:0:0:0:
192,192,12726,128,0,12949:0:0:0:40:Tom2.wav
320,192,12949,128,2,13171:0:0:0:0:
64,192,13171,1,2,0:0:0:0:
192,192,13171,1,4,0:0:0:0:
448,192,13171,1,0,0:0:0:0:
320,192,13393,1,0,0:0:0:40:Hat open.wav
192,192,13504,1,0,0:0:0:0:
320,192,13615,1,8,0:0:0:0:
448,192,13615,1,0,0:0:0:0:
64,192,13726,1,0,0:0:0:0:
192,192,13838,1,0,0:0:0:40:Hat open.wav
320,192,13949,1,8,0:0:0:0:
192,192,14060,1,2,0:0:0:0:
448,192,14060,1,0,0:0:0:0:
320,192,14282,1,0,0:0:0:40:Hat open.wav
192,192,14393,1,0,0:0:0:0:
64,192,14504,1,8,0:0:0:0:
448,192,14504,1,0,0:0:0:0:
320,192,14615,1,0,0:0:0:0:
64,192,14726,1,0,0:0:0:40:Hat open.wav
192,192,14838,1,0,0:0:0:0:
320,192,14949,1,2,0:0:0:0:
448,192,14949,1,0,0:0:0:0:
64,192,15060,1,0,0:0:0:0:
320,192,15171,1,0,0:0:0:40:Hat open.wav
192,192,15282,1,0,0:0:0:0:
64,192,15393,1,8,0:0:0:0:
448,192,15393,1,0,0:0:0:0:
320,192,15504,1,0,0:0:0:0:
192,192,15615,1,0,0:0:0:40:Hat open.wav
320,192,15726,1,8,0:0:0:0:
64,192,15838,128,2,16060:0:0:0:0:
192,192,15838,1,0,0:0:0:0:
448,192,16060,128,0,16282:0:0:0:40:Hat open.wav
320,192,16171,1,0,0:0:0:0:
64,192,16282,1,8,0:0:0:0:
192,192,16282,1,0,0:0:0:0:
320,192,16393,1,0,0:0:0:0:
192,192,16504,1,0,0:0:0:40:Hat open.wav
64,192,16615,1,0,0:0:0:0:
320,192,16726,1,2,0:0:0:0:
448,192,16726,128,0,17171:0:0:0:0:
64,192,16949,1,0,0:0:0:40:Hat open.wav
320,192,17060,1,0,0:0:0:0:
64,192,17171,1,8,0:0:0:0:
192,192,17171,1,0,0:0:0:0:
320,192,17282,1,0,0:0:0:0:
448,192,17393,1,0,0:0:0:40:Hat open.wav
192,192,17504,1,8,0:0:0:0:
64,192,17615,128,2,18060:0:0:0:0:
448,192,17615,1,0,0:0:0:0:
320,192,17838,1,0,0:0:0:40:Hat open.wav
192,192,17949,1,0,0:0:0:0:
320,192,18060,1,8,0:0:0:0:
448,192,18060,1,0,0:0:0:0:
192,192,18171,1,0,0:0:0:0:
64,192,18282,1,0,0:0:0:40:Hat open.wav
320,192,18393,1,0,0:0:0:0:
64,192,18504,1,2,0:0:0:0:
448,192,18504,128,0,18949:0:0:0:0:
192,192,18726,1,0,0:0:0:40:Hat open.wav
320,192,18838,1,0,0:0:0:0:
64,192,18949,1,8,0:0:0:0:
192,192,18949,1,0,0:0:0:0:
320,192,19060,1,0,0:0:0:0:
448,192,19171,1,0,0:0:0:40:Hat open.wav
192,192,19282,1,0,0:0:0:0:
64,192,19393,1,2,0:0:0:0:
448,192,19393,1,0,0:0:0:40:Hat open.wav
320,192,19504,1,0,0:0:0:0:
64,192,19615,1,0,0:0:0:0:
192,192,19726,1,8,0:0:0:0:
320,192,19838,1,8,0:0:0:0:
448,192,19838,1,0,0:0:0:0:
64,192,19949,1,8,0:0:0:0:
320,192,20060,1,0,0:0:0:40:Tom1.wav
192,192,20171,1,0,0:0:0:0:
64,192,20282,1,2,0:0:0:0:
320,192,20282,1,4,0:0:0:0:
448,192,20282,1,0,0:0:0:0:
192,192,20504,1,0,0:0:0:40:Hat open.wav
448,192,20504,1,0,0:0:0:0:
64,192,20726,1,8,0:0:0:0:
320,192,20726,1,0,0:0:0:0:
64,192,20949,1,0,0:0:0:40:Hat open.wav
448,192,20949,1,0,0:0:0:0:
192,192,21060,1,8,0:0:0:0:
320,192,21171,1,2,0:0:0:0:
448,192,21171,1,0,0:0:0:0:
192,192,21393,1,0,0:0:0:40:Hat open.wav
320,192,21393,1,0,0:0:0:0:
64,192,21615,1,8,0:0:0:0:
448,192,21615,1,0,0:0:0:0:
320,192,21726,1,8,0:0:0:0:
64,192,21838,1,0,0:0:0:40:Tom2.wav
192,192,21838,1,0,0:0:0:0:
64,192,22060,1,4,0:0:0:0:
320,192,22060,1,0,0:0:0:0:
448,192,22060,1,0,0:0:0:0:
192,192,22282,1,8,0:0:0:0:
320,192,22282,1,0,0:0:0:0:
64,192,22393,1,8,0:0:0:0:
448,192,22393,1,0,0:0:0:0:
320,192,22615,1,0,0:0:0:40:Tom3.wav
192,192,22726,1,0,0:0:0:40:Tom1.wav
320,192,22838,1,0,0:0:0:40:Tom2.wav
64,192,22949,1,2,0:0:0:0:
448,192,22949,1,0,0:0:0:0:
192,192,23060,1,8,0:0:0:0:
320,192,23171,1,12,0:0:0:0:
64,192,23282,1,8,0:0:0:0:
320,192,23393,1,8,0:0:0:0:
448,192,23393,1,0,0:0:0:0:
192,192,23504,1,0,0:0:0:40:Tom1.wav
64,192,23615,1,0,0:0:0:40:Tom2.wav
448,192,23726,1,0,0:0:0:40:Tom3.wav
64,192,23838,1,4,0:0:0:0:
192,192,23838,1,2,0:0:0:0:
320,192,23838,1,0,0:0:0:0:
320,192,24171,1,0,0:0:0:40:Tom1.wav
448,192,24171,1,0,0:0:0:0:
64,192,24282,1,2,0:0:0:0:
192,192,24282,1,0,0:0:0:0:
192,192,24504,1,8,0:0:0:0:
448,192,24504,1,0,0:0:0:0:
64,192,24726,1,2,0:0:0:0:
320,192,24726,1,0,0:0:0:0:
192,192,24949,1,0,0:0:0:0:
320,192,25060,1,0,0:0:0:40:Tom2.wav
448,192,25060,1,0,0:0:0:0:
64,192,25171,1,2,0:0:0:0:
448,192,25282,1,0,0:0:0:40:Tom3.wav
64,192,25393,1,0,0:0:0:40:Tom3.wav
192,192,25393,1,0,0:0:0:0:
320,192,25615,1,2,0:0:0:0:
448,192,25615,1,0,0:0:0:0:
192,192,25838,1,0,0:0:0:0:
64,192,25949,1,0,0:0:0:40:Tom1.wav
320,192,25949,1,0,0:0:0:0:
192,192,26060,1,0,0:0:0:40:Tom2.wav
448,192,26060,1,0,0:0:0:0:
64,192,26282,1,8,0:0:0:0:
448,192,26282,1,0,0:0:0:0:
64,192,26504,1,2,0:0:0:0:
320,192,26504,1,0,0:0:0:0:
192,192,26726,1,0,0:0:0:0:
320,192,26838,1,0,0:0:0:40:Tom2.wav
448,192,26838,1,0,0:0:0:0:
64,192,26949,1,2,0:0:0:0:
192,192,26949,1,0,0:0:0:0:
448,192,27060,1,0,0:0:0:40:Tom3.wav
320,192,27171,1,0,0:0:0:40:Tom3.wav
192,192,27282,1,0,0:0:0:40:Tom3.wav
64,192,27393,1,2,0:0:0:0:
320,192,27393,1,4,0:0:0:0:
448,192,27393,1,0,0:0:0:0:
192,192,27615,1,0,0:0:0:0:
64,192,27726,1,0,0:0:0:40:Tom1.wav
320,192,27726,1,0,0:0:0:0:
192,192,27838,1,2,0:0:0:0:
448,192,27838,1,0,0:0:0:0:
64,192,28060,1,8,0:0:0:0:
448,192,28060,1,0,0:0:0:0:
64,192,28282,1,2,0:0:0:0:
320,192,28282,1,0,0:0:0:0:
192,192,28504,1,0,0:0:0:0:
64,192,28615,1,0,0:0:0:40:Tom2.wav
448,192,28615,1,0,0:0:0:0:
320,192,28726,1,2,0:0:0:0:
64,192,28838,1,0,0:0:0:40:Tom3.wav
320,192,28949,1,0,0:0:0:40:Tom3.wav
448,192,28949,1,0,0:0:0:0:
64,192,29171,1,2,0:0:0:0:
192,192,29171,1,0,0:0:0:0:
320,192,29393,1,0,0:0:0:0:
192,192,29504,1,0,0:0:0:40:Tom1.wav
448,192,29504,1,0,0:0:0:0:
64,192,29615,1,2,0:0:0:0:
320,192,29615,1,0,0:0:0:0:
64,192,29838,1,8,0:0:0:0:
448,192,29838,1,0,0:0:0:0:
192,192,30060,1,0,0:0:0:40:Tom2.wav
448,192,30060,1,0,0:0:0:0:
320,192,30282,1,0,0:0:0:0:
64,192,30393,1,8,0:0:0:0:
192,192,30393,1,0,0:0:0:0:
320,192,30504,1,2,0:0:0:0:
448,192,30504,1,0,0:0:0:0:
64,192,30615,1,0,0:0:0:40:Tom1.wav
192,192,30726,1,0,0:0:0:40:Tom2.wav
320,192,30838,1,0,0:0:0:40:Tom3.wav
64,192,30949,1,2,0:0:0:0:
192,192,30949,1,4,0:0:0:0:
448,192,30949,1,0,0:0:0:0:
320,192,31171,1,0,0:0:0:0:
64,192,31282,1,0,0:0:0:40:Tom1.wav
192,192,31282,1,0,0:0:0:0:
320,192,31393,1,2,0:0:0:0:
448,192,31393,1,0,0:0:0:0:
192,192,31615,1,8,0:0:0:0:
448,192,31615,1,0,0:0:0:0:
64,192,31838,1,2,0:0:0:0:
320,192,31838,1,0,0:0:0:0:
192,192,32060,1,0,0:0:0:0:
320,192,32171,1,0,0:0:0:40:Tom2.wav
448,192,32171,1,0,0:0:0:0:
64,192,32282,1,2,0:0:0:0:
448,192,32393,1,0,0:0:0:40:Tom3.wav
64,192,32504,1,0,0:0:0:40:Tom3.wav
192,192,32504,1,0,0:0:0:0:
320,192,32726,1,2,0:0:0:0:
448,192,32726,1,0,0:0:0:0:
192,192,32949,1,0,0:0:0:0:
64,192,33060,1,0,0:0:0:40:Tom1.wav
320,192,33060,1,0,0:0:0:0:
192,192,33171,1,2,0:0:0:0:
448,192,33171,1,0,0:0:0:0:
64,192,33393,1,8,0:0:0:0:
448,192,33393,1,0,0:0:0:0:
64,192,33615,1,2,0:0:0:0:
320,192,33615,1,0,0:0:0:0:
192,192,33838,1,0,0:0:0:0:
320,192,33949,1,0,0:0:0:40:Tom2.wav
448,192,33949,1,0,0:0:0:0:
64,192,34060,1,2,0:0:0:0:
192,192,34060,1,0,0:0:0:0:
320,192,34171,1,0,0:0:0:40:Tom3.wav
448,192,34282,1,0,0:0:0:40:Tom3.wav
64,192,34504,1,2,0:0:0:0:
192,192,34504,1,4,0:0:0:0:
320,192,34504,1,0,0:0:0:0:
320,192,34838,1,0,0:0:0:40:Tom2.wav
448,192,34838,1,0,0:0:0:0:
64,192,34949,1,2,0:0:0:0:
192,192,34949,1,0,0:0:0:0:
192,192,35171,1,8,0:0:0:0:
448,192,35171,1,0,0:0:0:0:
64,192,35393,1,2,0:0:0:0:
320,192,35393,1,0,0:0:0:0:
448,192,35615,1,0,0:0:0:0:
64,192,35726,1,0,0:0:0:40:Tom1.wav
192,192,35726,1,0,0:0:0:0:
320,192,35838,1,2,0:0:0:0:
192,192,35949,1,0,0:0:0:40:Tom3.wav
320,192,36060,1,0,0:0:0:40:Tom3.wav
448,192,36060,1,0,0:0:0:0:
64,192,36282,1,2,0:0:0:0:
192,192,36282,1,4,0:0:0:0:
448,192,36282,1,0,0:0:0:0:
320,192,36504,1,0,0:0:0:0:
64,192,36615,1,8,0:0:0:0:
192,192,36615,1,0,0:0:0:0:
320,192,36726,1,2,0:0:0:0:
448,192,36726,1,0,0:0:0:0:
192,192,36949,1,8,0:0:0:0:
448,192,36949,1,0,0:0:0:0:
64,192,37171,1,8,0:0:0:0:
192,192,37171,1,0,0:0:0:0:
320,192,37282,1,8,0:0:0:0:
448,192,37282,1,0,0:0:0:0:
64,192,37504,1,8,0:0:0:0:
448,192,37504,1,0,0:0:0:0:
192,192,37615,1,2,0:0:0:0:
320,192,37615,1,0,0:0:0:0:
64,192,37726,1,0,0:0:0:40:Tom2.wav
448,192,37838,1,0,0:0:0:40:Tom2.wav
320,192,37949,1,0,0:0:0:40:Tom3.wav
64,192,38060,1,2,0:0:0:0:
192,192,38060,1,4,0:0:0:0:
448,192,38060,1,0,0:0:0:0:
320,192,38393,1,0,0:0:0:40:Tom1.wav
448,192,38393,1,0,0:0:0:0:
64,192,38504,1,2,0:0:0:0:
192,192,38504,1,0,0:0:0:0:
192,192,38726,1,8,0:0:0:0:
448,192,38726,1,0,0:0:0:0:
64,192,38949,1,2,0:0:0:0:
320,192,38949,1,0,0:0:0:0:
192,192,39171,1,0,0:0:0:0:
320,192,39282,1,0,0:0:0:40:Tom2.wav
448,192,39282,1,0,0:0:0:0:
64,192,39393,1,2,0:0:0:0:
192,192,39393,1,0,0:0:0:0:
448,192,39615,1,0,0:0:0:0:
64,192,39726,1,0,0:0:0:40:Tom3.wav
192,192,39726,1,0,0:0:0:0:
320,192,39838,1,2,0:0:0:0:
448,192,39838,1,0,0:0:0:0:
192,192,40060,1,0,0:0:0:0:
64,192,40171,1,0,0:0:0:40:Tom2.wav
320,192,40171,1,0,0:0:0:0:
192,192,40282,1,2,0:0:0:0:
448,192,40282,1,0,0:0:0:0:
64,192,40504,1,8,0:0:0:0:
448,192,40504,1,0,0:0:0:0:
64,192,40726,1,2,0:0:0:0:
320,192,40726,1,0,0:0:0:0:
192,192,40949,1,0,0:0:0:0:
320,192,41060,1,0,0:0:0:40:Tom1.wav
448,192,41060,1,0,0:0:0:0:
64,192,41171,1,2,0:0:0:0:
192,192,41171,1,0,0:0:0:0:
64,192,41393,1,0,0:0:0:40:Tom3.wav
448,192,41393,1,0,0:0:0:0:
192,192,41615,1,2,0:0:0:0:
320,192,41615,1,0,0:0:0:0:
448,192,41838,1,0,0:0:0:0:
64,192,41949,1,0,0:0:0:40:Tom2.wav
192,192,41949,1,0,0:0:0:0:
320,192,42060,1,2,0:0:0:0:
448,192,42060,1,0,0:0:0:0:
64,192,42282,1,8,0:0:0:0:
320,192,42282,1,0,0:0:0:0:
192,192,42504,1,2,0:0:0:0:
448,192,42504,1,0,0:0:0:0:
64,192,42726,1,0,0:0:0:40:Tom2.wav
320,192,42838,1,0,0:0:0:40:Tom2.wav
448,192,42838,1,0,0:0:0:0:
64,192,42949,1,2,0:0:0:0:
192,192,42949,1,0,0:0:0:0:
320,192,43171,1,0,0:0:0:40:Tom3.wav
192,192,43282,1,0,0:0:0:40:Tom3.wav
64,192,43393,1,2,0:0:0:0:
320,192,43393,1,4,0:0:0:0:
448,192,43393,1,0,0:0:0:0:
320,192,43726,1,0,0:0:0:40:Tom2.wav
448,192,43726,1,0,0:0:0:0:
64,192,43838,1,2,0:0:0:0:
192,192,43838,1,0,0:0:0:0:
192,192,44060,1,0,0:0:0:40:Tom1.wav
320,192,44060,1,0,0:0:0:0:
320,192,44282,1,2,0:0:0:0:
448,192,44282,1,0,0:0:0:0:
64,192,44393,1,8,0:0:0:0:
448,192,44504,1,0,0:0:0:40:Tom2.wav
320,192,44615,1,8,0:0:0:0:
64,192,44726,1,8,0:0:0:0:
192,192,44726,1,0,0:0:0:0:
448,192,44838,1,0,0:0:0:40:Tom1.wav
192,192,44949,1,0,0:0:0:40:Tom2.wav
320,192,45060,1,0,0:0:0:40:Tom3.wav
64,192,45171,1,2,0:0:0:0:
192,192,45171,1,4,0:0:0:0:
448,192,45171,1,0,0:0:0:0:
192,192,45504,1,0,0:0:0:40:Tom3.wav
320,192,45504,1,0,0:0:0:0:
64,192,45615,1,2,0:0:0:0:
448,192,45615,1,0,0:0:0:0:
64,192,45838,1,8,0:0:0:0:
320,192,45838,1,0,0:0:0:0:
192,192,46060,1,2,0:0:0:0:
448,192,46060,1,0,0:0:0:0:
320,192,46282,1,0,0:0:0:0:
64,192,46393,1,0,0:0:0:40:Tom2.wav
192,192,46393,1,0,0:0:0:0:
320,192,46504,1,2,0:0:0:0:
448,192,46504,1,0,0:0:0:0:
64,192,46726,1,0,0:0:0:40:Tom3.wav
192,192,46726,1,0,0:0:0:0:
320,192,46838,1,0,0:0:0:40:Tom3.wav
64,192,46949,1,2,0:0:0:0:
192,192,46949,1,4,0:0:0:0:
448,192,46949,1,0,0:0:0:0:
320,192,47171,1,0,0:0:0:0:
192,192,47282,1,0,0:0:0:40:Tom1.wav
448,192,47282,1,0,0:0:0:0:
64,192,47393,1,2,0:0:0:0:
320,192,47393,1,0,0:0:0:0:
64,192,47615,1,8,0:0:0:0:
448,192,47615,1,0,0:0:0:0:
192,192,47838,1,2,0:0:0:0:
448,192,47838,1,0,0:0:0:0:
320,192,48060,1,0,0:0:0:0:
64,192,48171,1,0,0:0:0:40:Tom2.wav
192,192,48171,1,0,0:0:0:0:
320,192,48282,1,2,0:0:0:0:
448,192,48282,1,0,0:0:0:0:
192,192,48393,1,0,0:0:0:0:
64,192,48504,1,0,0:0:0:40:Tom3.wav
320,192,48615,1,0,0:0:0:40:Tom3.wav
64,192,48726,1,2,0:0:0:0:
192,192,48726,1,4,0:0:0:0:
448,192,48726,1,0,0:0:0:0:
320,192,48949,1,0,0:0:0:0:
64,192,49060,1,0,0:0:0:40:Tom2.wav
192,192,49060,1,0,0:0:0:0:
320,192,49171,1,2,0:0:0:0:
448,192,49171,1,0,0:0:0:0:
192,192,49393,1,8,0:0:0:0:
448,192,49393,1,0,0:0:0:0:
64,192,49615,1,2,0:0:0:0:
320,192,49615,1,0,0:0:0:0:
192,192,49838,1,0,0:0:0:0:
64,192,49949,1,0,0:0:0:40:Tom1.wav
320,192,49949,1,0,0:0:0:0:
192,192,50060,1,2,0:0:0:0:
448,192,50060,1,0,0:0:0:0:
64,192,50282,1,0,0:0:0:40:Tom3.wav
448,192,50282,1,0,0:0:0:0:
64,192,50504,1,2,0:0:0:0:
320,192,50504,1,0,0:0:0:20:soft-hitfinish.ogg
192,192,50726,1,0,0:0:0:0:
320,192,50838,1,0,0:0:0:40:Tom2.wav
448,192,50838,1,0,0:0:0:0:
64,192,50949,1,2,0:0:0:0:
192,192,50949,1,0,0:0:0:0:
64,192,51171,1,0,0:0:0:0:
448,192,51171,1,0,0:0:0:0:
192,192,51393,1,2,0:0:0:0:
448,192,51393,1,0,0:0:0:0:
64,192,51615,1,0,0:0:0:0:
320,192,51726,1,8,0:0:0:0:
448,192,51726,1,0,0:0:0:0:
192,192,51838,1,10,0:0:0:0:
320,192,51949,1,8,0:0:0:0:
64,192,52060,1,0,0:0:0:40:Tom2.wav
192,192,52060,1,0,0:0:0:0:
64,192,52282,1,2,0:0:0:0:
320,192,52282,1,0,0:0:0:20:soft-hitfinish.ogg
448,192,52282,128,0,52726:0:0:0:0:
64,192,52726,128,2,53171:0:0:0:0:
192,192,52726,1,0,0:0:0:0:
320,192,53171,1,8,0:0:0:0:
448,192,53171,1,0,0:0:0:0:
192,192,53282,1,0,0:0:0:0:
64,192,53393,1,0,0:0:0:40:Hat open.wav
320,192,53504,1,0,0:0:0:0:
448,192,53615,1,2,0:0:0:0:
64,192,53726,1,0,0:0:0:0:
192,192,53838,1,0,0:0:0:40:Hat open.wav
320,192,54060,128,2,54504:0:0:0:0:
448,192,54060,1,0,0:0:0:20:soft-hitfinish.ogg
64,192,54504,1,2,0:0:0:0:
192,192,54504,128,0,54949:0:0:0:0:
320,192,54949,1,8,0:0:0:0:
448,192,54949,1,0,0:0:0:0:
64,192,55060,1,0,0:0:0:0:
448,192,55282,1,0,0:0:0:0:
192,192,55393,1,2,0:0:0:0:
320,192,55615,1,0,0:0:0:40:Hat open.wav
64,192,55838,1,2,0:0:0:0:
192,192,55838,1,4,0:0:0:0:
448,192,55838,1,0,0:0:0:0:
64,192,56060,1,0,0:0:0:0:
320,192,56282,1,2,0:0:0:0:
448,192,56282,1,0,0:0:0:0:
320,192,56504,1,0,0:0:0:0:
64,192,56726,1,2,0:0:0:0:
192,192,56726,1,0,0:0:0:0:
192,192,56949,1,0,0:0:0:0:
320,192,57171,1,2,0:0:0:0:
448,192,57171,1,0,0:0:0:0:
64,192,57393,1,0,0:0:0:20:soft-hitclap.wav
448,192,57393,1,0,0:0:0:0:
64,192,57615,1,2,0:0:0:0:
192,192,57615,1,8,0:0:0:0:
320,192,57726,1,8,0:0:0:0:
448,192,57838,1,8,0:0:0:0:
192,192,57949,1,8,0:0:0:0:
320,192,58060,1,2,0:0:0:0:
448,192,58060,1,8,0:0:0:0:
192,192,58171,1,8,0:0:0:0:
64,192,58282,1,8,0:0:0:0:
320,192,58393,1,8,0:0:0:0:
64,192,58504,1,2,0:0:0:0:
192,192,58504,1,8,0:0:0:0:
320,192,58615,1,8,0:0:0:0:
448,192,58726,1,8,0:0:0:0:
64,192,58838,1,2,0:0:0:0:
192,192,58949,1,8,0:0:0:0:
448,192,58949,128,0,59393:0:0:0:0:
64,192,59393,1,2,0:0:0:0:
320,192,59393,1,0,0:0:0:20:soft-hitfinish.ogg
192,192,59615,1,0,0:0:0:0:
448,192,59838,1,0,0:0:0:0:
320,192,60060,1,0,0:0:0:0:
64,192,60282,1,0,0:0:0:40:Clap.wav
192,192,60282,1,0,0:0:0:0:
320,192,60504,1,0,0:0:0:0:
448,192,60726,1,0,0:0:0:0:
64,192,60949,1,2,0:0:0:0:
192,192,61060,1,2,0:0:0:0:
320,192,61171,1,2,0:0:0:0:
448,192,61171,1,0,0:0:0:0:
64,192,61393,1,0,0:0:0:0:
448,192,61504,1,2,0:0:0:0:
192,192,61615,1,0,0:0:0:0:
320,192,61838,1,2,0:0:0:0:
64,192,62060,1,0,0:0:0:40:Clap.wav
192,192,62060,1,0,0:0:0:0:
448,192,62282,1,2,0:0:0:0:
320,192,62504,1,2,0:0:0:0:
192,192,62726,1,2,0:0:0:0:
64,192,62949,1,2,0:0:0:0:
448,192,62949,1,0,0:0:0:0:
320,192,63171,1,0,0:0:0:0:
64,192,63393,1,2,0:0:0:0:
192,192,63393,1,0,0:0:0:0:
320,192,63615,1,0,0:0:0:0:
64,192,63838,1,2,0:0:0:0:
448,192,63838,1,0,0:0:0:0:
64,192,64060,1,2,0:0:0:0:
320,192,64060,1,0,0:0:0:0:
192,192,64282,1,2,0:0:0:0:
320,192,64282,1,0,0:0:0:0:
192,192,64504,1,2,0:0:0:0:
448,192,64504,1,0,0:0:0:0:
64,192,64726,1,2,0:0:0:0:
448,192,64726,1,8,0:0:0:0:
320,192,64838,1,0,0:0:0:0:
192,192,64949,1,8,0:0:0:0:
64,192,65060,1,8,0:0:0:0:
320,192,65171,1,2,0:0:0:0:
448,192,65171,1,8,0:0:0:0:
192,192,65282,1,8,0:0:0:0:
320,192,65393,1,8,0:0:0:0:
448,192,65504,1,8,0:0:0:0:
64,192,65615,128,0,66060:0:0:0:0:
192,192,65615,1,0,0:0:0:0:
320,192,66060,128,0,66504:0:0:0:0:
64,192,66504,1,2,0:0:0:0:
192,192,66504,1,4,0:0:0:0:
448,192,66504,1,0,0:0:0:0:
320,192,66726,1,0,0:0:0:40:Hat open.wav
192,192,66838,1,0,0:0:0:0:
64,192,66949,1,8,0:0:0:0:
448,192,66949,1,0,0:0:0:0:
192,192,67171,1,0,0:0:0:40:Hat open.wav
320,192,67282,1,0,0:0:0:0:
64,192,67393,128,2,67726:0:0:0:0:
192,192,67393,1,0,0:0:0:0:
448,192,67615,1,0,0:0:0:40:Hat open.wav
192,192,67726,1,0,0:0:0:0:
320,192,67838,1,8,0:0:0:0:
448,192,67838,1,0,0:0:0:0:
192,192,68060,1,0,0:0:0:40:Hat open.wav
320,192,68171,1,0,0:0:0:0:
64,192,68282,1,2,0:0:0:0:
448,192,68282,1,0,0:0:0:0:
192,192,68504,1,0,0:0:0:40:Hat open.wav
320,192,68615,1,0,0:0:0:0:
64,192,68726,1,8,0:0:0:0:
192,192,68726,1,0,0:0:0:0:
320,192,68949,1,0,0:0:0:40:Hat open.wav
192,192,69060,1,0,0:0:0:0:
64,192,69171,1,2,0:0:0:0:
448,192,69171,1,0,0:0:0:0:
192,192,69393,1,0,0:0:0:40:Hat open.wav
448,192,69393,1,0,0:0:0:0:
64,192,69615,1,8,0:0:0:0:
192,192,69615,1,0,0:0:0:0:
448,192,69726,1,0,0:0:0:0:
320,192,69838,1,0,0:0:0:40:Hat open.wav
64,192,69949,1,8,0:0:0:0:
192,192,69949,1,0,0:0:0:0:
320,192,70060,1,2,0:0:0:0:
448,192,70060,128,0,70393:0:0:0:0:
192,192,70282,1,0,0:0:0:40:Hat open.wav
320,192,70393,1,0,0:0:0:0:
64,192,70504,1,8,0:0:0:0:
448,192,70504,1,0,0:0:0:0:
192,192,70726,1,0,0:0:0:40:Hat open.wav
320,192,70838,1,0,0:0:0:0:
64,192,70949,128,2,71282:0:0:0:0:
192,192,70949,1,0,0:0:0:0:
320,192,71171,1,0,0:0:0:40:Hat open.wav
192,192,71282,1,0,0:0:0:0:
64,192,71393,1,8,0:0:0:0:
448,192,71393,1,0,0:0:0:0:
320,192,71615,1,0,0:0:0:40:Hat open.wav
64,192,71726,1,8,0:0:0:0:
192,192,71726,1,0,0:0:0:0:
320,192,71838,1,2,0:0:0:0:
448,192,71838,1,0,0:0:0:0:
64,192,72060,1,0,0:0:0:40:Hat open.wav
192,192,72060,1,0,0:0:0:0:
320,192,72171,1,0,0:0:0:0:
192,192,72282,1,8,0:0:0:0:
448,192,72282,1,0,0:0:0:0:
64,192,72504,1,0,0:0:0:40:Hat open.wav
448,192,72504,1,0,0:0:0:0:
64,192,72726,1,2,0:0:0:0:
320,192,72726,1,0,0:0:0:0:
192,192,72949,1,0,0:0:0:40:Hat open.wav
320,192,73060,1,0,0:0:0:0:
64,192,73171,1,8,0:0:0:0:
448,192,73171,1,0,0:0:0:0:
192,192,73282,1,8,0:0:0:0:
320,192,73393,1,8,0:0:0:0:
192,192,73504,1,8,0:0:0:0:
64,192,73615,1,2,0:0:0:0:
320,192,73615,1,4,0:0:0:0:
448,192,73615,1,0,0:0:0:0:
192,192,73838,1,0,0:0:0:40:Hat open.wav
320,192,73949,1,0,0:0:0:0:
64,192,74060,1,8,0:0:0:0:
448,192,74060,1,0,0:0:0:0:
320,192,74282,1,0,0:0:0:40:Hat open.wav
192,192,74393,1,0,0:0:0:0:
320,192,74504,1,2,0:0:0:0:
448,192,74504,128,0,74838:0:0:0:0:
64,192,74726,1,0,0:0:0:40:Hat open.wav
320,192,74838,1,0,0:0:0:0:
64,192,74949,1,8,0:0:0:0:
192,192,74949,1,0,0:0:0:0:
320,192,75171,1,0,0:0:0:40:Hat open.wav
192,192,75282,1,8,0:0:0:0:
64,192,75393,1,2,0:0:0:0:
448,192,75393,1,0,0:0:0:0:
320,192,75615,1,0,0:0:0:40:Hat open.wav
192,192,75726,1,0,0:0:0:0:
320,192,75838,1,8,0:0:0:0:
448,192,75838,1,0,0:0:0:0:
192,192,76060,1,0,0:0:0:40:Hat open.wav
320,192,76171,1,0,0:0:0:0:
64,192,76282,1,2,0:0:0:0:
448,192,76282,1,0,0:0:0:0:
64,192,76504,1,0,0:0:0:40:Hat open.wav
320,192,76504,1,0,0:0:0:0:
320,192,76726,1,8,0:0:0:0:
448,192,76726,1,2,0:0:0:0:
64,192,76838,1,8,0:0:0:0:
192,192,76949,1,0,0:0:0:40:Tom1.wav
320,192,77060,1,0,0:0:0:40:Tom2.wav
448,192,77060,1,0,0:0:0:0:
64,192,77171,128,2,77504:0:0:0:0:
192,192,77171,1,4,0:0:0:0:
320,192,77393,1,0,0:0:0:40:Hat open.wav
192,192,77504,1,0,0:0:0:0:
64,192,77615,1,8,0:0:0:0:
448,192,77615,1,0,0:0:0:0:
320,192,77838,1,0,0:0:0:40:Hat open.wav
192,192,77949,1,8,0:0:0:0:
320,192,78060,1,2,0:0:0:0:
448,192,78060,128,0,78393:0:0:0:0:
192,192,78282,1,0,0:0:0:40:Hat open.wav
320,192,78393,1,0,0:0:0:0:
64,192,78504,1,8,0:0:0:0:
448,192,78504,1,0,0:0:0:0:
192,192,78726,1,0,0:0:0:40:Hat open.wav
320,192,78949,1,2,0:0:0:0:
448,192,78949,1,0,0:0:0:0:
64,192,79171,1,8,0:0:0:0:
320,192,79171,1,0,0:0:0:0:
64,192,79393,1,8,0:0:0:0:
448,192,79393,1,0,0:0:0:0:
192,192,79615,1,8,0:0:0:0:
448,192,79615,1,0,0:0:0:0:
64,192,79838,1,2,0:0:0:0:
192,192,79838,1,0,0:0:0:0:
448,192,79949,1,8,0:0:0:0:
320,192,80060,1,0,0:0:0:40:Tom1.wav
192,192,80171,1,0,0:0:0:40:Tom2.wav
320,192,80282,1,2,0:0:0:0:
448,192,80282,1,0,0:0:0:0:
192,192,80393,1,0,0:0:0:40:Tom3.wav
64,192,80504,1,0,0:0:0:40:Tom3.wav
448,192,80615,1,2,0:0:0:0:
64,192,80726,1,8,0:0:0:0:
192,192,80726,1,0,0:0:0:0:
320,192,80875,1,8,0:0:0:0:
448,192,80875,1,0,0:0:0:0:
64,192,81023,1,0,0:0:0:40:Tom2.wav
192,192,81023,1,0,0:0:0:0:
320,192,81171,1,0,0:0:0:40:Tom2.wav
448,192,81171,1,0,0:0:0:0:
192,192,81319,1,0,0:0:0:40:Tom3.wav
448,192,81319,1,0,0:0:0:0:
64,192,81467,1,0,0:0:0:0:
320,192,81467,1,0,0:0:0:0:
64,192,81615,1,8,0:0:0:0:
192,192,81615,1,0,0:0:0:40:Hat open.wav
448,192,81949,1,2,0:0:0:0:
192,192,82060,128,8,82504:0:0:0:0:
64,192,82504,1,2,0:0:0:0:
320,192,82504,1,4,0:0:0:0:
448,192,82504,1,0,0:0:0:0:
192,192,82726,1,0,0:0:0:0:
320,192,82838,1,0,0:0:0:0:
64,192,82949,1,8,0:0:0:0:
448,192,82949,1,0,0:0:0:0:
192,192,83171,1,0,0:0:0:0:
320,192,83282,1,8,0:0:0:0:
448,192,83282,1,0,0:0:0:0:
64,192,83393,1,2,0:0:0:0:
192,192,83393,1,0,0:0:0:0:
320,192,83615,1,0,0:0:0:0:
192,192,83726,1,0,0:0:0:0:
64,192,83838,1,8,0:0:0:0:
448,192,83838,1,0,0:0:0:0:
320,192,83949,1,0,0:0:0:0:
192,192,84060,1,0,0:0:0:0:
320,192,84171,1,0,0:0:0:0:
64,192,84282,1,2,0:0:0:0:
448,192,84282,1,0,0:0:0:0:
192,192,84504,1,0,0:0:0:0:
320,192,84615,1,0,0:0:0:0:
64,192,84726,1,8,0:0:0:0:
192,192,84726,1,0,0:0:0:0:
320,192,84838,1,0,0:0:0:0:
448,192,84949,1,0,0:0:0:0:
64,192,85060,1,8,0:0:0:0:
192,192,85060,1,0,0:0:0:0:
320,192,85171,1,2,0:0:0:0:
448,192,85171,1,0,0:0:0:0:
64,192,85393,1,0,0:0:0:0:
320,192,85504,1,0,0:0:0:0:
64,192,85615,1,8,0:0:0:0:
192,192,85615,1,0,0:0:0:0:
448,192,85726,1,0,0:0:0:0:
320,192,85838,1,0,0:0:0:0:
192,192,85949,1,0,0:0:0:0:
64,192,86060,1,2,0:0:0:0:
320,192,86060,1,4,0:0:0:0:
448,192,86060,1,0,0:0:0:0:
64,192,86282,1,8,0:0:0:0:
192,192,86393,1,0,0:0:0:0:
320,192,86504,1,8,0:0:0:0:
448,192,86504,1,0,0:0:0:0:
192,192,86615,1,0,0:0:0:0:
320,192,86726,1,0,0:0:0:0:
448,192,86838,1,8,0:0:0:0:
64,192,86949,1,0,0:0:0:0:
192,192,86949,1,0,0:0:0:0:
320,192,87060,1,8,0:0:0:0:
64,192,87171,1,8,0:0:0:0:
192,192,87282,1,8,0:0:0:0:
320,192,87393,1,0,0:0:0:40:Tom2.wav
448,192,87393,1,0,0:0:0:0:
64,192,87504,1,0,0:0:0:40:Tom3.wav
320,192,87615,1,0,0:0:0:40:Tom3.wav
192,192,87726,1,0,0:0:0:0:
64,192,87838,1,2,0:0:0:0:
448,192,87838,128,0,88171:0:0:0:20:soft-hitfinish.ogg
64,192,88171,1,2,0:0:0:0:
320,192,88171,128,4,88504:0:0:0:0:
64,192,88504,1,2,0:0:0:0:
192,192,88504,128,0,89615:0:0:0:20:soft-hitfinish.ogg
