osu file format v14

[General]
AudioFilename: audio.mp3
AudioLeadIn: 0
PreviewTime: 66393
Countdown: 0
SampleSet: Soft
StackLeniency: 0.6
Mode: 2
LetterboxInBreaks: 0
WidescreenStoryboard: 1

[Editor]
Bookmarks: 12525,23192,37414,51636,65858
DistanceSpacing: 0.5
BeatDivisor: 4
GridSize: 32
TimelineZoom: 1.6

[Metadata]
Title:Dance In The Game (TV Size)
TitleUnicode:Dance In The Game (TV Size)
Artist:ZAQ
ArtistUnicode:ZAQ
Creator:Secre
Version:Rain
Source:ようこそ実力至上主義の教室へ 2nd Season
Tags:chickenbible Welcome to the Classroom of the Elite Youkoso Jitsuryoku Shijou Shugi no Kyoushitsu e anime op opening japanese pop jpop j-pop female vocals vocalist lerche 坂柳 有栖 Sakayanagi Arisu 堀北 鈴音 Horikita Suzune
BeatmapID:4067944
BeatmapSetID:1867756

[Difficulty]
HPDrainRate:4
CircleSize:3.8
OverallDifficulty:8.8
ApproachRate:8.8
SliderMultiplier:2.38
SliderTickRate:2

[Events]
//Background and Video events
0,0,"that cat is actually okayu.jpg",0,0
Video,45,"video.mp4"
//Break Periods
//Storyboard Layer 0 (Background)
//Storyboard Layer 1 (Fail)
//Storyboard Layer 2 (Pass)
//Storyboard Layer 3 (Foreground)
//Storyboard Layer 4 (Overlay)
//Storyboard Sound Samples

[TimingPoints]
727,444.444444444444,4,2,1,50,1,0
5171,-100,4,2,1,50,0,0
5393,-100,4,2,1,50,0,0
7838,-100,4,2,1,60,0,0
10060,-100,4,2,1,60,0,0
10504,-100,4,2,1,60,0,0
12726,-100,4,2,1,60,0,0
13171,-100,4,2,1,60,0,0
19060,-100,4,2,1,60,0,0
19282,-100,4,2,1,60,0,0
19504,-100,4,2,1,60,0,0
19726,-100,4,2,1,60,0,0
20282,-100,4,2,1,60,0,0
23838,-100,4,2,1,50,0,0
32282,-100,4,2,1,50,0,0
32726,-100,4,2,1,50,0,0
52282,-100,4,2,1,50,0,0
57838,-100,4,2,1,45,0,0
58504,-100,4,2,1,50,0,0
58949,-100,4,2,1,60,0,0
59393,-100,4,2,1,50,0,0
62949,-100,4,2,1,60,0,0
64060,-100,4,2,1,60,0,0
64282,-100,4,2,1,60,0,0
64504,-100,4,2,1,60,0,0
64726,-100,4,2,1,65,0,0
65615,-100,4,2,1,60,0,0
66060,-100,4,2,1,60,0,0
66504,-100,4,2,1,70,0,1
72060,-100,4,2,1,70,0,1
72282,-100,4,2,1,70,0,1
72504,-100,4,2,1,70,0,1
72726,-100,4,2,1,70,0,1
72949,-100,4,2,1,70,0,1
81615,-100,4,2,1,70,0,0
82504,-100,4,2,1,70,0,0
85615,-66.6666666666667,4,2,1,70,0,0
86060,-100,4,2,1,70,0,0

[Colours]
Combo1 : 226,143,243
Combo2 : 139,222,254
Combo3 : 253,206,240
Combo4 : 150,166,254

[HitObjects]
292,201,727,6,0,L|143:197,1,119,2|0,0:0|0:0,0:0:0:0:
292,201,1171,2,0,L|143:197,1,119,2|0,0:0|0:0,0:0:0:0:
371,184,1615,2,0,L|381:42,1,119,2|0,0:0|0:0,0:0:0:0:
316,26,1949,1,2,0:0:0:0:
424,16,2171,1,0,0:0:0:0:
235,41,2282,6,0,P|158:40|112:216,1,238,2|2,0:0|0:0,0:0:0:0:
264,194,2949,2,0,L|266:64,1,119,2|0,0:0|0:0,0:0:0:0:
82,63,3393,2,0,L|155:57,2,59.5,2|0|0,0:0|0:0|0:0,0:0:0:0:
255,149,3838,2,0,L|99:158,1,119,2|0,0:0|0:0,0:0:0:0:
475,183,4282,6,0,L|486:50,1,119,2|0,0:0|0:0,0:0:0:0:
315,58,4726,2,0,L|326:-60,1,119,2|0,0:0|0:0,0:0:0:0:
30,125,5171,1,2,0:0:0:0:
139,42,5393,2,0,L|66:39,1,59.5,0|2,0:0|0:0,0:0:0:0:
192,115,5726,1,0,0:0:0:0:
401,108,5838,6,0,P|471:116|392:205,1,238,2|2,0:0|0:0,0:0:0:0:
236,207,6504,2,0,L|383:198,1,119,2|2,0:0|0:0,0:0:0:0:
181,116,6949,2,0,L|43:114,1,119,2|0,0:0|0:0,0:0:0:0:
181,116,7393,2,0,L|43:114,1,119,2|0,0:0|0:0,0:0:0:0:
388,158,7838,6,0,L|391:296,1,119,6|0,1:2|0:0,0:0:0:0:
213,285,8282,1,0,1:0:0:0:
390,276,8504,2,0,L|309:273,1,59.5
198,260,8726,2,0,L|198:117,1,119,2|0,1:2|0:0,0:0:0:0:
260,103,9060,2,0,L|162:102,1,59.5,0|0,0:0|1:0,0:0:0:0:
141,99,9282,1,0,0:0:0:0:
200,102,9393,2,0,L|294:100,1,59.5
446,108,9615,6,0,L|446:256,1,119,2|0,1:2|0:0,0:0:0:0:
262,250,10060,1,0,1:0:0:0:
446,227,10282,1,0,0:0:0:0:
147,129,10504,2,0,L|7:129,1,119,2|2,1:2|0:0,0:0:0:0:
211,204,10949,1,2,1:2:0:0:
28,129,11171,1,0,0:0:0:0:
314,75,11393,6,0,L|395:70,2,79.3333333333333,8|8|8,3:2|3:2|3:2,0:0:0:0:
167,162,11838,1,8,3:2:0:0:
279,105,11986,1,8,3:2:0:0:
391,102,12134,1,8,3:2:0:0:
167,162,12282,1,8,3:2:0:0:
167,162,12726,2,0,L|42:162,1,119,10|0,3:2|0:0,0:0:0:0:
330,141,13171,6,0,L|330:286,1,119,6|0,1:2|0:0,0:0:0:0:
261,272,13504,1,0,0:0:0:0:
372,232,13726,1,0,0:0:0:0:
171,140,13949,1,2,0:0:0:0:
171,140,14171,2,0,L|266:140,1,59.5,0|2,0:0|0:0,0:0:0:0:
62,212,14504,1,8,1:0:0:0:
9,194,14615,1,2,0:0:0:0:
8,138,14726,1,2,0:0:0:0:
61,121,14837,1,2,0:0:0:0:
256,105,14949,6,0,L|331:103,2,59.5,2|2|2,1:2|0:0|0:0,0:0:0:0:
202,112,15282,1,2,0:0:0:0:
318,112,15504,1,2,0:0:0:0:
202,112,15726,1,2,0:0:0:0:
318,112,15838,2,0,L|319:258,1,119,0|2,1:0|0:0,0:0:0:0:
118,210,16282,2,0,L|21:207,2,59.5,10|0|2,1:2|0:0|0:0,0:0:0:0:
414,103,16726,6,0,L|338:99,2,59.5,2|0|0,1:2|0:0|0:0,0:0:0:0:
484,109,17060,2,0,L|482:266,1,119,2|0,0:0|0:0,0:0:0:0:
482,227,17504,1,0,0:0:0:0:
359,152,17615,2,0,L|360:313,1,119,0|2,1:0|0:0,0:0:0:0:
179,131,18060,1,8,1:0:0:0:
238,128,18171,1,0,0:0:0:0:
297,125,18282,1,2,0:0:0:0:
238,128,18393,1,0,0:0:0:0:
56,65,18504,6,0,L|-8:67,2,59.5,2|0|0,1:2|0:0|0:0,0:0:0:0:
182,63,18838,2,0,L|188:209,1,119,0|2,0:0|0:0,0:0:0:0:
367,194,19282,1,2,0:0:0:0:
186,181,19504,1,2,0:0:0:0:
186,181,19726,1,2,0:0:0:0:
375,93,19838,2,0,L|458:97,2,59.5,10|10|2,1:2|1:2|1:2,0:0:0:0:
313,83,20171,1,2,1:2:0:0:
133,79,20282,6,0,L|65:81,2,59.5,6|2|2,1:2|0:0|0:0,0:0:0:0:
257,68,20615,2,0,L|259:207,1,119,2|0,0:0|0:0,0:0:0:0:
156,182,21060,1,2,0:0:0:0:
278,143,21171,2,0,L|438:141,1,119,2|2,1:2|0:0,0:0:0:0:
213,66,21615,1,10,1:2:0:0:
304,57,21726,1,10,1:2:0:0:
395,51,21838,1,2,1:2:0:0:
106,157,22060,6,0,L|18:162,2,59.5,6|0|10,1:2|0:0|1:2,0:0:0:0:
166,151,22393,2,0,L|169:276,1,119,10|0,3:2|1:0,0:0:0:0:
111,278,22726,2,0,L|194:270,1,59.5,10|2,3:2|0:0,0:0:0:0:
358,230,22949,1,10,1:2:0:0:
411,214,23060,1,10,1:2:0:0:
410,158,23171,1,6,0:0:0:0:
357,144,23282,1,2,0:0:0:0:
236,141,23393,1,8,1:0:0:0:
288,121,23504,1,0,1:0:0:0:
289,65,23615,1,0,1:0:0:0:
237,45,23726,1,0,1:0:0:0:
425,52,23838,6,0,P|490:63|411:160,1,238,2|2,0:0|1:2,0:0:0:0:
255,180,24504,1,10,1:2:0:0:
426,178,24726,1,0,0:0:0:0:
320,80,24949,2,0,L|401:77,1,59.5,2|10,1:2|3:2,0:0:0:0:
273,31,25282,2,0,L|370:28,1,59.5,2|2,1:2|1:2,0:0:0:0:
128,138,25615,5,2,0:0:0:0:
128,138,25838,2,0,L|275:133,2,119,2|2|10,1:2|1:2|1:2,0:0:0:0:
313,130,26504,1,2,0:0:0:0:
326,49,26726,2,0,L|250:46,1,59.5,2|8,1:2|3:1,0:0:0:0:
388,53,26949,2,0,L|386:195,1,119,2|2,1:2|1:2,0:0:0:0:
66,210,27393,6,0,L|219:210,2,119,6|2|2,0:0|1:2|1:2,0:0:0:0:
269,192,28060,2,0,L|271:72,1,119,10|2,1:2|0:0,0:0:0:0:
79,62,28504,1,2,1:2:0:0:
267,62,28726,1,2,1:2:0:0:
173,61,28838,1,0,1:0:0:0:
79,62,28949,1,2,1:2:0:0:
379,68,29171,6,0,L|380:218,1,119,2|2,0:0|1:2,0:0:0:0:
214,201,29615,2,0,L|337:197,1,119,2|10,1:2|1:2,0:0:0:0:
124,122,30060,2,0,L|0:124,1,119,2|2,0:0|1:2,0:0:0:0:
201,172,30504,2,0,L|121:170,1,59.5,2|0,1:2|1:0,0:0:0:0:
28,129,30726,2,0,L|21:66,1,59.5,2|0,1:2|1:0,0:0:0:0:
222,46,30949,5,6,0:0:0:0:
332,44,31171,2,0,L|342:151,1,59.5,2|0,1:2|1:0,0:0:0:0:
266,156,31393,2,0,L|141:156,1,119,2|10,1:2|1:2,0:0:0:0:
328,83,31838,2,0,L|466:77,1,119,2|2,0:0|1:2,0:0:0:0:
263,189,32282,1,2,1:2:0:0:
446,77,32504,1,2,1:2:0:0:
147,67,32726,6,0,P|74:68|59:163,1,178.5,2|0,0:0|1:0,0:0:0:0:
190,172,33171,2,0,L|189:306,1,119,2|10,1:2|1:2,0:0:0:0:
17,167,33615,1,2,0:0:0:0:
115,114,33838,2,0,L|120:35,1,59.5,2|10,1:2|3:2,0:0:0:0:
16,29,34171,2,0,L|82:25,1,59.5,2|0,1:2|1:0,0:0:0:0:
369,122,34504,6,0,L|243:123,1,119,6|2,0:0|1:2,0:0:0:0:
440,118,34949,2,0,L|452:263,1,119,2|10,1:2|1:2,0:0:0:0:
277,258,35393,2,0,L|414:255,1,119,2|2,0:0|1:2,0:0:0:0:
101,148,35838,1,2,1:2:0:0:
36,148,35949,1,0,1:0:0:0:
101,148,36060,1,2,1:2:0:0:
390,87,36282,6,0,L|258:83,2,119,6|2|2,0:0|1:2|1:2,0:0:0:0:
180,190,36949,2,0,L|437:192,1,238,10|0,1:2|0:0,0:0:0:0:
305,140,37615,2,0,L|306:61,1,59.5,0|0,1:0|1:0,0:0:0:0:
370,47,37838,2,0,L|448:39,1,59.5,0|0,1:0|1:0,0:0:0:0:
202,60,38060,6,0,P|116:65|109:195,1,238,6|2,0:0|1:2,0:0:0:0:
286,204,38726,1,10,1:2:0:0:
116,187,38949,1,2,0:0:0:0:
231,101,39171,2,0,L|141:98,1,59.5,2|10,1:2|3:2,0:0:0:0:
282,36,39504,2,0,L|365:36,1,59.5,2|2,1:2|1:2,0:0:0:0:
57,159,39838,5,2,0:0:0:0:
57,159,40060,2,0,L|147:160,1,59.5,2|0,1:2|1:0,0:0:0:0:
245,162,40282,2,0,L|244:312,1,119,2|10,1:2|1:2,0:0:0:0:
57,248,40726,1,2,0:0:0:0:
245,162,40949,2,0,L|144:161,1,59.5,2|8,1:2|3:1,0:0:0:0:
14,95,41171,2,0,L|14:-31,1,119,2|2,1:2|1:2,0:0:0:0:
328,90,41615,6,0,L|161:88,1,119,2|2,0:0|1:2,0:0:0:0:
403,28,42060,2,0,L|235:27,1,119,2|10,1:2|1:2,0:0:0:0:
104,188,42504,2,0,L|271:186,1,119,2|2,0:0|1:2,0:0:0:0:
29,126,42949,2,0,L|197:125,1,119,2|2,1:2|1:2,0:0:0:0:
457,139,43393,6,0,P|460:210|306:263,1,238,6|0,0:0|1:0,0:0:0:0:
386,219,43949,1,2,0:0:0:0:
328,202,44060,2,0,L|326:124,1,59.5,10|2,1:2|0:0,0:0:0:0:
455,107,44282,2,0,L|459:242,1,119,2|2,0:0|1:2,0:0:0:0:
270,242,44726,1,2,1:2:0:0:
364,231,44838,1,0,1:0:0:0:
458,225,44949,1,0,1:0:0:0:
123,147,45171,6,0,L|277:130,1,119,6|0,0:0|1:0,0:0:0:0:
173,70,45504,2,0,L|174:212,1,119,2|2,1:2|0:0,0:0:0:0:
112,211,45838,1,10,1:2:0:0:
396,146,46060,2,0,L|242:129,1,119,2|0,0:0|1:0,0:0:0:0:
346,69,46393,2,0,L|345:211,1,119,10|0,3:2|1:0,0:0:0:0:
407,210,46727,1,2,1:2:0:0:
211,118,46949,6,0,P|128:114|89:249,1,238,6|2,0:0|1:2,0:0:0:0:
263,267,47615,1,8,1:0:0:0:
87,201,47838,2,0,L|87:62,1,119,2|0,0:0|1:0,0:0:0:0:
264,72,48282,1,2,1:2:0:0:
87,82,48504,1,2,1:2:0:0:
430,135,48726,6,0,P|323:137|315:227,1,178.5,6|2,0:0|1:2,0:0:0:0:
471,249,49393,1,10,1:2:0:0:
272,145,49615,2,0,L|273:27,1,119,2|2,0:0|1:2,0:0:0:0:
74,100,50060,2,0,L|74:-23,1,119,2|2,1:2|1:2,0:0:0:0:
370,49,50504,5,6,0:0:0:0:
370,49,50726,2,0,L|305:51,1,59.5,0|0,1:0|1:0,0:0:0:0:
310,50,51060,2,0,L|376:46,1,59.5,2|8,0:0|1:0,0:0:0:0:
370,49,51393,1,2,0:0:0:0:
310,49,51504,1,2,0:0:0:0:
251,50,51615,1,0,1:0:0:0:
251,50,51838,1,8,1:0:0:0:
348,116,51949,1,8,1:0:0:0:
445,120,52060,1,8,1:0:0:0:
162,101,52282,6,0,P|96:103|90:211,1,178.5,4|0,3:0|0:0,0:0:0:0:
214,220,52726,2,0,L|214:85,1,119,0|0,3:1|0:0,0:0:0:0:
414,82,53171,2,0,L|276:79,1,119,10|2,0:0|1:2,0:0:0:0:
355,142,53504,2,0,L|491:144,1,119,2|2,0:0|0:0,0:0:0:0:
413,85,53838,1,2,1:2:0:0:
126,226,54060,6,0,P|213:224|238:110,1,178.5,4|0,3:0|0:0,0:0:0:0:
126,226,54504,2,0,L|125:81,1,119,0|0,3:1|0:0,0:0:0:0:
318,76,54949,2,0,L|456:73,1,119,10|2,0:0|1:2,0:0:0:0:
377,136,55282,2,0,L|241:138,1,119,2|2,0:0|0:0,0:0:0:0:
319,79,55616,1,2,1:2:0:0:
31,129,55838,5,2,0:0:0:0:
31,129,56060,2,0,L|118:126,1,59.5,2|0,0:0|0:0,0:0:0:0:
217,127,56282,2,0,L|82:129,1,119,2|2,1:2|1:2,0:0:0:0:
301,203,56726,1,2,0:0:0:0:
301,203,56949,2,0,L|212:204,1,59.5,2|0,0:0|0:0,0:0:0:0:
365,145,57171,2,0,L|505:145,1,119,2|2,1:2|1:2,0:0:0:0:
282,65,57615,5,2,1:2:0:0:
282,65,57838,2,0,L|364:66,1,59.5,10|8,0:0|0:0,0:0:0:0:
151,199,58060,1,10,0:0:0:0:
97,185,58171,1,8,0:0:0:0:
97,130,58282,1,10,0:0:0:0:
151,117,58393,1,8,0:0:0:0:
332,112,58504,2,0,L|416:112,1,59.5,10|8,0:0|0:0,0:0:0:0:
332,112,58726,2,0,L|248:115,1,59.5,8|8,0:0|0:0,0:0:0:0:
476,104,58949,2,0,P|492:210|417:256,1,178.5,10|0,0:0|0:0,0:0:0:0:
238,232,59393,6,0,L|115:220,1,119,4|2,3:1|0:0,0:0:0:0:
238,232,59838,2,0,L|243:94,1,119,2|2,0:0|0:0,0:0:0:0:
431,80,60282,1,2,3:2:0:0:
431,80,60504,2,0,L|306:81,1,119,2|2,0:0|0:0,0:0:0:0:
312,80,60949,2,0,L|396:81,1,59.5,2|0,3:2|3:1,0:0:0:0:
250,116,61171,6,0,L|249:249,1,119,2|2,3:2|0:0,0:0:0:0:
132,248,61615,2,0,L|130:116,1,119,2|2,0:0|3:2,0:0:0:0:
20,115,62060,1,2,0:0:0:0:
210,120,62282,1,2,0:0:0:0:
403,105,62504,1,2,0:0:0:0:
210,120,62726,1,2,0:0:0:0:
492,101,62949,6,0,L|496:207,2,59.5,2|0|0,3:0|0:0|1:0,0:0:0:0:
305,78,63393,2,0,L|394:75,2,59.5,2|0|0,3:0|0:0|1:0,0:0:0:0:
111,86,63838,1,2,3:0:0:0:
307,78,64060,1,2,3:0:0:0:
111,86,64282,1,2,3:0:0:0:
209,80,64393,1,0,0:0:0:0:
307,78,64504,1,2,3:0:0:0:
24,93,64726,6,0,L|91:94,1,59.5,10|8,0:0|0:0,0:0:0:0:
201,101,64949,2,0,L|204:180,1,59.5,8|8,0:0|0:0,0:0:0:0:
81,220,65171,2,0,L|81:141,1,59.5,8|8,0:0|0:0,0:0:0:0:
201,138,65393,2,0,L|136:138,1,59.5,8|8,0:0|0:0,0:0:0:0:
384,134,65615,2,0,P|446:139|504:305,1,238,6|0,0:0|0:0,0:0:0:0:
3,181,66504,6,0,L|128:173,1,119,6|0,0:0|1:0,0:0:0:0:
252,153,66838,2,0,L|258:293,1,119
190,299,67171,2,0,L|118:289,1,59.5,2|0,0:0|0:0,0:0:0:0:
343,273,67393,2,0,L|343:135,1,119,2|0,1:2|1:0,0:0:0:0:
217,151,67726,2,0,L|370:152,1,119,2|0,1:2|0:0,0:0:0:0:
271,90,68060,2,0,L|349:89,1,59.5,2|2,1:2|1:2,0:0:0:0:
146,70,68282,6,0,L|1:68,1,119,2|0,1:2|1:0,0:0:0:0:
91,111,68615,2,0,L|90:242,1,119,2|0,1:2|0:0,0:0:0:0:
208,248,68949,2,0,L|311:255,1,59.5,2|0,0:0|0:0,0:0:0:0:
72,283,69171,2,0,P|33:243|86:213,1,119,2|2,1:2|0:0,0:0:0:0:
274,195,69615,1,10,0:0:0:0:
70,209,69838,1,2,0:0:0:0:
402,183,70060,6,0,L|482:185,2,59.5,2|0|0,1:2|0:0|1:0,0:0:0:0:
281,116,70393,2,0,L|436:120,1,119,2|2,1:2|0:0,0:0:0:0:
459,117,70726,1,2,0:0:0:0:
110,183,70949,2,0,L|30:185,2,59.5,2|0|0,1:2|0:0|1:0,0:0:0:0:
231,116,71282,2,0,L|76:120,1,119,2|0,1:2|0:0,0:0:0:0:
53,117,71615,1,2,1:2:0:0:
350,103,71838,5,2,1:2:0:0:
174,102,72060,1,2,1:2:0:0:
460,201,72282,1,10,0:0:0:0:
90,209,72504,1,2,0:0:0:0:
261,141,72726,2,0,L|260:52,2,59.5,2|0|2,1:2|1:0|0:0,0:0:0:0:
434,228,73171,1,10,0:0:0:0:
369,229,73282,1,10,0:0:0:0:
434,228,73393,1,10,0:0:0:0:
128,159,73615,6,0,L|130:288,1,119,6|2,0:0|1:2,0:0:0:0:
248,288,73949,2,0,L|378:288,1,119,2|2,1:2|0:0,0:0:0:0:
306,226,74282,1,2,0:0:0:0:
96,163,74504,2,0,L|248:162,1,119,2|2,1:2|1:2,0:0:0:0:
155,118,74838,2,0,L|156:-7,1,119,2|2,1:2|0:0,0:0:0:0:
96,24,75171,2,0,L|23:26,1,59.5,2|2,1:2|1:2,0:0:0:0:
255,78,75393,6,0,L|459:78,2,178.5,2|2|2,1:2|1:2|1:2,0:0:0:0:
456,89,76282,2,0,L|459:220,1,119,2|2,1:2|1:2,0:0:0:0:
250,209,76726,1,10,0:0:0:0:
458,207,76949,1,10,0:0:0:0:
123,210,77171,6,0,L|122:67,1,119,6|0,0:0|1:0,0:0:0:0:
316,62,77504,2,0,L|471:65,1,119,2|0,1:2|0:0,0:0:0:0:
434,64,77838,1,2,1:2:0:0:
233,212,78060,2,0,L|234:75,1,119,2|0,1:2|1:0,0:0:0:0:
353,74,78393,2,0,L|506:74,1,119,2|0,1:2|1:0,0:0:0:0:
472,74,78726,1,2,1:2:0:0:
165,168,78949,6,0,L|165:83,1,59.5,2|0,1:2|1:0,0:0:0:0:
233,81,79171,2,0,L|233:12,1,59.5,8|0,0:0|1:0,0:0:0:0:
105,167,79393,1,2,1:2:0:0:
51,152,79504,1,2,1:2:0:0:
50,96,79615,1,10,0:0:0:0:
103,80,79726,1,10,0:0:0:0:
225,212,79838,5,2,1:2:0:0:
164,196,79949,1,2,1:2:0:0:
163,140,80060,1,2,1:2:0:0:
223,125,80171,1,2,1:2:0:0:
351,120,80282,2,0,L|277:118,1,59.5,2|2,1:2|1:2,0:0:0:0:
411,57,80504,2,0,L|497:56,1,59.5,2|2,1:2|1:2,0:0:0:0:
266,56,80726,5,10,0:0:0:0:
191,56,80875,1,10,0:0:0:0:
266,56,81023,1,10,0:0:0:0:
143,127,81171,1,10,0:0:0:0:
266,56,81319,1,10,0:0:0:0:
143,127,81467,1,10,0:0:0:0:
379,152,81615,1,14,0:0:0:0:
379,152,82060,1,2,0:0:0:0:
39,266,82504,6,0,L|39:106,1,119,6|0,0:0|1:0,0:0:0:0:
110,123,82838,2,0,L|111:-4,1,119,0|0,1:0|0:0,0:0:0:0:
40,16,83171,2,0,L|114:13,1,59.5,2|2,1:2|1:2,0:0:0:0:
233,67,83393,2,0,L|145:67,2,59.5,2|2|2,1:2|0:0|1:2,0:0:0:0:
436,74,83838,1,8,0:0:0:0:
232,66,84060,1,2,1:2:0:0:
436,74,84282,6,0,L|435:221,1,119,2|0,1:2|1:0,0:0:0:0:
315,221,84615,2,0,L|314:117,1,59.5,0|8,1:0|0:0,0:0:0:0:
253,134,84838,1,2,1:2:0:0:
191,107,84949,2,0,L|191:22,1,59.5,2|8,1:2|0:0,0:0:0:0:
312,43,85171,2,0,L|487:46,1,119,2|0,1:2|1:0,0:0:0:0:
247,172,85615,2,0,L|456:170,1,178.500006809235,2|0,1:2|1:0,0:0:0:0:
116,181,86060,6,0,L|118:316,1,119,6|8,0:0|0:0,0:0:0:0:
237,302,86393,2,0,L|238:206,1,59.5,2|8,0:0|0:0,0:0:0:0:
301,197,86615,1,0,0:0:0:0:
238,169,86726,2,0,L|237:88,1,59.5,2|8,1:2|0:0,0:0:0:0:
428,60,86949,2,0,L|491:59,2,59.5,2|2|8,1:2|1:2|0:0,0:0:0:0:
228,87,87393,1,10,0:0:0:0:
328,69,87504,1,2,1:2:0:0:
428,60,87615,1,2,1:2:0:0:
88,128,87838,6,0,P|39:167|110:257,1,178.5,6|6,0:0|0:0,0:0:0:0:
487,246,88504,1,6,3:2:0:0:
256,192,88726,12,0,89615,0:0:0:0:
