osu file format v14

[General]
AudioFilename: audio.mp3
AudioLeadIn: 0
PreviewTime: 66393
Countdown: 0
SampleSet: Soft
StackLeniency: 0.6
Mode: 0
LetterboxInBreaks: 0
WidescreenStoryboard: 1

[Editor]
Bookmarks: 73636,83969
DistanceSpacing: 0.4
BeatDivisor: 4
GridSize: 4
TimelineZoom: 1.6

[Metadata]
Title:Dance In The Game (TV Size)
TitleUnicode:Dance In The Game (TV Size)
Artist:ZAQ
ArtistUnicode:ZAQ
Creator:Bellicose
Version:Rio's Insane
Source:ようこそ実力至上主義の教室へ 2nd Season
Tags:otosaka-yu Fyuni fushimi rio imoutosan gust Ultimate Madoka garden otosaka yu Suzuki_1112 Suzuki 1112 Welcome to the Classroom of the Elite Youkoso Jitsuryoku Shijou Shugi no Kyoushitsu e anime op opening japanese pop jpop short ver
BeatmapID:3691279
BeatmapSetID:1797993

[Difficulty]
HPDrainRate:6
CircleSize:4.2
OverallDifficulty:7.7
ApproachRate:8.2
SliderMultiplier:2
SliderTickRate:1

[Events]
//Background and Video events
0,0,"asdf.jpg",0,0
Video,45,"video.mp4"
//Break Periods
//Storyboard Layer 0 (Background)
//Storyboard Layer 1 (Fail)
//Storyboard Layer 2 (Pass)
//Storyboard Layer 3 (Foreground)
//Storyboard Layer 4 (Overlay)
//Storyboard Sound Samples

[TimingPoints]
727,444.444444444444,4,2,1,50,1,0
727,-133.333333333333,4,2,1,50,0,0
6949,-111.111111111111,4,2,1,50,0,0
7838,-111.111111111111,4,2,1,60,0,0
13171,-100,4,2,1,60,0,0
21615,-66.6666666666667,4,2,1,60,0,0
22060,-100,4,2,1,60,0,0
23838,-111.111111111111,4,2,1,50,0,0
38060,-100,4,2,1,50,0,0
57838,-100,4,2,0,45,0,0
58504,-100,4,2,0,50,0,0
58949,-100,4,2,1,60,0,0
59393,-111.111111111111,4,2,1,50,0,0
62949,-111.111111111111,4,2,1,60,0,0
64726,-111.111111111111,4,2,1,65,0,0
65615,-111.111111111111,4,2,1,60,0,0
66504,-90.9090909090909,4,2,1,70,0,1
82504,-100,4,2,1,70,0,0
88504,-125,4,2,1,70,0,0

[Colours]
Combo1 : 226,143,243
Combo2 : 139,222,254
Combo3 : 253,206,240
Combo4 : 150,166,254

[HitObjects]
51,115,727,6,0,B|48:153|48:153|63:186,1,75.0000028610231,2|0,0:0|0:0,0:0:0:0:
201,164,1171,2,0,B|204:125|204:125|189:92,1,75.0000028610231,2|2,0:0|0:0,0:0:0:0:
126,140,1615,1,2,0:0:0:0:
160,240,1838,1,0,0:0:0:0:
160,240,1949,2,0,P|209:248|256:232,1,75.0000028610231,2|0,0:0|0:0,0:0:0:0:
256,231,2282,1,2,0:0:0:0:
401,300,2726,5,0,0:0:0:0:
401,300,2838,1,0,0:0:0:0:
401,300,2949,1,2,0:0:0:0:
327,337,3171,1,0,0:0:0:0:
290,263,3393,2,0,L|290:201,1,37.5000014305115,2|2,0:0|0:0,0:0:0:0:
371,188,3726,2,0,L|371:126,1,37.5000014305115,0|2,0:0|0:0,0:0:0:0:
232,47,4060,1,0,0:0:0:0:
232,73,4171,1,0,0:0:0:0:
232,99,4282,6,0,B|235:137|235:137|220:170,1,75.0000028610231,2|0,0:0|0:0,0:0:0:0:
138,282,4726,2,0,B|134:243|134:243|149:210,1,75.0000028610231,2|2,0:0|0:0,0:0:0:0:
213,257,5170,1,2,0:0:0:0:
104,143,5393,1,0,0:0:0:0:
104,143,5504,2,0,P|56:127|0:135,1,75.0000028610231,2|0,0:0|0:0,0:0:0:0:
7,138,5837,1,2,0:0:0:0:
231,52,6282,5,2,0:0:0:0:
231,52,6393,1,0,0:0:0:0:
231,52,6504,1,2,0:0:0:0:
186,121,6726,1,2,0:0:0:0:
239,184,6949,2,0,P|221:244|169:274,1,89.9999972534181,2|2,0:0|0:0,0:0:0:0:
182,271,7282,1,0,0:0:0:0:
159,271,7393,2,0,L|113:261,1,44.999998626709,2|0,0:0|0:0,0:0:0:0:
68,323,7615,2,0,L|82:367,1,44.999998626709,2|0,0:0|0:0,0:0:0:0:
159,376,7838,5,6,1:2:0:0:
181,347,8060,1,0,0:0:0:0:
110,155,8282,5,2,1:2:0:0:
88,184,8504,1,2,0:0:0:0:
269,314,8726,5,2,1:2:0:0:
341,127,8949,1,2,0:0:0:0:
341,127,9060,1,2,0:0:0:0:
341,127,9171,2,0,P|278:119|230:136,1,89.9999972534181,0|0,1:0|0:0,0:0:0:0:
236,133,9504,6,0,L|243:81,1,44.999998626709,2|0,0:0|1:2,0:0:0:0:
296,227,9838,1,0,0:0:0:0:
415,27,10060,1,2,1:2:0:0:
415,27,10171,1,0,0:0:0:0:
415,27,10282,1,2,0:0:0:0:
392,196,10504,2,0,P|441:187|456:126,1,89.9999972534181,2|0,1:2|0:0,0:0:0:0:
342,305,10949,5,2,1:2:0:0:
264,131,11171,1,2,0:0:0:0:
180,337,11393,5,10,1:2:0:0:
197,352,11541,2,0,L|280:352,1,59.9999981689454,10|10,1:2|1:2,0:0:0:0:
118,274,11838,1,10,1:2:0:0:
103,300,11986,1,10,1:2:0:0:
88,326,12134,1,10,1:2:0:0:
73,352,12282,1,10,1:2:0:0:
182,176,12726,1,8,0:3:0:0:
182,176,12949,1,2,0:0:0:0:
119,122,13171,6,0,B|139:97|139:97|219:97,1,100,6|0,1:2|0:0,0:0:0:0:
285,236,13615,2,0,L|313:279,2,50,10|2|2,0:0|0:3|0:3,0:0:0:0:
212,201,13949,2,0,P|204:236|209:263,1,50,2|2,0:3|1:3,0:0:0:0:
368,127,14282,1,2,0:3:0:0:
125,81,14504,1,8,0:0:0:0:
125,81,14615,1,2,0:0:0:0:
125,80,14726,2,0,P|97:104|86:129,1,50,2|2,0:0|0:0,0:0:0:0:
203,81,14949,6,0,P|196:45|180:23,2,50,2|2|2,1:3|0:3|0:0,0:0:0:0:
211,159,15282,2,0,P|186:157|124:89,1,100,2|2,0:0|0:0,0:0:0:0:
354,259,15726,1,2,0:3:0:0:
366,280,15838,2,0,L|357:360,1,50,2|2,1:2|0:2,0:0:0:0:
299,202,16060,2,0,L|304:152,1,50,2|2,0:2|0:2,0:0:0:0:
483,131,16282,2,0,P|447:181|379:185,1,100,10|2,0:0|0:3,0:0:0:0:
162,42,16726,6,0,P|211:78|277:61,1,100,2|0,1:3|0:0,0:0:0:0:
322,46,17060,2,0,P|346:45|370:52,1,50,2|8,0:3|0:0,0:0:0:0:
129,220,17393,2,0,P|120:196|120:171,1,50,2|0,0:0|0:0,0:0:0:0:
204,192,17615,1,2,1:2:0:0:
204,192,17726,1,2,0:3:0:0:
204,192,17837,1,2,0:3:0:0:
181,299,18059,2,0,L|82:299,1,100,8|2,0:0|0:0,0:0:0:0:
423,305,18504,6,0,P|374:341|308:324,1,100,2|2,1:3|0:3,0:0:0:0:
266,296,18838,2,0,L|255:352,1,50,2|8,0:3|0:0,0:0:0:0:
249,79,19171,2,0,L|238:135,1,50,2|2,0:0|0:3,0:0:0:0:
340,209,19393,5,0,1:0:0:0:
379,190,19504,1,2,0:3:0:0:
405,156,19615,1,2,0:3:0:0:
411,113,19726,1,2,0:3:0:0:
396,72,19837,1,10,0:0:0:0:
363,44,19948,1,10,0:0:0:0:
320,35,20059,1,10,0:3:0:0:
279,48,20170,1,4,0:3:0:0:
249,79,20282,6,0,P|261:135|322:132,1,100,6|0,1:2|0:0,0:0:0:0:
169,88,20615,2,0,L|115:210,1,100,2|2,0:3|0:3,0:0:0:0:
128,24,20949,1,0,0:3:0:0:
34,63,21171,5,0,1:0:0:0:
138,276,21393,1,2,0:0:0:0:
138,276,21504,1,2,0:3:0:0:
138,276,21615,2,0,P|101:198|46:203,1,150.000005722046,10|10,0:0|0:3,0:0:0:0:
60,369,22060,6,0,B|104:348|104:348|155:352,1,100,6|10,1:2|0:0,0:0:0:0:
180,356,22393,1,10,0:3:0:0:
227,206,22615,2,0,L|242:156,2,50,2|2|2,0:3|0:3|0:3,0:0:0:0:
307,89,22949,5,2,1:2:0:0:
307,89,23060,1,10,0:0:0:0:
307,89,23171,2,0,L|333:143,1,50,10|10,0:0|0:0,0:0:0:0:
322,225,23393,1,10,0:0:0:0:
322,225,23504,1,10,0:3:0:0:
322,225,23615,2,0,L|348:279,1,50,0|4,1:0|0:3,0:0:0:0:
444,288,23838,5,6,1:2:0:0:
424,297,24060,1,0,0:0:0:0:
452,71,24282,1,2,1:2:0:0:
432,80,24504,1,4,0:3:0:0:
403,306,24726,2,0,P|401:349|430:382,1,89.9999972534181,2|2,1:2|0:0,0:0:0:0:
464,259,25060,2,0,L|369:295,1,89.9999972534181,10|2,0:3|0:0,0:0:0:0:
506,261,25393,2,0,L|466:226,2,44.999998626709,2|0|0,0:0|0:0|1:0,0:0:0:0:
346,111,25838,5,2,0:0:0:0:
346,111,25949,1,8,0:3:0:0:
346,111,26060,1,2,1:2:0:0:
256,312,26282,1,6,0:3:0:0:
272,63,26504,5,2,1:2:0:0:
190,56,26726,5,2,0:0:0:0:
190,56,26838,2,0,L|203:121,1,44.999998626709,8|2,0:3|1:2,0:0:0:0:
261,353,27171,6,0,L|252:308,2,44.999998626709,6|4|6,0:3|0:3|1:2,0:0:0:0:
118,187,27615,1,0,0:0:0:0:
118,187,27726,2,0,L|151:217,1,44.999998626709,8|2,0:3|1:2,0:0:0:0:
337,380,28060,1,6,0:3:0:0:
96,270,28282,5,0,1:0:0:0:
139,337,28504,5,2,0:0:0:0:
139,337,28615,2,0,L|94:345,1,44.999998626709,8|2,0:3|1:2,0:0:0:0:
400,292,28949,1,6,0:3:0:0:
218,361,29171,5,2,1:2:0:0:
190,268,29393,1,2,0:0:0:0:
428,298,29615,5,2,1:2:0:0:
441,201,29837,1,4,0:3:0:0:
145,191,30060,5,2,1:2:0:0:
145,191,30171,2,0,L|134:142,2,44.999998626709,0|0|8,0:0|0:0|0:0,0:0:0:0:
279,100,30504,5,10,1:2:0:0:
279,100,30615,1,4,0:3:0:0:
279,100,30726,2,0,L|268:49,1,44.999998626709,6|4,0:3|0:3,0:0:0:0:
218,158,30949,5,4,1:2:0:0:
196,20,31171,1,2,0:0:0:0:
424,216,31393,5,2,1:2:0:0:
458,108,31615,1,6,0:3:0:0:
165,351,31838,5,2,1:2:0:0:
65,215,32060,1,2,0:0:0:0:
65,215,32171,2,0,L|110:276,1,44.999998626709,8|2,0:3|1:2,0:0:0:0:
40,88,32504,6,0,L|85:149,2,44.999998626709,6|0|2,0:3|0:0|1:2,0:0:0:0:
268,62,32949,5,0,0:0:0:0:
248,43,33060,1,8,0:3:0:0:
222,34,33171,1,2,1:2:0:0:
172,283,33393,1,6,0:3:0:0:
149,28,33615,5,2,1:2:0:0:
240,241,33838,1,0,0:0:0:0:
240,241,33949,2,0,L|210:171,1,44.999998626709,10|0,0:3|1:0,0:0:0:0:
155,147,34171,2,0,L|137:105,2,44.999998626709,2|4|4,0:0|0:3|0:3,0:0:0:0:
155,147,34504,5,6,1:2:0:0:
389,59,34726,1,0,0:0:0:0:
366,53,34838,1,8,0:3:0:0:
344,47,34949,1,2,1:2:0:0:
331,132,35171,5,4,0:3:0:0:
318,152,35283,1,0,0:0:0:0:
305,171,35394,1,2,1:2:0:0:
381,209,35615,5,0,0:0:0:0:
396,228,35727,1,8,0:3:0:0:
410,246,35838,2,0,L|474:253,1,44.999998626709,2|4,1:2|0:3,0:0:0:0:
453,169,36060,2,0,L|517:176,1,44.999998626709,6|4,0:3|0:3,0:0:0:0:
389,96,36282,5,6,1:2:0:0:
341,282,36504,1,2,0:0:0:0:
155,234,36726,1,2,1:2:0:0:
203,48,36949,1,6,0:3:0:0:
227,173,37171,5,8,0:0:0:0:
245,185,37282,2,0,L|363:166,1,89.9999972534181,8|8,0:0|0:3,0:0:0:0:
352,183,37615,2,0,L|429:170,1,44.999998626709,0|4,1:0|0:3,0:0:0:0:
320,260,37838,1,4,0:3:0:0:
320,260,37949,1,4,0:3:0:0:
320,260,38060,6,0,P|313:322|346:379,1,100,6|0,1:2|0:0,0:0:0:0:
397,301,38393,2,0,P|367:285|350:281,1,50,8|2,0:3|1:2,0:0:0:0:
174,345,38726,1,4,0:3:0:0:
174,345,38838,1,0,0:0:0:0:
174,345,38949,1,2,1:2:0:0:
154,205,39171,2,0,L|161:256,1,50,2|10,0:0|0:3,0:0:0:0:
212,139,39393,2,0,P|153:117|91:140,1,100,0|2,1:0|0:0,0:0:0:0:
98,138,39726,1,0,0:0:0:0:
73,143,39838,6,0,P|25:107|56:55,1,100,0|2,1:0|0:0,0:0:0:0:
109,0,40171,2,0,L|103:49,1,50,8|2,0:3|1:2,0:0:0:0:
74,301,40504,1,6,0:3:0:0:
84,227,40726,5,2,1:2:0:0:
84,227,40838,1,0,0:0:0:0:
84,227,40949,1,2,0:0:0:0:
166,265,41171,1,2,1:2:0:0:
154,354,41393,1,6,0:3:0:0:
431,69,41615,5,6,1:2:0:0:
416,175,41837,1,2,0:0:0:0:
38,132,42060,5,2,1:2:0:0:
84,227,42282,1,6,0:3:0:0:
352,0,42504,5,0,1:0:0:0:
316,267,42726,1,2,0:0:0:0:
104,48,42949,5,2,1:2:0:0:
243,335,43171,1,6,0:3:0:0:
316,267,43393,6,0,L|436:253,1,100,6|0,1:2|0:0,0:0:0:0:
440,257,43726,1,8,0:3:0:0:
463,266,43838,2,0,P|472:290|472:315,1,50,0|2,1:2|0:0,0:0:0:0:
427,181,44060,2,0,P|443:161|464:148,1,50,6|2,0:3|0:0,0:0:0:0:
353,190,44282,1,2,1:2:0:0:
333,187,44393,1,8,0:0:0:0:
314,179,44504,1,10,0:3:0:0:
298,166,44615,1,8,0:0:0:0:
289,147,44726,2,0,L|271:32,1,100,2|4,1:2|0:3,0:0:0:0:
208,203,45171,6,0,P|149:181|87:204,1,100,4|0,1:2|0:0,0:0:0:0:
136,316,45504,2,0,L|147:268,1,50,10|0,0:3|1:0,0:0:0:0:
97,61,45838,2,0,L|86:109,1,50,6|0,0:3|0:0,0:0:0:0:
170,101,46060,2,0,P|217:67|204:22,1,100,2|0,1:2|0:0,0:0:0:0:
211,31,46393,1,10,0:3:0:0:
211,31,46504,1,0,1:0:0:0:
266,152,46726,1,6,0:3:0:0:
343,20,46949,5,6,1:2:0:0:
260,167,47171,1,0,0:0:0:0:
254,180,47282,1,8,0:3:0:0:
248,193,47393,1,2,1:2:0:0:
361,113,47615,1,4,0:3:0:0:
442,240,47838,2,0,P|355:233|324:242,1,100,2|0,1:2|0:0,0:0:0:0:
328,246,48171,1,8,0:3:0:0:
316,260,48282,2,0,P|304:282|302:307,1,50,2|0,1:2|0:0,0:0:0:0:
261,191,48504,2,0,P|236:187|212:192,1,50,6|4,0:3|0:3,0:0:0:0:
85,324,48726,6,0,P|154:302|168:250,1,100,6|0,1:2|0:0,0:0:0:0:
168,261,49060,2,0,L|185:313,1,50,10|0,0:3|1:0,0:0:0:0:
135,168,49393,1,4,0:3:0:0:
80,238,49615,1,2,1:2:0:0:
195,106,49838,1,8,0:3:0:0:
195,106,49949,1,8,0:3:0:0:
195,106,50060,1,2,1:2:0:0:
79,59,50282,1,4,0:3:0:0:
79,59,50393,1,4,0:3:0:0:
79,59,50504,6,0,P|41:86|54:160,1,100,6|0,1:2|0:0,0:0:0:0:
96,46,50838,2,0,L|-12:15,1,100,8|0,0:3|0:0,0:0:0:0:
0,18,51171,1,4,0:3:0:0:
45,229,51393,5,0,1:0:0:0:
142,144,51615,1,8,0:3:0:0:
177,125,51726,1,8,0:0:0:0:
217,125,51837,1,0,1:0:0:0:
253,144,51948,1,8,0:0:0:0:
275,177,52059,1,4,0:3:0:0:
280,217,52170,1,4,0:3:0:0:
266,255,52281,5,2,1:2:0:0:
189,30,52726,1,2,1:2:0:0:
132,120,53171,6,0,P|185:118|217:148,1,100,10|2,0:0|0:3,0:0:0:0:
235,142,53504,2,0,P|249:91|287:70,1,100,10|4,0:3|0:3,0:0:0:0:
306,78,53838,2,0,L|359:78,1,50,2|0,0:0|0:0,0:0:0:0:
375,78,54060,5,2,1:2:0:0:
297,303,54505,1,2,1:2:0:0:
217,148,54949,6,0,P|164:150|132:120,1,100,10|2,0:0|0:3,0:0:0:0:
78,47,55282,2,0,P|44:110|49:158,1,100,10|4,0:3|0:3,0:0:0:0:
50,155,55615,1,2,0:0:0:0:
282,107,55838,5,4,1:2:0:0:
242,219,56060,1,2,0:2:0:0:
168,123,56282,5,2,1:2:0:0:
128,235,56504,1,2,0:0:0:0:
340,97,56726,5,0,1:0:0:0:
429,317,56948,1,2,0:0:0:0:
380,22,57170,5,2,1:2:0:0:
290,348,57392,1,2,0:0:0:0:
192,85,57616,5,0,1:0:0:0:
161,78,57727,1,0,1:0:0:0:
131,87,57838,1,0,1:0:0:0:
110,111,57949,1,0,1:0:0:0:
103,142,58060,1,0,1:0:0:0:
113,172,58171,1,0,1:0:0:0:
137,193,58282,2,0,L|196:201,1,50,0|0,1:0|1:0,0:0:0:0:
298,139,58504,5,0,1:0:0:0:
336,116,58615,1,0,1:0:0:0:
380,111,58726,1,0,1:0:0:0:
422,126,58837,1,0,1:0:0:0:
455,157,58948,1,2,1:2:0:0:
471,198,59059,1,2,0:3:0:0:
468,243,59170,1,2,0:3:0:0:
446,282,59281,1,2,0:3:0:0:
410,308,59393,6,0,L|386:251,1,44.999998626709,6|0,1:2|0:0,0:0:0:0:
310,252,59615,1,0,0:0:0:0:
310,252,59838,2,0,L|398:231,1,89.9999972534181,2|0,0:0|0:0,0:0:0:0:
297,152,60282,2,0,L|191:176,2,89.9999972534181,8|0|2,0:1|0:0|0:0,0:0:0:0:
311,52,60949,5,0,1:2:0:0:
311,52,61060,1,0,1:0:0:0:
311,52,61171,2,0,P|365:56|410:32,1,89.9999972534181,2|0,1:2|0:0,0:0:0:0:
409,29,61504,2,0,P|421:81|458:116,1,89.9999972534181,0|0,1:0|0:0,0:0:0:0:
459,117,61838,2,0,L|514:109,1,44.999998626709,0|0,1:0|0:0,0:0:0:0:
424,200,62060,1,8,0:1:0:0:
424,200,62282,1,2,0:0:0:0:
424,200,62504,1,2,0:0:0:0:
454,276,62726,1,2,0:0:0:0:
251,155,62949,5,6,1:2:0:0:
512,85,63171,1,2,0:3:0:0:
251,155,63393,5,2,1:2:0:0:
512,85,63615,1,2,0:3:0:0:
317,213,63838,5,2,1:2:0:0:
70,112,64060,1,2,0:0:0:0:
420,0,64282,5,2,1:2:0:0:
339,357,64504,1,2,0:0:0:0:
67,256,64726,5,8,1:2:0:0:
34,281,64838,1,8,0:2:0:0:
24,325,64949,1,8,0:2:0:0:
45,370,65060,1,8,0:2:0:0:
96,384,65171,1,8,1:2:0:0:
148,371,65282,1,8,0:2:0:0:
186,334,65393,1,8,0:2:0:0:
202,283,65504,1,8,0:2:0:0:
190,231,65615,1,2,0:0:0:0:
183,187,66504,6,0,B|207:202|207:202|289:194,1,110.000003356934,6|0,1:0|0:0,0:0:0:0:
358,154,66838,2,0,L|371:219,1,55.0000016784668,2|8,0:0|0:0,0:0:0:0:
497,93,67171,2,0,L|507:39,1,55.0000016784668,2|0,0:0|0:0,0:0:0:0:
486,173,67393,1,2,1:0:0:0:
486,173,67504,1,0,0:0:0:0:
486,173,67615,1,0,0:0:0:0:
427,46,67838,2,0,P|369:43|333:98,1,110.000003356934,8|2,0:0|0:0,0:0:0:0:
328,166,68171,1,2,0:0:0:0:
327,187,68282,6,0,P|384:197|437:249,1,110.000003356934,2|0,1:0|0:0,0:0:0:0:
386,328,68615,2,0,P|329:318|276:266,1,110.000003356934,2|0,0:0|0:0,0:0:0:0:
276,267,68949,2,0,L|265:320,1,55.0000016784668,2|0,0:0|0:0,0:0:0:0:
160,362,69171,1,2,1:0:0:0:
121,347,69282,1,2,0:0:0:0:
97,315,69393,1,2,0:0:0:0:
93,275,69504,1,2,0:0:0:0:
112,238,69615,2,0,P|182:243|190:285,1,110.000003356934,8|2,0:0|0:0,0:0:0:0:
110,143,70060,6,0,P|58:158|4:151,1,110.000003356934,2|0,1:0|0:0,0:0:0:0:
143,23,70393,2,0,L|156:88,1,55.0000016784668,2|8,0:0|0:0,0:0:0:0:
203,291,70726,2,0,L|221:233,1,55.0000016784668,2|0,0:0|0:0,0:0:0:0:
244,167,70949,1,2,1:0:0:0:
391,309,71171,1,0,0:0:0:0:
391,309,71282,1,2,0:0:0:0:
391,309,71393,2,0,L|269:312,1,110.000003356934,8|2,0:0|0:0,0:0:0:0:
211,94,71838,5,2,1:0:0:0:
21,213,72060,1,2,0:0:0:0:
271,34,72282,5,10,0:0:0:0:
495,248,72504,1,2,0:0:0:0:
165,33,72726,5,2,1:0:0:0:
142,70,72837,1,2,0:0:0:0:
145,115,72948,1,2,0:0:0:0:
172,149,73059,1,2,0:0:0:0:
214,163,73170,1,10,0:0:0:0:
256,150,73281,1,8,0:0:0:0:
284,116,73392,1,8,0:0:0:0:
288,72,73503,1,8,0:0:0:0:
267,34,73615,6,0,B|242:19|242:19|160:26,1,110.000003356934,6|0,1:0|0:0,0:0:0:0:
214,163,73949,2,0,L|207:96,1,55.0000016784668,2|8,0:0|0:0,0:0:0:0:
309,279,74282,2,0,L|314:224,1,55.0000016784668,2|0,0:0|0:0,0:0:0:0:
384,331,74504,1,2,1:0:0:0:
384,331,74615,1,0,0:0:0:0:
384,331,74726,1,0,0:0:0:0:
201,326,74949,2,0,P|238:363|291:358,1,110.000003356934,8|2,0:0|0:0,0:0:0:0:
236,221,75282,1,2,0:0:0:0:
216,216,75393,6,0,P|154:228|114:259,1,110.000003356934,2|0,1:0|0:0,0:0:0:0:
115,234,75726,2,0,L|108:167,1,55.0000016784668,2|8,0:0|0:0,0:0:0:0:
353,73,76060,2,0,L|347:127,1,55.0000016784668,2|0,0:0|0:0,0:0:0:0:
238,40,76282,2,0,L|288:17,2,55.0000016784668,2|0|0,1:0|0:0|0:0,0:0:0:0:
267,157,76615,1,2,0:0:0:0:
267,157,76726,2,0,P|247:137|224:122,1,55.0000016784668,10|8,0:0|0:3,0:0:0:0:
146,100,76949,2,0,P|118:104|92:114,1,55.0000016784668,4|4,0:3|0:3,0:0:0:0:
16,208,77171,6,0,P|73:218|126:270,1,110.000003356934,6|0,1:0|0:0,0:0:0:0:
119,324,77504,2,0,L|126:263,1,55.0000016784668,2|8,0:0|0:0,0:0:0:0:
286,140,77838,2,0,L|293:79,1,55.0000016784668,2|0,0:0|0:0,0:0:0:0:
229,189,78060,1,2,1:0:0:0:
309,277,78282,1,0,0:0:0:0:
309,277,78393,1,2,0:0:0:0:
309,277,78504,2,0,B|333:292|333:292|415:284,1,110.000003356934,8|2,0:0|0:0,0:0:0:0:
257,353,78949,5,2,1:0:0:0:
34,163,79171,1,8,0:0:0:0:
257,353,79393,5,8,0:0:0:0:
473,78,79615,1,10,0:0:0:0:
473,78,79726,1,8,0:0:0:0:
473,78,79838,5,2,1:2:0:0:
433,55,79949,1,10,0:2:0:0:
389,59,80060,1,2,1:2:0:0:
355,89,80171,1,10,0:2:0:0:
345,133,80282,1,2,1:2:0:0:
363,175,80393,1,10,0:2:0:0:
402,198,80504,2,0,P|433:200|461:191,1,55.0000016784668,2|10,1:2|0:2,0:0:0:0:
377,315,80726,5,10,1:2:0:0:
360,300,80874,2,0,L|277:300,1,73.3333355712891,10|10,1:2|1:3,0:0:0:0:
434,370,81171,1,6,1:3:0:0:
451,338,81319,1,10,1:3:0:0:
486,329,81467,1,2,1:2:0:0:
504,297,81615,1,10,1:2:0:0:
204,297,82060,1,10,0:0:0:0:
400,154,82504,6,0,B|380:179|380:179|300:179,1,100,6|0,1:2|0:0,0:0:0:0:
247,45,82948,2,0,L|226:0,2,50,8|8|6,0:0|0:3|0:3,0:0:0:0:
212,122,83282,2,0,L|191:167,1,50,0|2,0:0|1:2,0:0:0:0:
30,79,83615,1,2,0:0:0:0:
112,183,83837,1,10,0:0:0:0:
162,59,84060,1,2,0:0:0:0:
102,210,84282,6,0,P|103:265|136:317,1,100,2|0,1:2|0:0,0:0:0:0:
190,250,84615,2,0,P|213:242|238:243,1,50,2|8,0:0|0:0,0:0:0:0:
280,149,84838,1,2,0:0:0:0:
280,149,84949,2,0,P|294:169|301:193,1,50,0|8,0:0|0:3,0:0:0:0:
385,324,85171,6,0,P|337:319|313:276,1,100,2|0,1:2|0:0,0:0:0:0:
324,74,85615,2,0,P|371:79|395:121,1,100,10|0,0:2|0:0,0:0:0:0:
204,192,86059,6,0,P|267:199|315:182,1,100,4|8,1:2|0:3,0:0:0:0:
132,225,86393,2,0,L|121:156,2,50,0|4|0,0:0|0:3|0:0,0:0:0:0:
73,281,86726,2,0,L|41:218,1,50,2|8,0:3|0:0,0:0:0:0:
36,352,86948,1,0,1:0:0:0:
36,352,87059,1,2,0:3:0:0:
36,352,87171,2,0,L|-13:302,1,50,8|8,0:0|0:0,0:0:0:0:
114,353,87393,2,0,B|134:328|134:328|214:328,1,100,2|4,1:3|0:3,0:0:0:0:
256,192,87838,6,0,P|288:224|288:288,1,100,4|0,1:0|0:0,0:0:0:0:
256,192,88171,2,0,P|222:156|219:107,1,100,4|0,1:0|0:0,0:0:0:0:
256,40,88504,2,0,L|256:0,1,40,4|0,1:0|0:0,0:0:0:0:
