osu file format v14

[General]
AudioFilename: audio.mp3
AudioLeadIn: 0
PreviewTime: 66393
Countdown: 0
SampleSet: Soft
StackLeniency: 0.7
Mode: 0
LetterboxInBreaks: 0
WidescreenStoryboard: 1

[Editor]
Bookmarks: 12525,23192,37414,51636,65858
DistanceSpacing: 1
BeatDivisor: 4
GridSize: 32
TimelineZoom: 1.6

[Metadata]
Title:Dance In The Game (TV Size)
TitleUnicode:Dance In The Game (TV Size)
Artist:ZAQ
ArtistUnicode:ZAQ
Creator:Bellicose
Version:Normal
Source:ようこそ実力至上主義の教室へ 2nd Season
Tags:otosaka-yu Fyuni fushimi rio imoutosan gust Ultimate Madoka garden otosaka yu Suzuki_1112 Suzuki 1112 Welcome to the Classroom of the Elite Youkoso Jitsuryoku Shijou Shugi no Kyoushitsu e anime op opening japanese pop jpop short ver
BeatmapID:3691278
BeatmapSetID:1797993

[Difficulty]
HPDrainRate:4
CircleSize:3.5
OverallDifficulty:4
ApproachRate:5
SliderMultiplier:1.1
SliderTickRate:1

[Events]
//Background and Video events
0,0,"asdf.jpg",0,0
Video,45,"video.mp4"
//Break Periods
//Storyboard Layer 0 (Background)
//Storyboard Layer 1 (Fail)
//Storyboard Layer 2 (Pass)
//Storyboard Layer 3 (Foreground)
//Storyboard Layer 4 (Overlay)
//Storyboard Sound Samples

[TimingPoints]
727,444.444444444444,4,2,1,50,1,0
727,-100,4,2,1,50,0,0
7838,-100,4,2,1,60,0,0
12726,-100,4,2,1,60,0,0
13171,-100,4,2,1,60,0,0
19060,-100,4,2,1,60,0,0
19282,-100,4,2,1,60,0,0
19504,-100,4,2,1,60,0,0
19726,-100,4,2,1,60,0,0
20282,-100,4,2,1,60,0,0
23838,-100,4,2,1,50,0,0
52282,-100,4,2,1,50,0,0
57838,-100,4,2,0,45,0,0
58504,-100,4,2,0,50,0,0
58949,-100,4,2,1,60,0,0
59393,-100,4,2,1,50,0,0
62949,-100,4,2,1,60,0,0
64060,-100,4,2,1,60,0,0
64282,-100,4,2,1,60,0,0
64504,-100,4,2,1,60,0,0
64726,-100,4,2,1,65,0,0
65615,-100,4,2,1,60,0,0
66060,-100,4,2,1,60,0,0
66504,-95.2380952380952,4,2,1,70,0,1
72060,-95.2380952380952,4,2,1,70,0,1
72282,-95.2380952380952,4,2,1,70,0,1
72504,-95.2380952380952,4,2,1,70,0,1
72726,-95.2380952380952,4,2,1,70,0,1
72949,-95.2380952380952,4,2,1,70,0,1
81615,-95.2380952380952,4,2,1,70,0,0
82504,-95.2380952380952,4,2,1,70,0,0
86949,-100,4,2,1,70,0,0

[Colours]
Combo1 : 226,143,243
Combo2 : 139,222,254
Combo3 : 253,206,240
Combo4 : 150,166,254

[HitObjects]
243,99,727,5,2,0:0:0:0:
311,13,1171,1,2,0:0:0:0:
408,63,1615,2,0,L|500:42,2,82.5,2|2|2,0:0|0:0|0:0,0:0:0:0:
402,176,2726,1,0,0:0:0:0:
402,176,2949,1,2,0:0:0:0:
294,200,3393,2,0,P|256:259|273:307,1,110,2|2,0:0|0:0,0:0:0:0:
181,366,4282,5,2,0:0:0:0:
74,337,4726,1,2,0:0:0:0:
55,228,5171,2,0,L|38:136,2,82.5,2|2|2,0:0|0:0|0:0,0:0:0:0:
165,258,6282,1,2,0:0:0:0:
165,258,6504,1,2,0:0:0:0:
147,149,6949,2,0,L|124:25,1,110,2|2,0:0|0:0,0:0:0:0:
167,4,7615,1,2,0:0:0:0:
167,4,7838,6,0,P|210:37|263:26,1,110,6|0,1:2|1:2,0:0:0:0:
354,86,8726,2,0,P|406:76|448:108,1,110,2|0,1:2|1:0,0:0:0:0:
478,214,9615,1,2,1:2:0:0:
369,234,10060,1,2,1:2:0:0:
284,163,10504,1,2,1:2:0:0:
175,183,10949,1,2,1:2:0:0:
94,107,11393,6,0,L|114:24,1,73.3333333333333,10|10,1:2|1:2,0:0:0:0:
140,12,11838,2,0,L|211:29,1,73.3333333333333,10|10,1:2|1:2,0:0:0:0:
227,61,12282,1,10,1:2:0:0:
203,168,12726,1,8,0:3:0:0:
288,237,13171,6,0,P|326:278|310:336,1,110,6|10,1:2|0:0,0:0:0:0:
281,369,13838,1,2,0:3:0:0:
281,369,14060,2,0,L|169:342,1,110,2|8,1:3|0:0,0:0:0:0:
65,362,14949,1,2,1:3:0:0:
65,362,15171,2,0,L|47:290,1,55,2|8,0:0|0:0,0:0:0:0:
37,261,15615,1,2,0:3:0:0:
37,261,15838,2,0,P|77:225|135:237,1,110,2|10,1:2|0:0,0:0:0:0:
235,258,16726,6,0,L|260:151,1,110,2|8,1:3|0:0,0:0:0:0:
243,104,17393,1,2,0:0:0:0:
243,104,17615,2,0,L|141:78,2,82.5,2|2|2,1:2|0:0|0:0,0:0:0:0:
283,66,18504,2,0,L|389:91,1,110,2|8,1:3|0:0,0:0:0:0:
448,184,19393,1,0,1:0:0:0:
364,256,19838,2,0,L|344:333,1,55,10|10,0:0|0:3,0:0:0:0:
336,362,20282,6,0,L|443:336,1,110,6|8,1:2|0:0,0:0:0:0:
501,331,20949,1,2,0:3:0:0:
501,331,21171,1,2,1:2:0:0:
485,222,21615,2,0,L|498:168,1,55,10|10,0:0|0:3,0:0:0:0:
473,119,22060,2,0,L|498:15,2,82.5,6|10|2,1:2|0:3|0:3,0:0:0:0:
422,127,22949,1,2,1:2:0:0:
422,127,23171,2,0,L|368:114,1,55,10|10,0:0|0:0,0:0:0:0:
317,116,23615,1,0,1:0:0:0:
317,116,23838,6,0,P|283:158|301:218,1,110,6|2,1:2|1:2,0:0:0:0:
372,285,24726,1,2,1:2:0:0:
286,353,25171,1,0,1:2:0:0:
286,353,25393,2,0,L|171:379,1,110,2|2,0:0|0:0,0:0:0:0:
124,369,26060,2,0,P|90:327|108:267,1,110,2|2,1:2|1:2,0:0:0:0:
147,245,26726,1,2,0:0:0:0:
147,245,26949,1,2,1:2:0:0:
256,251,27393,6,0,L|231:143,1,110,6|2,1:2|1:2,0:0:0:0:
258,95,28060,1,6,0:3:0:0:
201,0,28504,2,0,L|93:24,1,110,2|6,0:0|0:3,0:0:0:0:
39,13,29171,1,2,1:2:0:0:
3,117,29615,1,2,1:2:0:0:
95,176,30060,1,2,1:2:0:0:
179,105,30504,2,0,L|257:85,1,55,10|6,1:2|0:3,0:0:0:0:
289,80,30949,5,4,1:2:0:0:
289,80,31171,2,0,P|321:112|309:174,1,110,2|6,0:0|0:3,0:0:0:0:
270,208,31838,2,0,L|246:316,1,110,2|2,1:2|1:2,0:0:0:0:
270,370,32504,1,6,0:3:0:0:
270,370,32726,1,2,1:2:0:0:
378,348,33171,1,2,1:2:0:0:
405,241,33615,2,0,L|485:223,2,82.5,2|10|4,1:2|0:3|0:3,0:0:0:0:
351,228,34504,6,0,P|322:188|344:130,1,110,6|2,1:2|1:2,0:0:0:0:
393,114,35171,1,4,0:3:0:0:
393,114,35393,2,0,P|422:74|400:16,1,110,2|2,1:2|1:2,0:0:0:0:
356,6,36060,1,6,0:3:0:0:
356,6,36282,1,6,1:2:0:0:
269,72,36726,1,2,1:2:0:0:
269,72,36949,2,0,L|144:99,1,110,6|0,0:3|0:0,0:0:0:0:
118,62,37615,2,0,L|48:77,1,55,0|4,1:0|0:3,0:0:0:0:
20,107,38060,6,0,P|2:156|31:200,1,110,6|2,1:2|1:2,0:0:0:0:
139,223,38949,1,2,1:2:0:0:
164,334,39393,1,0,1:0:0:0:
164,334,39615,2,0,L|56:310,1,110,2|2,0:0|0:0,0:0:0:0:
5,331,40282,2,0,L|28:223,1,110,2|2,1:2|1:2,0:0:0:0:
8,177,40949,1,2,0:0:0:0:
8,177,41171,1,2,1:2:0:0:
101,119,41615,6,0,P|136:71|109:15,1,110,6|2,1:2|1:2,0:0:0:0:
176,6,42282,1,6,0:3:0:0:
176,6,42504,2,0,L|283:29,1,110,0|2,1:0|1:2,0:0:0:0:
316,80,43171,1,6,0:3:0:0:
316,80,43393,2,0,L|423:103,1,110,6|0,1:2|1:2,0:0:0:0:
397,210,44282,2,0,L|289:186,1,110,2|2,1:2|1:2,0:0:0:0:
240,207,44949,1,4,0:3:0:0:
240,207,45171,6,0,L|218:304,2,82.5,4|10|6,1:2|0:3|0:3,0:0:0:0:
203,165,46060,2,0,L|220:84,2,82.5,2|10|6,1:2|0:3|0:3,0:0:0:0:
149,179,46949,1,6,1:2:0:0:
123,285,47393,1,2,1:2:0:0:
191,370,47838,2,0,P|238:337|294:354,1,110,2|2,1:2|1:2,0:0:0:0:
336,322,48504,1,6,0:3:0:0:
336,322,48726,6,0,L|417:339,2,82.5,6|10|4,1:2|0:3|0:3,0:0:0:0:
324,268,49615,1,2,1:2:0:0:
349,160,50060,1,2,1:2:0:0:
457,145,50504,2,0,P|488:102|473:46,1,110,6|0,1:2|1:0,0:0:0:0:
437,18,51171,1,4,0:3:0:0:
437,18,51393,1,0,1:0:0:0:
335,61,51838,2,0,L|268:75,1,55,0|4,1:0|0:3,0:0:0:0:
233,44,52282,5,2,1:2:0:0:
126,69,52726,1,2,1:2:0:0:
89,173,53171,2,0,L|-12:194,2,82.5,10|10|2,0:0|0:3|0:0,0:0:0:0:
132,206,54060,1,2,1:2:0:0:
239,182,54504,1,2,1:2:0:0:
293,277,54949,2,0,L|271:378,2,82.5,10|10|2,0:0|0:3|0:0,0:0:0:0:
346,262,55838,5,4,1:2:0:0:
346,262,56060,2,0,L|370:143,1,110,2|2,0:2|0:0,0:0:0:0:
333,111,56726,1,0,1:0:0:0:
333,111,56949,2,0,P|326:58|371:17,1,110,2|2,0:0|0:0,0:0:0:0:
417,17,57615,1,0,1:0:0:0:
417,17,57838,1,0,1:0:0:0:
511,83,58282,1,0,1:0:0:0:
511,83,58504,2,0,L|488:190,1,110,0|2,1:0|1:2,0:0:0:0:
502,300,59393,6,0,P|433:224|330:257,1,220,6|8,1:2|0:1,0:0:0:0:
249,118,60949,1,0,1:2:0:0:
249,118,61171,2,0,L|351:96,2,82.5,2|0|0,1:2|1:0|1:0,0:0:0:0:
203,148,62060,2,0,P|188:200|232:244,1,110,8|2,0:1|0:0,0:0:0:0:
193,346,62949,5,6,1:2:0:0:
88,381,63393,1,2,1:2:0:0:
22,292,63838,2,0,L|37:216,1,55,2|2,1:2|0:0,0:0:0:0:
6,189,64282,2,0,L|21:113,1,55,2|2,1:2|0:0,0:0:0:0:
56,97,64726,2,0,P|99:133|152:122,1,110,8|8,1:2|1:2,0:0:0:0:
196,94,65393,1,8,0:2:0:0:
196,94,65615,2,0,P|248:86|288:121,1,110,2|2,0:0|0:0,0:0:0:0:
217,213,66504,6,0,L|194:326,1,115.49999647522,6|8,1:0|0:0,0:0:0:0:
237,373,67171,1,2,0:0:0:0:
237,373,67393,2,0,L|352:350,1,115.49999647522,2|8,1:0|0:0,0:0:0:0:
375,298,68060,1,2,0:0:0:0:
375,298,68282,2,0,L|490:275,1,115.49999647522,2|8,1:0|0:0,0:0:0:0:
508,221,68949,1,2,0:0:0:0:
508,221,69171,2,0,L|485:107,1,115.49999647522,2|8,1:0|0:0,0:0:0:0:
414,16,70060,6,0,P|364:49|309:22,1,115.49999647522,2|8,1:0|0:0,0:0:0:0:
266,13,70726,1,2,0:0:0:0:
266,13,70949,2,0,P|233:63|260:118,1,115.49999647522,2|8,1:0|0:0,0:0:0:0:
308,137,71615,1,2,0:0:0:0:
308,137,71838,2,0,L|330:250,1,115.49999647522,2|10,1:0|0:0,0:0:0:0:
372,297,72504,1,2,0:0:0:0:
372,297,72726,1,2,1:0:0:0:
278,364,73171,2,0,L|221:352,1,57.7499982376099,10|8,0:0|0:0,0:0:0:0:
180,311,73615,6,0,L|67:289,1,115.49999647522,6|8,1:0|0:0,0:0:0:0:
17,314,74282,1,2,0:0:0:0:
17,314,74504,2,0,L|39:201,1,115.49999647522,2|8,1:0|0:0,0:0:0:0:
3,162,75171,1,2,0:0:0:0:
3,162,75393,2,0,L|25:49,1,115.49999647522,2|8,1:0|0:0,0:0:0:0:
74,17,76060,1,2,0:0:0:0:
74,17,76282,2,0,P|115:49|185:27,1,115.49999647522,2|10,1:0|0:0,0:0:0:0:
284,2,77171,6,0,P|316:43|294:113,1,115.49999647522,6|8,1:0|0:0,0:0:0:0:
270,149,77837,1,2,0:0:0:0:
270,149,78060,2,0,L|157:171,1,115.49999647522,2|8,1:0|0:0,0:0:0:0:
108,150,78726,1,2,0:0:0:0:
108,150,78949,2,0,L|86:263,1,115.49999647522,2|8,1:0|0:0,0:0:0:0:
75,320,79615,2,0,P|116:288|186:310,1,115.49999647522,10|2,0:0|1:2,0:0:0:0:
215,340,80282,1,2,1:2:0:0:
297,258,80726,6,0,L|393:276,1,76.9999976501466,10|10,1:2|1:3,0:0:0:0:
392,306,81171,2,0,L|488:324,1,76.9999976501466,6|2,1:3|1:2,0:0:0:0:
500,300,81615,1,10,1:2:0:0:
480,186,82060,1,10,0:0:0:0:
366,166,82504,1,6,1:2:0:0:
256,192,82726,12,4,86060,1:2:0:0:
103,28,86949,6,0,P|65:67|77:121,1,110,0|0,1:0|1:0,0:0:0:0:
119,157,87615,1,4,0:3:0:0:
119,157,87838,2,0,L|213:135,2,82.5,4|4|4,1:0|1:0|1:0,0:0:0:0:
