osu file format v14

[General]
AudioFilename: audio.mp3
AudioLeadIn: 0
PreviewTime: 66393
Countdown: 0
SampleSet: Soft
StackLeniency: 0.3
Mode: 0
LetterboxInBreaks: 0
WidescreenStoryboard: 1

[Editor]
Bookmarks: 12525,23192,37414,51636,65858
DistanceSpacing: 0.4
BeatDivisor: 4
GridSize: 32
TimelineZoom: 1.6

[Metadata]
Title:Dance In The Game (TV Size)
TitleUnicode:Dance In The Game (TV Size)
Artist:ZAQ
ArtistUnicode:ZAQ
Creator:Bellicose
Version:Fyuni's Expert
Source:ようこそ実力至上主義の教室へ 2nd Season
Tags:otosaka-yu Fyuni fushimi rio imoutosan gust Ultimate Madoka garden otosaka yu Suzuki_1112 Suzuki 1112 Welcome to the Classroom of the Elite Youkoso Jitsuryoku Shijou Shugi no Kyoushitsu e anime op opening japanese pop jpop short ver
BeatmapID:3695772
BeatmapSetID:1797993

[Difficulty]
HPDrainRate:5.5
CircleSize:4
OverallDifficulty:8.5
ApproachRate:9.2
SliderMultiplier:1.8
SliderTickRate:1

[Events]
//Background and Video events
0,0,"asdf.jpg",0,0
Video,45,"video.mp4"
//Break Periods
//Storyboard Layer 0 (Background)
//Storyboard Layer 1 (Fail)
//Storyboard Layer 2 (Pass)
//Storyboard Layer 3 (Foreground)
//Storyboard Layer 4 (Overlay)
//Storyboard Sound Samples

[TimingPoints]
727,444.444444444444,4,2,1,50,1,0
727,-125,4,2,1,50,0,0
7838,-100,4,2,1,60,0,0
10504,-68.9655172413793,4,2,1,60,0,0
12726,-285.714285714286,4,2,1,60,0,0
13171,-68.9655172413793,4,2,1,60,0,0
17949,-60.6060606060606,4,2,1,60,0,0
18282,-68.9655172413793,4,2,1,60,0,0
20282,-80,4,2,1,60,0,0
20726,-64.5161290322581,4,2,1,60,0,0
21171,-57.1428571428571,4,2,1,60,0,0
21615,-48.780487804878,4,2,1,60,0,0
22060,-86.9565217391304,4,2,1,60,0,0
23838,-111.111111111111,4,2,1,50,0,0
27393,-74.0740740740741,4,2,1,50,0,0
28949,-111.111111111111,4,2,1,50,0,0
30949,-74.0740740740741,4,2,1,50,0,0
32726,-111.111111111111,4,2,1,50,0,0
36282,-74.0740740740741,4,2,1,50,0,0
37171,-60.6060606060606,4,2,1,50,0,0
38060,-74.0740740740741,4,2,1,50,0,0
45171,-83.3333333333333,4,2,1,50,0,0
52282,-125,4,2,1,50,0,0
55393,-83.3333333333333,4,2,1,50,0,0
55838,-125,4,2,1,50,0,0
56282,-83.3333333333333,4,2,1,50,0,0
56504,-62.5,4,2,1,50,0,0
57171,-50,4,2,1,50,0,0
57393,-45.4545454545455,4,2,1,50,0,0
57838,-125,4,2,0,45,0,0
58504,-125,4,2,0,50,0,0
58949,-166.666666666667,4,2,1,60,0,0
59393,-125,4,2,1,50,0,0
62949,-74.0740740740741,4,2,1,60,0,0
63393,-64.5161290322581,4,2,1,60,0,0
63838,-57.1428571428571,4,2,1,60,0,0
64726,-76.9230769230769,4,2,1,65,0,0
65615,-333.333333333333,4,2,1,60,0,0
66060,-100,4,2,1,60,0,0
66504,-57.1428571428571,4,2,1,70,0,1
71838,-64.5161290322581,4,2,1,70,0,1
72282,-50,4,2,1,70,0,1
73615,-57.1428571428571,4,2,1,70,0,1
81615,-83.3333333333333,4,2,1,70,0,0
82060,-200,4,2,1,70,0,0
82504,-68.9655172413793,4,2,1,70,0,0
85171,-200,4,2,1,70,0,0
85615,-57.1428571428571,4,2,1,70,0,0
86060,-68.9655172413793,4,2,1,70,0,0

[Colours]
Combo1 : 226,143,243
Combo2 : 139,222,254
Combo3 : 253,206,240
Combo4 : 150,166,254

[HitObjects]
116,334,727,6,0,L|35:342,1,72,2|0,0:0|0:0,0:0:0:0:
80,256,1060,1,0,0:0:0:0:
80,256,1171,2,0,L|152:249,1,72,2|2,0:0|0:0,0:0:0:0:
330,341,1615,6,0,P|333:301|340:248,1,72,2|0,0:0|0:0,0:0:0:0:
340,253,1949,1,2,0:0:0:0:
254,384,2282,6,0,P|248:324|235:240,1,144,2|0,0:0|0:0,0:0:0:0:
294,167,2949,1,2,0:0:0:0:
294,167,3171,2,0,L|304:117,1,36
224,80,3393,5,2,0:0:0:0:
224,80,3504,2,0,L|169:87,1,36
138,154,3726,1,0,0:0:0:0:
138,154,3838,1,2,0:0:0:0:
138,154,4282,6,0,P|95:143|63:119,1,72,2|0,0:0|0:0,0:0:0:0:
161,22,4615,1,0,0:0:0:0:
161,22,4726,2,0,P|170:56|190:87,1,72,2|2,0:0|0:0,0:0:0:0:
376,130,5060,1,0,0:0:0:0:
376,130,5171,6,0,L|475:122,1,72,2|0,0:0|0:0,0:0:0:0:
470,123,5504,1,2,0:0:0:0:
295,29,5838,6,0,P|284:99|275:183,1,144,2|2,0:0|0:0,0:0:0:0:
459,266,6504,1,2,0:0:0:0:
459,266,6726,2,0,L|472:206,1,36,2|0,0:0|0:0,0:0:0:0:
367,248,6949,6,0,P|324:256|283:271,1,72,2|2,0:0|0:0,0:0:0:0:
194,325,7282,1,0,0:0:0:0:
194,325,7393,2,0,P|158:318|124:308,1,72,2|2,0:0|0:0,0:0:0:0:
34,220,7726,1,0,0:0:0:0:
34,220,7838,6,0,P|19:177|21:114,1,90,6|0,1:2|0:0,0:0:0:0:
101,78,8171,1,0,0:0:0:0:
101,78,8282,2,0,L|161:84,1,45,2|0,1:2|0:0,0:0:0:0:
272,143,8504,2,0,L|227:147,1,45,2|0,0:0|0:0,0:0:0:0:
123,222,8726,6,0,P|167:232|239:243,1,90,2|0,1:2|0:0,0:0:0:0:
300,310,9060,1,2,0:0:0:0:
300,310,9171,2,0,P|256:320|184:331,1,90,0|0,1:0|0:0,0:0:0:0:
470,363,9615,6,0,P|456:318|470:254,1,90,2|0,1:2|0:0,0:0:0:0:
426,66,9949,1,0,0:0:0:0:
426,66,10060,2,0,P|405:106|370:134,1,90,2|2,1:2|0:0,0:0:0:0:
512,155,10393,1,0,0:0:0:0:
512,155,10504,2,0,P|447:186|341:260,1,195.750005973816,2|0,1:2|0:0,0:0:0:0:
293,354,10949,6,0,P|249:340|231:319,1,65.250001991272,2|0,1:2|0:0,0:0:0:0:
131,319,11171,2,0,P|145:275|166:257,1,65.250001991272,2|0,0:0|0:0,0:0:0:0:
263,230,11393,5,10,1:2:0:0:
212,147,11541,1,10,1:2:0:0:
118,178,11689,1,10,1:2:0:0:
275,252,11838,5,10,1:2:0:0:
220,63,11986,1,10,1:2:0:0:
102,201,12134,1,10,1:2:0:0:
212,147,12282,1,10,1:2:0:0:
212,147,12726,6,0,L|265:140,1,47.2499985580445,8|0,0:3|0:0,0:0:0:0:
495,153,13171,6,0,P|451:132|438:-3,1,195.750005973816,6|2,1:2|0:3,0:0:0:0:
339,53,13615,2,0,L|275:61,1,65.250001991272,10|2,0:0|0:3,0:0:0:0:
205,15,13838,1,2,0:3:0:0:
205,15,13949,6,0,L|124:27,1,65.250001991272,2|0,0:3|1:0,0:0:0:0:
31,52,14171,1,2,0:3:0:0:
66,84,14282,1,2,0:3:0:0:
79,138,14393,6,0,L|67:225,1,65.250001991272,2|8,0:0|0:0,0:0:0:0:
133,272,14615,1,2,0:0:0:0:
60,307,14726,1,2,0:0:0:0:
2,254,14838,1,2,0:0:0:0:
137,354,14949,6,0,L|212:364,2,65.250001991272,2|2|2,1:3|0:3|0:0,0:0:0:0:
266,318,15282,2,0,L|242:240,1,65.250001991272,2|8,0:0|0:0,0:0:0:0:
217,175,15504,1,2,0:3:0:0:
365,258,15615,1,2,0:3:0:0:
384,315,15726,1,2,0:3:0:0:
354,371,15838,5,2,1:2:0:0:
354,371,15949,1,2,0:2:0:0:
354,371,16060,1,2,0:2:0:0:
354,371,16171,1,2,0:2:0:0:
353,327,16282,5,10,0:0:0:0:
335,290,16393,1,2,0:3:0:0:
353,254,16504,1,2,0:3:0:0:
331,224,16615,1,2,0:3:0:0:
341,181,16726,6,0,L|416:173,2,65.250001991272,2|0|0,1:3|0:0|0:0,0:0:0:0:
249,113,17060,6,0,P|223:78|220:31,1,65.250001991272,2|8,0:0|0:0,0:0:0:0:
310,46,17282,1,0,0:0:0:0:
149,0,17393,2,0,P|134:27|132:60,1,65.250001991272,2|0,0:0|0:0,0:0:0:0:
146,157,17615,6,0,P|81:145|17:135,1,130.500003982544,2|0,1:2|0:0,0:0:0:0:
161,261,17949,2,0,P|88:246|14:236,1,148.500001416206,2|0,0:0|0:0,0:0:0:0:
248,377,18282,6,0,L|232:313,1,65.250001991272,2|0,0:0|0:0,0:0:0:0:
355,244,18504,6,0,L|337:317,1,65.250001991272,2|0,1:3|0:0,0:0:0:0:
441,349,18726,1,0,0:0:0:0:
441,349,18838,1,2,0:3:0:0:
441,349,18949,5,8,0:0:0:0:
483,315,19060,1,2,0:3:0:0:
495,252,19171,1,2,0:0:0:0:
457,199,19282,1,2,0:3:0:0:
363,292,19393,5,0,1:0:0:0:
320,312,19504,1,2,0:0:0:0:
275,313,19615,1,2,0:0:0:0:
237,285,19726,1,2,0:3:0:0:
215,207,19838,5,10,0:0:0:0:
185,203,19949,1,10,0:0:0:0:
160,213,20060,1,10,0:3:0:0:
145,233,20171,1,4,0:3:0:0:
136,256,20282,6,0,P|139:300|139:340,1,56.25,6|0,1:2|0:0,0:0:0:0:
297,229,20504,2,0,P|297:200|300:172,1,56.25,2|2,0:3|0:3,0:0:0:0:
58,291,20726,2,0,P|60:338|59:391,1,69.7500005321503,8|2,0:0|0:3,0:0:0:0:
378,210,20949,2,0,P|379:173|384:139,1,69.7500005321503,0|10,0:0|0:3,0:0:0:0:
107,163,21171,6,0,L|16:179,1,78.7500007510185,0|2,1:0|0:0,0:0:0:0:
320,50,21393,2,0,L|403:65,1,78.7500007510185,0|2,0:0|0:3,0:0:0:0:
125,75,21615,2,0,L|30:57,1,92.2500014076233,10|8,0:0|0:0,0:0:0:0:
383,141,21838,2,0,L|479:126,1,92.2500014076233,10|2,0:3|0:3,0:0:0:0:
234,28,22060,6,0,L|223:84,2,51.7500009870529,6|2|10,1:2|0:3|0:0,0:0:0:0:
253,173,22393,2,0,L|308:185,1,51.7500009870529,10|0,0:3|1:0,0:0:0:0:
237,258,22615,5,2,0:3:0:0:
216,267,22726,1,2,0:3:0:0:
196,275,22838,1,2,0:3:0:0:
174,282,22949,2,0,L|119:269,1,51.7500009870529,2|10,1:2|0:0,0:0:0:0:
0,254,23171,5,10,0:0:0:0:
17,200,23282,1,10,0:0:0:0:
63,177,23393,1,10,0:0:0:0:
107,185,23504,1,10,0:3:0:0:
131,219,23615,2,0,L|123:282,1,51.7500009870529,0|4,1:0|0:3,0:0:0:0:
108,94,23838,6,0,P|67:97|12:105,1,80.9999975280763,6|0,1:2|0:0,0:0:0:0:
145,15,24171,1,8,0:3:0:0:
145,15,24282,2,0,P|185:18|241:26,1,80.9999975280763,2|4,1:2|0:3,0:0:0:0:
378,198,24726,6,0,P|424:195|465:141,1,80.9999975280763,2|2,1:2|0:0,0:0:0:0:
440,71,25060,2,0,L|405:91,1,40.4999987640381,10|0,0:3|1:0,0:0:0:0:
322,0,25282,1,2,0:0:0:0:
322,0,25393,6,0,P|324:57|319:127,1,121.499996292114,2|0,0:0|0:0,0:0:0:0:
255,174,25838,2,0,L|215:169,1,40.4999987640381,2|8,0:0|0:3,0:0:0:0:
371,274,26060,2,0,P|383:224|369:177,1,80.9999975280763,2|6,1:2|0:3,0:0:0:0:
291,339,26504,6,0,L|231:332,1,40.4999987640381,2|0,1:2|0:0,0:0:0:0:
277,254,26726,2,0,L|217:247,1,40.4999987640381,2|8,0:0|0:3,0:0:0:0:
53,364,26949,2,0,L|93:368,1,40.4999987640381,2|4,1:2|0:3,0:0:0:0:
15,275,27171,2,0,L|55:279,1,40.4999987640381,6|4,0:3|0:3,0:0:0:0:
176,381,27393,6,0,L|143:247,1,121.500000463486,6|0,1:2|0:0,0:0:0:0:
74,186,27838,2,0,L|11:175,1,60.7500002317429,2|0,1:2|0:0,0:0:0:0:
184,191,28060,2,0,L|203:69,1,121.500000463486,6|0,0:3|1:0,0:0:0:0:
26,12,28504,1,2,0:0:0:0:
48,32,28615,1,8,0:3:0:0:
76,41,28726,1,2,1:2:0:0:
106,29,28838,1,0,0:0:0:0:
126,6,28949,2,0,L|176:4,1,40.4999987640381,6|0,0:3|0:0,0:0:0:0:
275,52,29171,6,0,P|316:55|369:58,1,80.9999975280763,2|0,1:2|0:0,0:0:0:0:
432,137,29504,1,8,0:3:0:0:
432,137,29615,2,0,P|391:140|338:143,1,80.9999975280763,2|4,1:2|0:3,0:0:0:0:
300,364,30060,6,0,L|291:310,1,40.4999987640381,2|0,1:2|0:0,0:0:0:0:
412,303,30282,2,0,L|421:249,1,40.4999987640381,2|8,0:0|0:0,0:0:0:0:
311,220,30504,1,10,1:2:0:0:
283,226,30615,1,4,0:3:0:0:
254,231,30726,1,6,0:3:0:0:
227,235,30838,1,4,0:3:0:0:
197,238,30949,6,0,B|112:252|112:252|82:230,1,121.499996292114,4|0,1:2|0:0,0:0:0:0:
56,152,31282,1,8,0:3:0:0:
56,152,31393,2,0,L|76:87,1,60.7500002317429,2|0,1:2|0:0,0:0:0:0:
155,109,31615,2,0,L|137:167,1,60.7500002317429,6|0,0:3|0:0,0:0:0:0:
55,2,31838,6,0,L|179:35,1,121.500000463486,2|2,1:2|0:0,0:0:0:0:
238,116,32171,1,8,0:3:0:0:
238,116,32282,2,0,P|267:94|288:61,1,60.7500002317429,2|0,1:2|0:0,0:0:0:0:
368,23,32504,1,6,0:3:0:0:
368,23,32726,6,0,L|385:155,1,121.500000463486,2|8,1:2|0:3,0:0:0:0:
463,198,33171,2,0,L|503:191,1,40.4999987640381,2|0,1:2|0:0,0:0:0:0:
512,266,33393,2,0,L|472:273,1,40.4999987640381,6|0,0:3|0:0,0:0:0:0:
316,277,33615,2,0,L|312:236,1,40.4999987640381,2|0,1:2|0:0,0:0:0:0:
393,231,33838,1,0,0:0:0:0:
393,231,33949,2,0,L|396:271,1,40.4999987640381,10|0,0:3|1:0,0:0:0:0:
210,301,34171,1,2,0:0:0:0:
177,291,34282,1,4,0:3:0:0:
147,281,34393,1,4,0:3:0:0:
114,272,34504,6,0,P|87:232|80:190,1,80.9999975280763,6|0,1:2|0:0,0:0:0:0:
244,42,34949,2,0,P|271:82|278:124,1,80.9999975280763,2|4,1:2|0:3,0:0:0:0:
53,39,35393,1,2,1:2:0:0:
53,39,35615,1,2,0:0:0:0:
93,48,35726,1,8,0:3:0:0:
121,88,35838,1,2,1:2:0:0:
123,138,35949,1,4,0:3:0:0:
134,161,36060,1,6,0:3:0:0:
159,175,36171,1,4,0:3:0:0:
184,178,36282,6,0,L|320:159,2,121.500000463486,6|2|2,1:2|0:0|1:2,0:0:0:0:
456,20,36949,1,6,0:3:0:0:
456,20,37171,5,8,0:0:0:0:
512,102,37282,1,8,0:0:0:0:
512,102,37504,6,0,L|430:124,1,74.2500007081032,8|0,0:3|1:0,0:0:0:0:
391,210,37726,5,4,0:3:0:0:
391,210,37838,2,0,L|320:191,1,74.2500007081032,4|4,0:3|0:3,0:0:0:0:
512,384,38060,6,0,P|506:350|494:311,1,60.7500002317429,6|0,1:2|0:0,0:0:0:0:
381,315,38282,1,8,0:3:0:0:
381,315,38393,1,8,0:3:0:0:
381,315,38504,2,0,L|311:326,1,60.7500002317429,2|0,1:2|0:0,0:0:0:0:
193,340,38726,1,4,0:3:0:0:
193,340,38949,6,0,P|138:302|122:221,1,121.500000463486,2|2,1:2|0:0,0:0:0:0:
211,233,39282,2,0,L|283:243,1,60.7500002317429,10|0,0:3|1:0,0:0:0:0:
151,142,39504,1,2,0:0:0:0:
151,142,39615,2,0,L|77:152,1,60.7500002317429,2|0,0:0|0:0,0:0:0:0:
28,10,39838,6,0,P|79:48|152:54,1,121.500000463486,0|2,1:0|0:0,0:0:0:0:
235,11,40171,1,8,0:3:0:0:
235,11,40282,2,0,P|241:48|249:80,1,60.7500002317429,2|0,1:2|0:0,0:0:0:0:
343,39,40504,1,6,0:3:0:0:
343,39,40726,6,0,B|422:20|422:20|481:45,2,121.500000463486,2|2|2,1:2|0:0|1:2,0:0:0:0:
331,73,41282,1,4,0:3:0:0:
336,115,41393,1,6,0:3:0:0:
363,147,41504,1,4,0:3:0:0:
403,160,41615,6,0,L|414:101,1,60.7500002317429,6|0,1:2|0:0,0:0:0:0:
319,227,41838,1,2,0:0:0:0:
319,227,41949,1,8,0:3:0:0:
319,227,42060,2,0,L|389:241,1,60.7500002317429,2|0,1:2|0:0,0:0:0:0:
485,327,42282,2,0,L|425:315,1,60.7500002317429,6|0,0:3|0:0,0:0:0:0:
318,377,42504,6,0,P|312:347|310:317,1,60.7500002317429,0|0,1:0|0:0,0:0:0:0:
224,200,42726,2,0,P|227:230|234:259,1,60.7500002317429,2|8,0:0|0:3,0:0:0:0:
150,379,42949,2,0,P|156:349|158:319,1,60.7500002317429,2|4,1:2|0:3,0:0:0:0:
39,271,43171,1,6,0:3:0:0:
39,271,43282,1,4,0:3:0:0:
39,271,43393,6,0,P|113:237|135:127,1,182.250000695229,6|8,1:2|0:3,0:0:0:0:
75,37,43838,1,0,1:2:0:0:
111,55,43949,1,2,0:0:0:0:
149,56,44060,1,6,0:3:0:0:
182,33,44171,1,2,0:0:0:0:
192,1,44282,6,0,L|262:14,1,60.7500002317429,2|8,1:2|0:0,0:0:0:0:
63,177,44504,2,0,L|-5:191,1,60.7500002317429,10|8,0:3|0:0,0:0:0:0:
204,256,44726,1,2,1:2:0:0:
211,222,44838,1,8,0:3:0:0:
218,190,44949,1,4,0:3:0:0:
225,159,45060,1,4,0:3:0:0:
234,122,45171,6,0,P|289:104|360:90,1,107.999996704102,4|0,1:2|0:0,0:0:0:0:
408,21,45504,2,0,P|448:67|433:125,1,107.999996704102,10|0,0:3|0:0,0:0:0:0:
375,168,45838,2,0,P|369:199|367:237,1,53.9999983520508,6|0,0:3|0:0,0:0:0:0:
457,367,46060,6,0,P|477:314|448:243,1,107.999996704102,2|0,1:2|0:0,0:0:0:0:
390,309,46393,2,0,P|331:322|262:328,1,107.999996704102,10|0,0:3|0:0,0:0:0:0:
191,233,46726,2,0,P|198:261|199:302,1,53.9999983520508,6|0,0:3|0:0,0:0:0:0:
56,371,46949,6,0,P|92:325|98:258,1,107.999996704102,6|0,1:2|0:0,0:0:0:0:
47,189,47282,1,8,0:3:0:0:
47,189,47393,2,0,P|103:173|169:147,1,107.999996704102,2|4,1:2|0:3,0:0:0:0:
29,31,47838,2,0,P|100:50|195:60,1,161.999995056153,2|8,1:2|0:3,0:0:0:0:
283,134,48282,6,0,L|273:66,1,53.9999983520508,2|0,1:2|0:0,0:0:0:0:
363,81,48504,2,0,L|374:13,1,53.9999983520508,6|4,0:3|0:3,0:0:0:0:
455,85,48726,6,0,P|446:128|392:163,1,107.999996704102,6|0,1:2|0:0,0:0:0:0:
275,215,49060,2,0,P|318:224|353:278,1,107.999996704102,10|0,0:3|0:0,0:0:0:0:
421,372,49393,2,0,P|434:342|452:323,1,53.9999983520508,4|0,0:3|0:0,0:0:0:0:
429,240,49615,1,2,1:2:0:0:
277,330,49838,1,8,0:3:0:0:
254,320,49949,1,8,0:3:0:0:
233,312,50060,2,0,L|184:288,1,53.9999983520508,2|4,1:2|0:3,0:0:0:0:
113,358,50282,2,0,L|95:306,1,53.9999983520508,4|4,0:3|0:3,0:0:0:0:
2,200,50504,5,6,1:2:0:0:
7,206,50726,1,0,0:0:0:0:
7,206,50838,2,0,L|82:224,1,53.9999983520508,8|0,0:3|0:0,0:0:0:0:
151,179,51060,1,0,0:0:0:0:
151,179,51171,2,0,L|226:197,1,53.9999983520508,4|4,0:3|0:3,0:0:0:0:
63,111,51393,1,0,1:0:0:0:
63,111,51504,2,0,L|41:50,1,53.9999983520508,0|8,0:0|0:3,0:0:0:0:
35,36,51726,1,8,0:0:0:0:
161,4,51838,5,0,1:0:0:0:
202,34,51949,1,8,0:0:0:0:
255,43,52060,1,4,0:3:0:0:
305,27,52171,1,4,0:3:0:0:
342,1,52282,5,2,1:2:0:0:
342,1,52726,1,2,1:2:0:0:
342,1,53171,5,10,0:0:0:0:
357,11,53282,1,0,3:0:0:0:
370,32,53393,1,2,0:3:0:0:
373,56,53504,1,10,0:3:0:0:
376,85,53615,2,0,L|343:114,1,36,0|4,1:0|0:3,0:0:0:0:
284,196,53838,2,0,L|334:206,1,36,2|0,0:0|0:0,0:0:0:0:
442,319,54060,5,2,1:2:0:0:
442,319,54504,1,2,1:2:0:0:
442,319,54949,5,10,0:0:0:0:
397,296,55060,1,0,3:0:0:0:
343,313,55171,1,2,0:3:0:0:
322,364,55282,1,10,0:3:0:0:
274,373,55393,2,0,L|210:353,1,53.9999983520508,0|4,1:0|0:3,0:0:0:0:
176,264,55615,2,0,L|100:277,1,53.9999983520508,2|0,0:0|0:0,0:0:0:0:
15,364,55838,5,4,1:2:0:0:
15,364,56060,2,0,L|6:316,1,36,2|0,0:2|0:0,0:0:0:0:
43,205,56282,2,0,L|78:148,1,53.9999983520508,2|0,1:2|0:0,0:0:0:0:
194,106,56504,2,0,L|294:119,1,72,2|0,0:0|0:0,0:0:0:0:
95,6,56726,5,0,1:0:0:0:
95,6,56949,2,0,L|117:94,1,72,2|0,0:0|0:0,0:0:0:0:
265,115,57171,2,0,L|233:216,1,90,2|0,1:2|0:0,0:0:0:0:
414,262,57393,2,0,L|319:287,1,99.0000030212403,2|0,0:0|0:0,0:0:0:0:
142,363,57615,5,0,1:0:0:0:
136,347,57726,1,0,1:0:0:0:
108,317,57838,5,0,1:0:0:0:
48,313,57949,1,0,1:0:0:0:
4,275,58060,1,0,1:0:0:0:
0,203,58171,5,0,1:0:0:0:
48,142,58282,1,0,1:0:0:0:
125,148,58393,1,0,1:0:0:0:
164,215,58504,5,0,1:0:0:0:
242,253,58615,1,0,1:0:0:0:
326,227,58726,1,0,1:0:0:0:
347,139,58838,1,0,1:0:0:0:
281,76,58949,6,0,L|191:87,1,80.9999975280763,0|0,1:0|0:0,0:0:0:0:
200,85,59393,5,6,1:2:0:0:
468,9,60282,1,8,0:1:0:0:
468,9,60949,2,0,L|457:72,1,36,0|0,1:2|1:0,0:0:0:0:
445,139,61171,5,2,1:2:0:0:
442,153,61504,1,0,1:0:0:0:
439,169,61838,1,0,1:0:0:0:
416,326,62060,5,8,0:1:0:0:
416,326,62282,6,0,L|431:248,2,72,2|2|2,0:0|0:0|0:0,0:0:0:0:
416,326,62949,6,0,P|389:312|359:307,1,60.7500002317429,6|0,1:2|0:0,0:0:0:0:
253,236,63171,2,0,P|219:230|185:208,1,60.7500002317429,2|8,0:3|0:3,0:0:0:0:
245,332,63393,6,0,P|211:338|171:361,1,69.7500005321503,2|0,1:2|0:0,0:0:0:0:
87,160,63615,2,0,P|58:178|24:185,1,69.7500005321503,2|8,0:3|0:3,0:0:0:0:
330,136,63838,6,0,L|360:47,1,78.7500007510185,2|0,1:2|0:0,0:0:0:0:
241,11,64060,2,0,L|164:26,1,78.7500007510185,2|0,0:0|0:0,0:0:0:0:
54,276,64282,6,0,L|79:350,1,78.7500007510185,2|0,1:2|0:0,0:0:0:0:
250,235,64504,2,0,L|175:210,1,78.7500007510185,2|0,0:0|0:0,0:0:0:0:
358,322,64726,5,8,1:2:0:0:
336,248,64838,1,8,0:2:0:0:
388,190,64949,1,8,0:2:0:0:
462,203,65060,1,8,0:2:0:0:
499,311,65171,5,8,1:2:0:0:
423,270,65282,1,8,0:2:0:0:
388,190,65393,1,8,0:2:0:0:
425,108,65504,1,8,0:2:0:0:
492,53,65615,6,0,L|499:-4,1,53.9999983520508,2|2,0:0|0:0,0:0:0:0:
499,0,66504,6,0,P|450:40|508:124,1,157.500001502037,6|0,1:0|0:0,0:0:0:0:
346,91,66838,1,2,0:0:0:0:
346,91,66949,2,0,P|304:75|266:68,1,78.7500007510185,8|0,0:0|0:0,0:0:0:0:
392,253,67171,2,0,P|410:220|402:176,1,78.7500007510185,2|0,0:0|0:0,0:0:0:0:
185,17,67393,6,0,P|177:105|159:199,1,157.500001502037,2|0,1:0|0:0,0:0:0:0:
265,261,67726,1,2,0:0:0:0:
265,261,67838,2,0,P|276:214|291:173,1,78.7500007510185,8|0,0:0|0:0,0:0:0:0:
78,121,68060,1,2,0:0:0:0:
78,121,68171,1,2,0:0:0:0:
78,121,68282,6,0,P|11:82|4:6,1,157.500001502037,2|0,1:0|0:0,0:0:0:0:
164,173,68615,1,2,0:0:0:0:
164,173,68726,2,0,P|153:217|149:265,1,78.7500007510185,8|0,0:0|0:0,0:0:0:0:
95,32,68949,2,0,L|187:53,1,78.7500007510185,2|0,0:0|0:0,0:0:0:0:
265,261,69171,6,0,L|449:244,1,157.500001502037,2|0,1:0|0:0,0:0:0:0:
440,248,69504,1,0,0:0:0:0:
512,168,69615,5,8,0:0:0:0:
449,129,69726,1,2,0:0:0:0:
428,57,69838,1,2,0:0:0:0:
476,0,69949,1,8,0:0:0:0:
512,74,70060,6,0,P|427:83|330:99,1,157.500001502037,2|0,1:0|0:0,0:0:0:0:
292,25,70393,2,0,P|276:63|263:110,1,78.7500007510185,2|8,0:0|0:0,0:0:0:0:
360,196,70615,1,0,0:0:0:0:
360,196,70726,2,0,P|318:181|278:185,1,78.7500007510185,2|0,0:0|0:0,0:0:0:0:
158,338,70949,6,0,P|90:325|64:231,1,157.500001502037,2|0,1:0|0:0,0:0:0:0:
141,171,71282,1,2,0:0:0:0:
141,171,71393,2,0,P|173:209|174:248,1,78.7500007510185,8|0,0:0|0:0,0:0:0:0:
345,327,71615,2,0,P|388:317|429:311,1,78.7500007510185,2|4,0:0|0:3,0:0:0:0:
262,383,71838,6,0,L|247:303,1,69.7500005321503,2|0,1:0|0:0,0:0:0:0:
494,263,72060,6,0,L|511:186,1,69.7500005321503,2|0,0:0|0:0,0:0:0:0:
262,0,72282,6,0,L|242:98,1,90,10|0,0:0|0:0,0:0:0:0:
11,175,72504,6,0,L|30:270,1,90,2|0,0:0|0:0,0:0:0:0:
252,219,72726,5,2,1:0:0:0:
266,211,72838,1,0,0:0:0:0:
253,201,72949,1,2,0:0:0:0:
240,213,73060,1,2,0:0:0:0:
255,214,73171,5,10,0:0:0:0:
169,155,73282,1,8,0:0:0:0:
180,60,73393,1,8,0:0:0:0:
263,4,73504,1,8,0:0:0:0:
263,4,73615,6,0,P|172:8|79:21,1,157.500001502037,6|0,1:0|0:0,0:0:0:0:
37,139,73949,1,2,0:0:0:0:
37,139,74060,2,0,P|23:94|11:61,1,78.7500007510185,8|0,0:0|0:0,0:0:0:0:
111,207,74282,1,2,0:0:0:0:
145,273,74393,1,0,0:0:0:0:
109,338,74504,6,0,P|68:333|31:223,1,157.500001502037,2|0,1:0|0:0,0:0:0:0:
218,302,74838,1,2,0:0:0:0:
218,302,74949,2,0,P|221:341|209:378,1,78.7500007510185,8|0,0:0|0:0,0:0:0:0:
359,309,75171,1,2,0:0:0:0:
336,235,75282,1,2,0:0:0:0:
347,159,75393,6,0,P|415:137|513:127,1,157.500001502037,2|0,1:0|0:0,0:0:0:0:
512,141,75726,1,2,0:0:0:0:
276,19,75838,5,8,0:0:0:0:
212,52,75949,1,2,0:0:0:0:
193,124,76060,1,2,0:0:0:0:
234,186,76171,1,2,0:0:0:0:
309,164,76282,5,2,1:0:0:0:
243,99,76393,1,2,0:0:0:0:
157,130,76504,1,2,0:0:0:0:
141,212,76615,1,2,0:0:0:0:
125,245,76726,5,10,0:0:0:0:
93,252,76838,1,8,0:3:0:0:
63,237,76949,1,4,0:3:0:0:
45,207,77060,1,4,0:3:0:0:
42,177,77171,6,0,P|54:109|91:26,1,157.500001502037,6|0,1:0|0:0,0:0:0:0:
157,130,77504,1,2,0:0:0:0:
90,29,77615,2,0,L|-3:4,1,78.7500007510185,8|0,0:0|0:0,0:0:0:0:
157,130,77838,2,0,L|250:105,1,78.7500007510185,2|0,0:0|0:0,0:0:0:0:
491,16,78060,6,0,P|465:96|451:195,1,157.500001502037,2|0,1:0|0:0,0:0:0:0:
382,244,78393,1,2,0:0:0:0:
452,167,78504,2,0,P|416:150|379:140,1,78.7500007510185,8|0,0:0|0:0,0:0:0:0:
314,42,78726,2,0,P|341:14|379:8,1,78.7500007510185,2|0,0:0|0:0,0:0:0:0:
236,146,78949,1,2,1:0:0:0:
204,213,79060,1,8,0:3:0:0:
231,286,79171,6,0,P|237:319|242:363,1,78.7500007510185,8|4,0:0|0:3,0:0:0:0:
502,324,79393,2,0,P|506:284|513:246,1,78.7500007510185,8|8,0:0|0:3,0:0:0:0:
368,337,79615,1,10,0:0:0:0:
364,309,79726,1,8,0:0:0:0:
360,286,79838,5,2,1:2:0:0:
295,243,79949,1,10,0:2:0:0:
231,286,80060,1,2,1:2:0:0:
172,233,80171,1,10,0:2:0:0:
107,279,80282,5,2,1:2:0:0:
62,214,80393,1,10,0:2:0:0:
108,150,80504,1,2,1:2:0:0:
62,91,80615,1,10,0:2:0:0:
101,23,80726,5,10,1:2:0:0:
208,83,80875,1,10,1:2:0:0:
303,19,81023,1,10,1:3:0:0:
108,150,81171,5,6,1:3:0:0:
209,1,81319,1,10,1:3:0:0:
326,144,81467,1,2,1:2:0:0:
208,83,81615,1,10,1:2:0:0:
208,83,81949,6,0,L|210:126,1,26.9999991760254,8|0,0:3|0:0,0:0:0:0:
218,85,82060,6,0,L|221:155,1,67.5,10|0,0:0|0:0,0:0:0:0:
111,360,82504,6,0,P|58:331|50:259,1,130.500003982544,6|0,1:2|0:0,0:0:0:0:
145,283,82838,1,0,1:0:0:0:
145,283,82949,2,0,L|221:295,1,65.250001991272,8|8,0:0|0:3,0:0:0:0:
374,195,83171,6,0,P|354:227|351:263,1,65.250001991272,6|0,0:3|0:0,0:0:0:0:
403,331,83393,2,0,P|440:332|473:316,1,65.250001991272,2|0,1:2|0:0,0:0:0:0:
500,232,83615,2,0,P|482:198|452:178,1,65.250001991272,2|0,0:0|0:0,0:0:0:0:
286,161,83838,6,0,L|204:147,1,65.250001991272,10|0,0:0|0:0,0:0:0:0:
446,88,84060,2,0,L|528:74,1,65.250001991272,2|8,0:0|0:3,0:0:0:0:
341,0,84282,6,0,P|359:65|374:148,1,130.500003982544,2|0,1:2|0:0,0:0:0:0:
265,74,84615,2,0,P|259:48|247:8,1,65.250001991272,2|8,0:0|0:0,0:0:0:0:
131,140,84838,1,2,0:0:0:0:
131,140,84949,2,0,L|49:126,1,65.250001991272,0|8,0:0|0:3,0:0:0:0:
143,8,85171,6,0,L|177:84,1,67.5,2|0,1:2|0:0,0:0:0:0:
221,150,85615,6,0,L|208:239,1,78.7500007510185,10|0,0:2|0:0,0:0:0:0:
96,354,85838,1,2,0:3:0:0:
96,354,85949,1,2,0:3:0:0:
96,354,86060,6,0,P|70:294|36:228,1,130.500003982544,4|8,1:2|0:3,0:0:0:0:
179,311,86393,1,2,0:3:0:0:
179,311,86504,2,0,P|215:318|258:333,1,65.250001991272,4|0,0:3|0:0,0:0:0:0:
345,372,86726,1,2,0:3:0:0:
329,337,86838,1,8,0:0:0:0:
323,300,86949,2,0,P|323:262|327:232,1,65.250001991272,0|0,1:0|0:0,0:0:0:0:
493,134,87171,5,8,0:0:0:0:
500,100,87282,1,8,0:0:0:0:
487,68,87393,1,0,1:0:0:0:
459,49,87504,1,8,0:3:0:0:
425,48,87615,1,4,0:3:0:0:
395,66,87726,1,4,0:3:0:0:
381,97,87837,5,4,1:0:0:0:
413,203,88171,5,4,1:0:0:0:
442,315,88504,5,4,1:0:0:0:
