osu file format v14

[General]
AudioFilename: audio.mp3
AudioLeadIn: 0
PreviewTime: 61497
Countdown: 0
SampleSet: Normal
StackLeniency: 0.7
Mode: 2
LetterboxInBreaks: 0
WidescreenStoryboard: 1

[Editor]
DistanceSpacing: 1.2
BeatDivisor: 4
GridSize: 32
TimelineZoom: 2.1

[Metadata]
Title:Caste Room
TitleUnicode:カーストルーム
Artist:ZAQ
ArtistUnicode:ZAQ
Creator:noraRcat
Version:Overdose
Source:ようこそ実力至上主義の教室へ
Tags:youkoso jitsuryoku shijou shugi no kyoushitsu e op opening Furely
BeatmapID:1363986
BeatmapSetID:643461

[Difficulty]
HPDrainRate:6
CircleSize:3.9
OverallDifficulty:9.3
ApproachRate:9.3
SliderMultiplier:2.04
SliderTickRate:2

[Events]
//Background and Video events
0,0,"back.jpg",0,0
//Break Periods
//Storyboard Layer 0 (Background)
//Storyboard Layer 1 (Fail)
//Storyboard Layer 2 (Pass)
//Storyboard Layer 3 (Foreground)
//Storyboard Sound Samples

[TimingPoints]
55,384.615384615385,4,1,0,40,1,0
9285,-100,4,1,0,30,0,0
10055,-100,4,1,0,20,0,0
10824,-100,4,1,0,40,0,0
11978,-100,4,1,0,70,0,0
12362,-100,4,1,0,50,0,0
21593,-100,4,1,0,40,0,0
26208,-100,4,1,0,30,0,0
26978,-100,4,1,0,50,0,0
27747,-100,4,1,0,40,0,0
28708,-66.6666666666667,4,1,0,40,0,0
29285,-100,4,1,0,40,0,0
46208,-100,4,1,0,50,0,0
61593,-76.9230769230769,4,1,0,70,0,1
86208,-100,4,1,0,60,0,0

[HitObjects]
324,256,55,6,0,P|388:260|424:240,1,102
324,152,439,2,0,P|260:148|224:168,1,102
140,280,824,1,0,0:0:0:0:
280,240,1016,1,0,0:0:0:0:
140,280,1208,1,0,0:0:0:0:
420,232,1401,6,0,P|460:168|372:92,1,204
256,172,1978,2,0,P|296:208|404:192,1,153
180,136,2362,1,0,0:0:0:0:
320,128,2747,2,0,L|440:232,1,153
204,256,3131,6,0,P|128:240|104:224,1,102
232,160,3516,2,0,P|308:176|332:192,1,102
192,316,3901,2,0,L|92:292,2,102
472,216,4478,6,0,P|464:156|440:124,1,102
172,240,4862,1,0,0:0:0:0:
68,324,5055,2,0,P|120:328|180:316,1,102
216,304,5343,1,0,0:0:0:0:
456,224,5439,6,0,L|392:232,1,51
216,268,5631,1,0,0:0:0:0:
156,248,5728,2,0,P|232:228|264:236,2,102
388,276,6208,6,0,P|456:264|488:252,1,102
344,156,6593,2,0,P|408:152|452:164,1,102
296,268,6978,1,0,0:0:0:0:
448,228,7170,1,0,0:0:0:0:
296,268,7362,1,0,0:0:0:0:
448,228,7555,1,0,0:0:0:0:
124,276,7747,6,0,P|56:264|24:252,1,102
168,156,8132,2,0,P|104:152|60:164,1,102
216,272,8516,2,0,L|152:272,1,51
64,240,8708,2,0,L|120:240,1,51
216,272,8901,2,0,L|160:272,1,51
64,240,9093,2,0,L|116:240,1,51
316,184,9285,5,0,0:0:0:0:
360,184,9381,1,0,0:0:0:0:
408,184,9478,1,0,0:0:0:0:
452,184,9574,1,0,0:0:0:0:
380,240,9670,1,0,0:0:0:0:
288,240,9766,1,0,0:0:0:0:
196,240,9862,1,0,0:0:0:0:
104,240,9958,1,0,0:0:0:0:
316,304,10055,5,0,0:0:0:0:
356,304,10119,1,0,0:0:0:0:
396,304,10183,1,0,0:0:0:0:
436,304,10247,1,0,0:0:0:0:
476,304,10311,1,0,0:0:0:0:
436,304,10375,1,0,0:0:0:0:
196,304,10439,5,0,0:0:0:0:
156,304,10503,1,0,0:0:0:0:
116,304,10567,1,0,0:0:0:0:
76,304,10631,1,0,0:0:0:0:
36,304,10695,1,0,0:0:0:0:
76,304,10759,1,0,0:0:0:0:
352,240,10824,6,0,P|412:232|460:212,2,102
88,128,11401,2,0,L|196:160,1,102
328,128,11785,1,0,0:0:0:0:
128,208,11881,1,0,0:0:0:0:
480,192,11978,2,0,P|484:248|436:332,1,153,4|0,0:0|0:0,0:0:0:0:
184,280,12362,6,0,L|272:216,1,102
384,164,12747,1,0,0:0:0:0:
224,164,12939,1,0,0:0:0:0:
384,164,13131,2,0,P|396:228|352:316,1,153
272,244,13516,2,0,L|160:244,1,102
480,224,13901,6,0,L|376:224,1,102
264,136,14285,2,0,L|368:136,1,102
100,88,14670,1,0,0:0:0:0:
368,228,14862,2,0,L|419:228,1,51
152,196,15055,2,0,L|48:240,1,102
220,300,15343,2,0,L|252:260,1,51
436,240,15535,6,0,L|488:240,2,51
376,240,15824,2,0,L|432:240,1,51
180,152,16016,2,0,L|116:240,1,102
448,132,16401,1,0,0:0:0:0:
104,52,16593,2,0,B|64:140|64:140|204:156|204:156|132:172,1,306
480,148,17362,6,0,P|436:228|372:240,1,153
308,180,17747,2,0,L|404:128,1,102
220,140,18035,1,0,0:0:0:0:
456,112,18131,1,0,0:0:0:0:
316,112,18324,1,0,0:0:0:0:
456,112,18516,6,0,P|480:176|376:208,1,204
288,128,19093,2,0,L|344:124,1,51
104,220,19285,2,0,P|84:284|192:280,1,204
64,220,19862,2,0,L|12:220,1,51
316,144,20055,5,0,0:0:0:0:
472,144,20247,1,0,0:0:0:0:
168,272,20439,1,0,0:0:0:0:
324,272,20631,1,0,0:0:0:0:
44,116,20824,6,0,L|100:116,1,51
288,168,21016,2,0,L|232:168,1,51
72,256,21208,2,0,L|132:256,1,51
192,300,21401,2,0,L|140:300,1,51
416,240,21593,6,0,L|504:304,2,102
32,156,22170,1,0,0:0:0:0:
208,236,22266,2,0,L|296:300,2,102
376,184,22747,2,0,L|496:184,1,102
144,304,23131,5,0,0:0:0:0:
304,260,23324,1,0,0:0:0:0:
144,304,23516,1,0,0:0:0:0:
432,208,23708,2,0,L|480:188,1,51
296,124,23901,1,0,0:0:0:0:
236,124,23997,1,0,0:0:0:0:
180,148,24093,1,0,0:0:0:0:
136,192,24189,1,0,0:0:0:0:
368,280,24285,2,0,L|424:292,2,51
228,216,24670,6,0,L|336:216,2,102
368,164,25247,2,0,L|424:164,1,51
232,292,25439,1,0,0:0:0:0:
172,280,25535,1,0,0:0:0:0:
116,256,25631,1,0,0:0:0:0:
68,216,25728,1,0,0:0:0:0:
256,192,25824,2,0,L|168:136,1,102
424,160,26208,5,0,0:0:0:0:
348,160,26305,1,0,0:0:0:0:
424,160,26401,1,0,0:0:0:0:
88,160,26593,1,0,0:0:0:0:
164,164,26690,1,0,0:0:0:0:
88,160,26786,1,0,0:0:0:0:
444,260,26978,5,0,0:0:0:0:
412,260,27026,1,0,0:0:0:0:
380,260,27074,1,0,0:0:0:0:
348,260,27122,1,0,0:0:0:0:
380,260,27170,1,0,0:0:0:0:
412,260,27218,1,0,0:0:0:0:
444,260,27266,1,0,0:0:0:0:
164,260,27362,5,0,0:0:0:0:
132,260,27410,1,0,0:0:0:0:
100,260,27458,1,0,0:0:0:0:
68,260,27506,1,0,0:0:0:0:
100,260,27554,1,0,0:0:0:0:
132,260,27602,1,0,0:0:0:0:
164,260,27650,1,0,0:0:0:0:
368,152,27747,6,0,P|428:172|460:204,2,102
244,208,28324,1,0,0:0:0:0:
416,240,28420,2,0,L|416:344,1,102
324,328,28708,2,0,L|460:256,1,153.000005836487
80,196,29093,1,0,0:0:0:0:
220,248,29285,6,0,P|164:288|128:284,2,102
332,208,29862,2,0,L|284:188,1,51
484,168,30055,2,0,L|496:228,3,51
300,160,30439,2,0,L|408:160,1,102
92,148,30824,5,0,0:0:0:0:
348,216,31016,1,0,0:0:0:0:
92,280,31208,1,0,0:0:0:0:
428,112,31401,1,0,0:0:0:0:
168,248,31593,6,0,L|104:228,1,51
320,256,31785,2,0,L|376:236,1,51
80,160,31978,2,0,L|108:100,1,51
432,160,32170,2,0,L|404:100,1,51
160,272,32362,6,0,P|76:240|32:196,2,153
368,260,33035,1,0,0:0:0:0:
424,256,33131,1,0,0:0:0:0:
476,224,33228,1,0,0:0:0:0:
504,168,33324,1,0,0:0:0:0:
460,124,33420,1,0,0:0:0:0:
244,152,33516,2,0,L|136:152,1,102
300,80,33756,1,0,0:0:0:0:
344,80,33805,1,0,0:0:0:0:
388,80,33853,1,0,0:0:0:0:
432,80,33901,6,0,P|484:128|440:240,1,204
180,260,34670,2,0,P|228:208|320:184,1,153
496,188,35055,2,0,L|392:188,1,102
24,248,35439,6,0,L|128:248,3,102
404,240,36208,2,0,P|412:184|392:136,1,102
232,148,36497,1,0,0:0:0:0:
68,152,36593,1,0,0:0:0:0:
396,142,36785,1,0,0:0:0:0:
272,220,36978,6,0,P|260:296|268:320,1,102
424,252,37362,2,0,P|424:304|400:352,1,102
148,224,37747,2,0,L|40:224,2,102
280,284,38324,2,0,L|220:284,1,51
480,196,38516,6,0,P|468:252|444:296,1,102
316,232,38901,2,0,P|396:232|448:184,1,153
264,156,39285,2,0,L|168:196,1,102
316,232,39670,1,0,0:0:0:0:
64,300,39766,1,0,0:0:0:0:
316,232,39862,1,0,0:0:0:0:
472,176,40055,6,0,P|472:108|396:56,1,153
188,160,40439,2,0,L|292:120,1,102
436,176,40824,2,0,L|324:188,1,102
136,240,41112,1,0,0:0:0:0:
64,284,41208,2,0,L|176:284,1,102
472,256,41593,6,0,P|452:184|384:148,1,153
296,192,41978,2,0,L|184:192,1,102
40,256,42362,2,0,P|60:184|128:148,1,153
216,192,42747,2,0,L|328:192,1,102
460,192,43131,5,0,0:0:0:0:
312,280,43324,1,0,0:0:0:0:
460,192,43516,1,0,0:0:0:0:
460,192,43708,1,0,0:0:0:0:
96,192,43901,1,0,0:0:0:0:
56,192,43997,1,0,0:0:0:0:
212,192,44189,1,0,0:0:0:0:
248,192,44285,2,0,L|352:192,1,102
488,192,44670,6,0,L|384:192,1,102
224,256,44958,2,0,L|224:312,1,51
380,256,45247,2,0,L|484:256,1,102
24,128,45631,1,0,0:0:0:0:
256,188,45728,1,0,0:0:0:0:
488,256,45824,2,0,L|488:148,1,102
144,264,46208,6,0,L|252:264,1,102
384,264,46593,2,0,L|276:264,1,102
132,188,46978,2,0,P|188:168|288:200,2,153
400,264,47747,6,0,P|472:256|492:176,2,153
272,208,48516,2,0,P|320:164|368:160,1,102
404,192,48805,1,0,0:0:0:0:
220,256,48901,2,0,L|160:256,2,51
488,176,49285,6,0,P|448:104|336:92,1,204
192,180,49862,1,0,0:0:0:0:
356,208,49958,1,0,0:0:0:0:
416,232,50055,1,0,0:0:0:0:
92,280,50247,2,0,L|36:260,2,51
360,260,50631,1,0,0:0:0:0:
64,256,50824,6,0,L|16:104,1,153
224,192,51208,2,0,P|280:148|236:96,1,153
424,284,51593,5,0,0:0:0:0:
476,248,51689,1,0,0:0:0:0:
488,188,51785,1,0,0:0:0:0:
452,140,51881,1,0,0:0:0:0:
248,256,51978,1,0,0:0:0:0:
196,220,52074,1,0,0:0:0:0:
184,160,52170,1,0,0:0:0:0:
220,112,52266,1,0,0:0:0:0:
432,192,52362,6,0,P|432:252|340:276,2,153
60,248,53131,2,0,P|56:164|156:108,1,204
448,148,53612,1,0,0:0:0:0:
287,192,53708,1,0,0:0:0:0:
144,272,53901,6,0,P|176:324|272:320,2,153
484,212,54670,2,0,P|440:140|328:136,1,204
192,160,55247,1,0,0:0:0:0:
480,256,55439,6,0,L|396:320,1,102
232,280,55824,2,0,L|144:336,1,102
288,296,56208,1,0,0:0:0:0:
156,228,56401,1,0,0:0:0:0:
444,228,56593,1,0,0:0:0:0:
312,168,56785,1,0,0:0:0:0:
28,112,56978,6,0,L|44:172,1,51
112,160,57170,2,0,L|132:220,1,51
336,264,57362,2,0,L|396:264,2,51
68,244,57747,1,0,0:0:0:0:
356,168,57939,1,0,0:0:0:0:
68,244,58131,2,0,P|60:312|68:344,1,102
416,268,58516,6,0,L|416:204,1,51
184,216,58708,2,0,L|184:160,1,51
460,120,58901,2,0,L|460:172,1,51
260,264,59093,2,0,L|260:328,1,51
72,160,59285,6,0,L|16:160,3,51
344,160,59670,2,0,L|400:160,3,51
256,192,60055,12,0,61208,0:0:0:0:
176,132,61593,6,0,L|296:72,1,132.599993930054
496,224,61881,2,0,L|388:144,1,132.599993930054
168,264,62170,2,0,L|284:192,1,132.599993930054
448,180,62458,6,0,L|380:180,2,66.299996965027
136,180,62747,2,0,L|112:48,1,132.599993930054
288,128,63035,1,0,0:0:0:0:
464,244,63131,6,0,L|400:200,1,66.299996965027
336,244,63324,2,0,L|400:216,1,66.299996965027
172,248,63516,2,0,L|104:224,1,66.299996965027
200,224,63708,2,0,L|264:204,1,66.299996965027
476,132,63901,5,0,0:0:0:0:
484,212,63997,1,0,0:0:0:0:
444,280,64093,1,0,0:0:0:0:
372,316,64189,1,0,0:0:0:0:
132,168,64285,1,0,0:0:0:0:
256,120,64478,1,0,0:0:0:0:
384,184,64670,6,0,L|276:280,1,132.599993930054
100,208,64958,2,0,L|192:304,1,132.599993930054
388,284,65247,2,0,L|280:208,1,132.599993930054
136,136,65631,1,0,0:0:0:0:
344,136,65728,1,0,0:0:0:0:
136,136,65824,1,0,0:0:0:0:
260,176,66016,6,0,P|204:280|72:268,1,265.199987860108
200,232,66593,2,0,L|336:232,1,132.599993930054
32,96,66978,2,0,L|48:168,1,66.299996965027
224,140,67170,2,0,L|212:212,1,66.299996965027
24,256,67362,2,0,L|48:328,1,66.299996965027
280,288,67555,1,0,0:0:0:0:
436,232,67747,6,0,P|464:140|440:104,1,132.599993930054
268,196,68035,2,0,L|184:88,1,132.599993930054
28,228,68324,2,0,P|40:312|204:312,1,265.199987860108
480,152,68901,2,0,P|416:128|344:120,1,132.599993930054
52,288,69285,5,0,0:0:0:0:
196,240,69478,1,0,0:0:0:0:
52,288,69670,1,0,0:0:0:0:
392,232,69862,1,0,0:0:0:0:
124,128,70055,2,0,L|8:56,1,132.599993930054
392,232,70439,1,0,0:0:0:0:
392,232,70824,6,0,P|296:200|204:140,1,198.899990895081
400,288,71208,2,0,L|496:180,1,132.599993930054
56,268,71593,1,0,0:0:0:0:
348,152,71785,1,0,0:0:0:0:
32,136,71978,1,0,0:0:0:0:
352,232,72170,6,0,L|468:304,2,132.599993930054
172,260,72747,2,0,L|192:128,1,132.599993930054
272,136,73035,1,0,0:0:0:0:
352,136,73131,1,0,0:0:0:0:
480,136,73324,6,0,L|408:136,1,66.299996965027
324,184,73516,2,0,L|392:184,1,66.299996965027
472,184,73708,1,0,0:0:0:0:
160,224,73901,6,0,P|88:264|64:316,1,132.599993930054
236,320,74189,2,0,P|328:296|352:264,1,132.599993930054
144,168,74478,2,0,P|76:128|64:80,1,132.599993930054
432,160,74862,1,0,0:0:0:0:
344,160,74958,1,0,0:0:0:0:
432,160,75055,1,0,0:0:0:0:
72,244,75247,6,0,P|76:152|228:124,1,265.199987860108
372,184,75824,2,0,L|344:316,1,132.599993930054
264,312,76112,1,0,0:0:0:0:
184,312,76208,1,0,0:0:0:0:
492,140,76401,1,0,0:0:0:0:
192,168,76593,2,0,L|272:284,1,132.599993930054
428,248,76978,6,0,P|368:184|316:176,1,132.599993930054
144,240,77266,2,0,P|184:292|248:296,1,132.599993930054
436,212,77555,2,0,P|400:112|256:92,1,265.199987860108
404,184,78131,1,0,0:0:0:0:
48,216,78324,6,0,L|16:348,1,132.599993930054
204,300,78708,2,0,L|228:232,1,66.299996965027
388,244,78901,2,0,L|344:188,1,66.299996965027
80,164,79093,2,0,L|136:128,1,66.299996965027
392,176,79285,5,0,0:0:0:0:
280,224,79413,1,0,0:0:0:0:
168,272,79542,1,0,0:0:0:0:
416,208,79670,2,0,L|240:168,1,176.799991906739
432,256,80055,6,0,P|480:200|432:92,1,198.899990895081
224,272,80439,2,0,L|392:148,1,198.899990895081
156,288,80824,2,0,B|84:236|28:140|8:208,2,198.899990895081
472,200,81593,5,0,0:0:0:0:
156,224,81978,2,0,P|232:216|164:104,1,265.199987860108
456,248,82651,1,0,0:0:0:0:
244,276,82939,1,0,0:0:0:0:
424,168,83131,6,0,L|396:300,1,132.599993930054
120,152,83516,2,0,L|152:288,1,132.599993930054
300,252,83901,2,0,L|228:252,1,66.299996965027
312,196,84093,2,0,L|244:196,1,66.299996965027
324,144,84285,2,0,L|252:144,1,66.299996965027
496,128,84478,6,0,B|496:236|496:236|328:268,1,265.199987860108
172,216,85055,1,0,0:0:0:0:
148,140,85151,1,0,0:0:0:0:
172,64,85247,1,0,0:0:0:0:
232,12,85343,1,0,0:0:0:0:
32,264,85439,5,0,0:0:0:0:
396,160,85631,1,0,0:0:0:0:
256,192,86208,12,0,87747,0:0:0:0:
