osu file format v14

[General]
AudioFilename: audio.mp3
AudioLeadIn: 0
PreviewTime: 61327
Countdown: 0
SampleSet: Soft
StackLeniency: 0.7
Mode: 0
LetterboxInBreaks: 0
WidescreenStoryboard: 0

[Editor]
DistanceSpacing: 1
BeatDivisor: 2
GridSize: 4
TimelineZoom: 1

[Metadata]
Title:Caste Room
TitleUnicode:カーストルーム
Artist:ZAQ
ArtistUnicode:ZAQ
Creator:Garden
Version:Normal
Source:ようこそ実力至上主義の教室へ
Tags:CoLouRed GlaZeE Youkoso Jitsuryoku Shijou Shugi no Kyoushitsu e classroom of the elite opening tvsize
BeatmapID:1382790
BeatmapSetID:651755

[Difficulty]
HPDrainRate:3.5
CircleSize:3.3
OverallDifficulty:4
ApproachRate:5
SliderMultiplier:1
SliderTickRate:1

[Events]
//Background and Video events
0,0,"waifu.jpg",0,0
Video,0,"optc.flv"
//Break Periods
2,21719,24934
//Storyboard Layer 0 (Background)
//Storyboard Layer 1 (Fail)
//Storyboard Layer 2 (Pass)
//Storyboard Layer 3 (Foreground)
//Storyboard Sound Samples

[TimingPoints]
-19,384.615384615385,4,2,1,60,1,0
58442,-100,4,2,1,70,0,0
61519,-100,4,2,1,80,0,1
84404,-100,4,2,1,70,0,0
87673,-111.111111111111,4,2,1,70,0,0
88634,-100,4,2,1,10,0,0

[Colours]
Combo1 : 255,117,255
Combo2 : 255,255,121
Combo3 : 255,193,224
Combo4 : 255,164,119
SliderBorder : 100,150,200
SliderTrackOverride : 30,50,50

[HitObjects]
256,192,9211,12,4,10750,0:3:0:0:
69,107,11904,5,8,0:1:0:0:
162,140,12288,6,0,L|268:125,1,100,4|0,0:0|1:0,0:0:0:0:
356,96,13057,2,0,L|350:213,1,100,0|8,1:0|0:0,0:0:0:0:
382,234,13634,2,0,P|393:289|372:344,1,100,0|2,0:0|0:0,0:0:0:0:
353,372,14211,1,0,1:0:0:0:
253,360,14596,2,0,L|194:365,2,50,0|0|8,1:0|1:0|0:0,0:0:0:0:
271,261,15365,6,0,L|145:269,1,100,0|0,1:0|1:0,0:0:0:0:
132,297,15942,1,2,0:0:0:0:
132,297,16134,2,0,L|70:303,1,50,0|8,1:0|0:0,0:0:0:0:
35,283,16519,1,4,0:0:0:0:
107,151,17096,2,0,L|100:101,1,50,0|4,1:0|0:0,0:0:0:0:
178,38,17673,1,0,1:0:0:0:
267,82,18057,1,8,0:0:0:0:
360,45,18442,6,0,P|416:41|469:55,1,100,4|0,1:2|1:0,0:0:0:0:
454,150,19211,2,0,P|400:156|329:131,1,100,4|0,1:2|1:0,0:0:0:0:
310,125,19788,1,0,1:0:0:0:
256,192,19981,12,2,21519,1:3:0:0:
257,358,26134,5,2,0:0:0:0:
355,342,26519,1,2,0:0:0:0:
431,277,26904,2,0,L|443:216,1,50,4|0,1:3|0:0,0:0:0:0:
400,197,27288,2,0,L|395:147,1,50,8|8,1:3|0:0,0:0:0:0:
429,110,27673,6,0,P|436:53|416:9,1,100,0|10,1:0|0:0,0:0:0:0:
336,70,28442,1,0,0:0:0:0:
243,31,28827,1,10,0:0:0:0:
169,98,29211,2,0,L|58:94,1,100,0|10,1:0|0:0,0:0:0:0:
6,173,29981,1,0,0:0:0:0:
70,249,30365,1,10,0:0:0:0:
161,208,30750,6,0,L|227:200,1,50,4|0,1:0|1:0,0:0:0:0:
257,219,31134,2,0,L|329:211,1,50,0|0,1:0|1:0,0:0:0:0:
347,184,31519,1,0,1:0:0:0:
411,107,31904,1,0,1:0:0:0:
358,22,32288,6,0,B|321:19|321:19|278:45,2,75,4|12|12,1:0|1:0|1:0,0:0:0:0:
508,27,33442,1,8,0:0:0:0:
507,127,33827,6,0,L|502:235,1,100,4|0,0:0|1:0,0:0:0:0:
483,325,34596,2,0,P|434:307|360:315,1,100,2|8,1:2|1:2,0:0:0:0:
338,319,35173,1,2,0:0:0:0:
251,369,35557,1,2,0:0:0:0:
159,328,35942,2,0,P|146:283|155:222,1,100,2|2,0:0|0:0,0:0:0:0:
180,189,36519,2,0,L|235:193,1,50,8|8,1:2|0:0,0:0:0:0:
279,196,36904,5,0,1:0:0:0:
362,141,37288,1,0,1:0:0:0:
308,56,37673,2,0,L|317:5,2,50,0|2|8,1:0|0:0|1:2,0:0:0:0:
264,80,38250,1,2,0:0:0:0:
168,50,38634,2,0,L|110:43,1,50,2|0,0:0|1:0,0:0:0:0:
75,70,39019,2,0,P|56:125|74:195,1,100,2|2,0:0|0:0,0:0:0:0:
96,201,39596,2,0,L|103:260,1,50,8|10,0:0|0:0,0:0:0:0:
92,300,39981,6,0,P|136:288|193:293,1,100,4|8,0:0|1:2,0:0:0:0:
273,346,40750,1,2,1:2:0:0:
355,289,41134,1,8,1:2:0:0:
432,352,41519,2,0,B|451:294|451:294|422:136,1,200,0|0,1:0|1:0,0:0:0:0:
402,60,42673,1,8,0:0:0:0:
312,103,43057,6,0,L|102:93,1,200,0|0,1:0|1:0,0:0:0:0:
20,52,44211,1,8,1:2:0:0:
2,150,44596,2,0,P|2:204|16:264,1,100,0|8,1:0|1:2,0:0:0:0:
106,219,45365,2,0,L|175:215,2,50,0|8|8,1:0|0:1|0:1,0:0:0:0:
85,316,46134,6,0,L|273:305,1,150,4|0,1:2|1:0,0:0:0:0:
285,304,46904,1,2,1:3:0:0:
197,182,47481,1,2,1:3:0:0:
197,182,47673,2,0,L|186:87,2,75,2|2|2,1:3|1:3|1:3,0:0:0:0:
242,202,48442,1,2,1:3:0:0:
361,41,49211,6,0,P|448:58|477:126,1,150,0|0,1:0|1:0,0:0:0:0:
476,157,49981,1,2,1:3:0:0:
397,284,50557,1,2,1:3:0:0:
397,284,50750,2,0,L|394:375,2,75,4|0|0,1:2|1:0|1:0,0:0:0:0:
360,249,51519,2,0,P|305:244|253:268,1,100,2|4,1:2|1:3,0:0:0:0:
187,324,52288,6,0,P|102:322|56:264,1,150,2|0,1:2|1:0,0:0:0:0:
75,229,53057,2,0,L|83:116,1,100,4|2,1:2|1:2,0:0:0:0:
86,29,53827,2,0,P|57:31|15:55,2,75,2|2|0,1:3|1:3|1:0,0:0:0:0:
133,44,54596,2,0,L|250:35,1,100,4|2,1:2|0:3,0:0:0:0:
322,80,55365,5,4,0:0:0:0:
408,29,55750,1,8,0:0:0:0:
487,89,56134,2,0,P|501:140|486:206,1,100,2|8,0:3|0:0,0:0:0:0:
395,199,56904,2,0,L|280:191,2,100,2|8|2,0:3|0:0|0:3,0:0:0:0:
458,276,58057,1,8,0:0:0:0:
389,348,58442,6,0,L|318:346,1,50,2|2,1:3|1:3,0:0:0:0:
292,364,58827,2,0,L|227:338,1,50,2|2,1:3|1:3,0:0:0:0:
196,355,59211,2,0,L|164:314,1,50,2|2,1:3|1:3,0:0:0:0:
115,308,59596,2,0,L|112:240,1,50,2|2,1:3|1:3,0:0:0:0:
68,234,59981,6,0,P|118:177|117:91,1,150,2|2,1:3|0:3,0:0:0:0:
95,63,60750,2,0,L|21:55,1,75,4|8,1:0|1:0,0:0:0:0:
185,23,61519,6,0,P|234:9|297:19,1,100,6|8,1:2|1:0,0:0:0:0:
330,27,62096,2,0,L|324:100,1,50,2|0,0:0|1:0,0:0:0:0:
249,141,62673,1,8,1:0:0:0:
249,141,62865,2,0,P|231:195|251:254,1,100,2|2,0:0|0:0,0:0:0:0:
266,278,63442,2,0,L|327:271,1,50,8|0,1:0|0:0,0:0:0:0:
365,265,63827,1,2,1:2:0:0:
458,226,64211,2,0,L|466:162,1,50,8|2,1:0|0:0,0:0:0:0:
492,135,64596,6,0,P|494:86|460:27,1,100,0|8,1:0|1:0,0:0:0:0:
437,4,65173,1,0,0:0:0:0:
357,64,65557,1,2,0:0:0:0:
265,22,65942,2,0,L|165:27,1,100,4|0,1:2|1:0,0:0:0:0:
123,52,66519,1,8,1:0:0:0:
123,52,66711,2,0,P|144:110|135:166,1,100,2|2,0:0|0:0,0:0:0:0:
120,192,67288,1,8,1:0:0:0:
44,257,67673,6,0,P|37:314|55:357,1,100,2|8,1:2|1:0,0:0:0:0:
94,379,68250,1,2,0:0:0:0:
184,336,68634,2,0,L|186:278,2,50,0|8|2,0:0|1:0|0:0,0:0:0:0:
219,371,69211,2,0,P|273:376|325:353,1,100,0|8,1:0|1:0,0:0:0:0:
377,281,69981,1,0,1:0:0:0:
312,204,70365,1,8,1:0:0:0:
362,117,70750,6,0,L|464:109,1,100,0|8,1:0|1:0,0:0:0:0:
459,209,71519,2,0,L|398:213,2,50,0|0|0,1:0|1:0|1:0,0:0:0:0:
498,240,72096,2,0,P|508:294|487:355,1,100,4|0,1:2|0:0,0:0:0:0:
455,361,72673,1,0,1:0:0:0:
455,361,72865,2,0,L|341:353,1,100,4|0,1:2|1:0,0:0:0:0:
309,333,73442,2,0,L|244:329,1,50,0|0,1:0|1:0,0:0:0:0:
212,347,73827,5,6,1:2:0:0:
128,292,74211,2,0,L|66:296,2,50,8|2|0,1:0|0:0|1:0,0:0:0:0:
214,240,74981,1,8,1:0:0:0:
214,240,75173,2,0,P|222:188|206:133,1,100,2|2,0:0|0:0,0:0:0:0:
171,111,75750,2,0,L|116:114,1,50,8|0,1:0|0:0,0:0:0:0:
71,117,76134,1,2,1:2:0:0:
41,212,76519,2,0,L|100:210,1,50,8|2,1:0|0:0,0:0:0:0:
138,227,76904,6,0,P|121:273|135:331,1,100,0|8,1:0|1:0,0:0:0:0:
160,361,77481,1,0,0:0:0:0:
253,325,77865,2,0,L|316:317,1,50,2|8,0:0|1:0,0:0:0:0:
351,331,78250,2,0,P|395:333|446:308,1,100,4|2,1:2|1:2,0:0:0:0:
469,267,78827,1,8,1:0:0:0:
469,267,79019,2,0,L|458:168,1,100,2|0,0:0|0:0,0:0:0:0:
449,118,79596,1,4,1:2:0:0:
355,155,79981,6,0,P|304:163|246:147,1,100,4|0,1:0|1:0,0:0:0:0:
169,105,80750,2,0,L|176:25,2,75,8|8|8,1:2|0:0|0:0,0:0:0:0:
133,140,81519,2,0,L|142:239,1,100,0|0,1:0|1:0,0:0:0:0:
176,333,82288,2,0,P|139:334|96:348,2,75,8|8|8,1:2|0:0|0:0,0:0:0:0:
221,354,83057,6,0,L|286:344,1,50,8|8,1:0|1:2,0:0:0:0:
317,362,83442,2,0,L|364:335,1,50,8|8,1:2|1:2,0:0:0:0:
406,320,83827,2,0,P|421:287|420:232,2,75,8|0|4,1:0|1:0|1:0,0:0:0:0:
259,117,85365,5,4,1:2:0:0:
259,117,85557,1,4,1:2:0:0:
403,156,86134,6,0,L|393:272,1,100,2|2,1:3|1:3,0:0:0:0:
400,305,86711,2,0,P|342:294|289:304,1,100,4|0,1:2|0:0,0:0:0:0:
256,320,87288,1,2,1:3:0:0:
179,384,87673,6,0,P|160:292|256:221,1,224.999993133545,0|0,1:0|0:0,0:0:0:0:
